<?xml version="1.0" standalone="no"?>
<!DOCTYPE svg PUBLIC "-//W3C//DTD SVG 1.1//EN" "http://www.w3.org/Graphics/SVG/1.1/DTD/svg11.dtd" >
<svg xmlns="http://www.w3.org/2000/svg">
    <metadata></metadata>
    <defs>
        <font id="sukhumvit_setbold" horiz-adv-x="0">
            <font-face units-per-em="2048" ascent="1638" descent="-410"/>
            <missing-glyph horiz-adv-x="503"/>
            <glyph unicode="fi" horiz-adv-x="1214"
                   d="M452 1059v41q0 66 19.5 114.5t52 75t74.5 40t87 13.5t89.5 -7.5t82 -21t65.5 -29.5l60 211q-101 68 -294 68q-239 0 -378 -123q-138 -124 -138 -334v-48h-143v-208h143v-851h280v851h343v-851h282v1059h-625z"/>
            <glyph unicode="fl" horiz-adv-x="1214"
                   d="M1077 0v1481q-155 83 -373 83q-241 0 -386.5 -123t-145.5 -336v-46h-143v-208h143v-851h280v851h206v208h-206v46q0 245 210 245q90 0 133 -24v-1326h282z"/>
            <glyph/>
            <glyph/>
            <glyph unicode="&#xd;" horiz-adv-x="422"/>
            <glyph unicode=" " horiz-adv-x="503"/>
            <glyph unicode="&#x09;" horiz-adv-x="503"/>
            <glyph unicode="&#xa0;" horiz-adv-x="503"/>
            <glyph unicode="!" horiz-adv-x="549"
                   d="M167 458h215l41 1005h-297zM445 149q0 80 -47 129.5t-125 49.5q-74 0 -121.5 -50t-47.5 -129q0 -74 47 -123.5t120 -49.5q78 0 126 48.5t48 124.5z"/>
            <glyph unicode="&#x22;" horiz-adv-x="810" d="M132 938h166l45 564h-256zM514 938h165l46 564h-256z"/>
            <glyph unicode="#" horiz-adv-x="1139"
                   d="M888 1019l54 392h-169l-54 -392h-207l57 392h-169l-54 -392h-211v-174h184l-37 -267h-206v-176h176l-55 -402h172l54 402h205l-57 -402h171l55 402h208v176h-178l35 267h199v174h-173zM452 578l37 267h203l-37 -267h-203z"/>
            <glyph unicode="$" horiz-adv-x="1154"
                   d="M1025 425q0 143 -81.5 237.5t-264.5 164.5q-79 31 -120 53q-25 13 -39.5 21t-36 23.5t-33 30t-20.5 36t-9 45.5q0 62 51.5 103.5t146.5 41.5q142 0 293 -74l58 208q-131 69 -297 73v199h-184v-213q-164 -30 -256 -128.5t-92 -242.5q0 -143 102 -239q81 -78 269 -151 q232 -85 232 -213q0 -74 -60 -118t-160 -44q-179 0 -337 94l-61 -216q139 -84 350 -92v-213h184v226q172 29 268.5 135t96.5 253z"/>
            <glyph unicode="%" horiz-adv-x="1816"
                   d="M788 1013q0 187 -93.5 304.5t-262.5 117.5q-181 0 -280 -137q-92 -122 -92 -306q0 -174 89 -296q101 -129 270 -129q178 0 277 139q92 125 92 307zM421 -26h159l812 1461h-157zM578 1001q0 -278 -151 -278q-78 0 -116 79t-38 192q0 105 29 178q37 106 123 106 q153 0 153 -277zM1756 430q0 185 -92 302t-262 117q-172 0 -271.5 -126t-99.5 -315q0 -174 89 -296q100 -129 270 -129q86 0 156.5 35.5t115.5 97t69.5 142t24.5 172.5zM1548 417q0 -278 -150 -278q-86 0 -126 99q-28 71 -28.5 174t28.5 176q39 104 124 104q152 0 152 -275z "/>
            <glyph unicode="&#x26;" horiz-adv-x="1397"
                   d="M1388 0l-251 276q169 191 230 549h-251q-35 -237 -126 -380q-156 176 -278 321v7q297 155 297 382q0 149 -103 240.5t-266 91.5q-185 0 -298.5 -111t-113.5 -266q0 -158 115 -292v-8q-278 -150 -278 -421q0 -172 119 -285q89 -84 227 -114t285.5 3t256.5 125 q68 -78 108 -118h327zM771 1146q0 -122 -185 -239q-102 120 -102 228q0 72 40.5 122t105.5 50q63 0 102 -46.5t39 -114.5zM820 276q-85 -94 -227 -94q-114 0 -187.5 71t-73.5 182q0 138 137 234q280 -319 351 -393z"/>
            <glyph unicode="'" horiz-adv-x="429" d="M132 938h166l45 564h-256z"/>
            <glyph unicode="(" horiz-adv-x="652" d="M389 -257h201q-236 376 -236 878q0 520 236 881h-201q-259 -367 -259 -881q-1 -511 259 -878z"/>
            <glyph unicode=")" horiz-adv-x="652" d="M524 625q2 518 -259 877h-202q155 -241 210 -560.5t0 -638.5t-210 -560h202q259 370 259 882z"/>
            <glyph unicode="*" horiz-adv-x="947"
                   d="M547 1112l224 278l-170 97l-125 -321h-5l-125 319l-172 -97l219 -270l-2 -4l-328 58v-195l332 57v-7l-221 -267l164 -100l128 322l5 2l128 -324l172 100l-226 265l2 4l339 -52v195z"/>
            <glyph unicode="+" horiz-adv-x="1293" d="M740 669v486h-187v-486h-466v-178h466v-491h187v491h467v178h-467z"/>
            <glyph unicode="," horiz-adv-x="522" d="M456 341l-293 -22q-48 -296 -148 -582l190 18q144 236 251 586z"/>
            <glyph unicode="-" horiz-adv-x="679" d="M65 673v-193h550v193h-550z"/>
            <glyph unicode="." horiz-adv-x="522" d="M452 154q0 79 -47.5 129.5t-122.5 50.5q-77 0 -125.5 -51t-48.5 -129q0 -76 48 -127t122 -51q78 0 126 49.5t48 128.5z"/>
            <glyph unicode="/" horiz-adv-x="717" d="M19 -87h192l512 1574h-193z"/>
            <glyph unicode="0" horiz-adv-x="1154"
                   d="M1083 714q0 296 -99 482q-131 239 -398 239q-132 0 -233 -59.5t-161 -162.5t-90 -232t-30 -279q0 -292 104 -483q50 -94 132.5 -155t175.5 -78t187 0t176.5 78t134.5 155q101 194 101 495zM801 708q0 -516 -223 -517q-226 1 -226 511q0 100 10.5 185t34.5 163t70.5 123 t110.5 45q223 0 223 -510z"/>
            <glyph unicode="1" horiz-adv-x="1154" d="M543 1411l-350 -172l48 -210l258 129h5v-1158h273v1411h-234z"/>
            <glyph unicode="2" horiz-adv-x="1154"
                   d="M487 232v4l120 110q183 156 292 314q114 172 114 345q1 191 -123 310.5t-343 119.5q-251 0 -431 -141l79 -202q152 115 296 115q243 0 243 -228q-5 -133 -119 -283q-93 -118 -354 -366l-170 -158v-172h953v232h-557z"/>
            <glyph unicode="3" horiz-adv-x="1154"
                   d="M1025 404q0 136 -89 236q-83 89 -215 116v4q82 29 139 75.5t83 98.5t33 109.5t-6.5 110.5t-41 99t-64.5 77q-79 68 -213.5 93t-277.5 -0.5t-243 -94.5l61 -201q131 85 282 85q104 0 165 -50q52 -46 52 -120q0 -89 -79 -139t-190 -50h-115v-204h119q134 0 221.5 -62 t87.5 -170q2 -92 -65 -150q-74 -68 -209 -68q-168 0 -317 85l-58 -212q149 -96 391 -96q251 0 405 124q144 118 144 304z"/>
            <glyph unicode="4" horiz-adv-x="1154" d="M934 567v844h-333l-558 -875v-182h626v-354h265v354h176v213h-176zM671 1179h6q-8 -165 -8 -249v-363h-361l237 367q101 186 126 245z"/>
            <glyph unicode="5" horiz-adv-x="1154"
                   d="M1031 466q0 223 -154 344q-141 108 -367 108q-42 4 -96 -4l40 265h532v232h-729l-92 -715q98 14 187 14q392 0 392 -265q0 -117 -91 -184q-82 -64 -204 -64q-169 0 -306 72l-54 -213q146 -80 371 -80q254 1 412.5 141.5t158.5 348.5z"/>
            <glyph unicode="6" horiz-adv-x="1154"
                   d="M1094 482q0 206 -121 332t-304 126q-197 0 -309 -130h-6q32 163 149.5 269t312.5 126q81 11 133 7v219q-47 4 -135 -4q-313 -27 -501 -209q-95 -89 -154.5 -207.5t-78 -238.5t-10.5 -238t44 -217t91 -165q91 -114 235 -155t284.5 -5t232.5 136q137 143 137 354zM810 466 q0 -123 -57 -202.5t-156 -79.5q-120 0 -187 100q-63 88 -64 228q0 45 17 85q64 139 215 139q109 0 170.5 -74t61.5 -196z"/>
            <glyph unicode="7" horiz-adv-x="1154" d="M110 1411v-232h650l-582 -1179h295l584 1233v178h-947z"/>
            <glyph unicode="8" horiz-adv-x="1154"
                   d="M1085 398q0 250 -265 358v4q214 108 214 319q0 171 -141 269q-120 87 -303 87q-188 0 -321 -97q-59 -43 -97 -104.5t-48 -130.5t5.5 -137t67.5 -129.5t133 -102.5v-5q-258 -117 -258 -364q0 -120 70 -210t182 -134.5t247 -44.5q142 1 257.5 49t186 145.5t70.5 227.5z M771 1048q0 -71 -45.5 -127.5t-118.5 -77.5q-216 65 -216 214q0 84 52.5 134t138.5 50q88 0 138.5 -51t50.5 -142zM801 375q0 -90 -61.5 -145.5t-155.5 -55.5q-97 0 -160.5 62.5t-63.5 158.5q0 183 195 239q246 -70 246 -259z"/>
            <glyph unicode="9" horiz-adv-x="1154"
                   d="M1083 833q0 262 -128 428q-65 84 -164 129t-201 45.5t-203 -38.5t-172 -112q-93 -95 -126.5 -222.5t-5 -247t109.5 -200.5q80 -80 193.5 -108.5t223 -1t180.5 104.5h7q-37 -188 -160 -289t-296 -114q-88 -11 -144 -6v-220q50 -4 155 4q352 26 541.5 250.5t189.5 597.5z M797 888q0 -59 -16 -82q-65 -110 -210 -110q-103 0 -161 69t-58 182q0 119 59 198q60 81 156 81q120 0 180 -106q50 -94 50 -232z"/>
            <glyph unicode=":" horiz-adv-x="522"
                   d="M452 877q0 77 -47.5 127.5t-122.5 50.5t-123.5 -51t-48.5 -127t47 -125.5t121 -49.5q78 0 126 48t48 127zM449 152q0 78 -47 128t-122 50t-123.5 -51t-48.5 -127q0 -75 47 -125.5t121 -50.5q78 0 125.5 48.5t47.5 127.5z"/>
            <glyph unicode=";" horiz-adv-x="522"
                   d="M464 877q0 77 -46.5 127.5t-121.5 50.5q-76 0 -124 -50.5t-48 -127.5q0 -76 46 -125.5t120 -49.5q79 0 126.5 48t47.5 127zM454 341l-291 -22q-48 -296 -148 -582l190 18q137 229 249 586z"/>
            <glyph unicode="&#x3c;" horiz-adv-x="1293" d="M354 576v4l810 371v204l-1034 -497v-161l1034 -497v201z"/>
            <glyph unicode="=" horiz-adv-x="1293" d="M87 890v-176h1120v176h-1120zM87 452v-179h1120v179h-1120z"/>
            <glyph unicode="&#x3e;" horiz-adv-x="1293" d="M130 1155v-202l825 -373v-4l-825 -375v-201l1034 491v174z"/>
            <glyph unicode="?" horiz-adv-x="922"
                   d="M838 1158q0 146 -104 238.5t-291 92.5q-205 0 -339 -87l66 -201q44 34 109 50.5t126 12.5t104.5 -42t43.5 -106q0 -93 -132 -252q-139 -171 -131 -356l6 -54h247l-2 45q-6 155 112 286q102 126 126 166q59 101 59 207zM584 152q0 77 -47 126.5t-125 49.5q-75 0 -122 -50 t-47 -126t46.5 -126t120.5 -50q79 0 126.5 48.5t47.5 127.5z"/>
            <glyph unicode="@" horiz-adv-x="1624"
                   d="M1537 864q0 178 -81 320.5t-226.5 222.5t-328.5 80q-352 0 -580 -250q-142 -154 -193 -361t-4.5 -400.5t176.5 -319.5q190 -180 464 -180q223 0 388 80l-34 114q-137 -72 -317 -72q-249 1 -399 154t-150 419q0 201 83.5 361t226.5 247.5t317 87.5q241 0 382 -147 q131 -142 131 -367q0 -179 -70 -286q-41 -63 -92 -85t-87 5t-36 91q0 23 4 46q5 39 7 55l69 402q-95 50 -247 50q-144 0 -260.5 -69t-180.5 -185.5t-64 -255.5q0 -128 65 -203t171 -75q177 -1 286 175h4q9 -175 179 -175q168 0 284 141q113 142 113 380zM988 968l-37 -224 q-18 -100 -79 -173.5t-130 -73.5q-117 0 -117 143q0 138 84 240t200 102q40 -1 79 -14z"/>
            <glyph unicode="A" horiz-adv-x="1365" d="M497 1463l-456 -1463h291l115 402h443l123 -402h302l-460 1463h-358zM493 615l102 344q49 191 67 280h7l71 -280l107 -344h-354z"/>
            <glyph unicode="B" horiz-adv-x="1247"
                   d="M1166 423q0 138 -82 233t-212 129v5q242 87 242 315q-1 180 -149 274.5t-422 94.5q-235 0 -394 -30v-1440q136 -19 331 -19q186 0 322 34t214 95.5t114 138t36 170.5zM831 1075q0 -94 -74 -150.5t-204 -56.5h-126v387q51 13 146 13q258 0 258 -193zM870 435 q0 -123 -93 -185q-50 -32 -129 -44t-131 -10t-90 9v462h124q144 -1 231.5 -61t87.5 -171z"/>
            <glyph unicode="C" horiz-adv-x="1251"
                   d="M1133 1198l61 223q-64 34 -169 51.5t-230.5 12.5t-260.5 -56t-234 -146q-224 -210 -224 -569q0 -335 195 -536q199 -199 543 -199q235 0 367 62l-46 222q-117 -50 -277 -50q-230 0 -358.5 136.5t-128.5 377.5q0 255 139 393q63 63 148.5 96.5t171 36t163.5 -12t140 -42.5 z"/>
            <glyph unicode="D" horiz-adv-x="1458"
                   d="M1383 766q0 364 -231 549q-197 159 -583 159q-233 0 -420 -30v-1440q146 -19 355 -19q432 0 655.5 199t223.5 582zM1088 758q0 -271 -136 -411t-388 -138q-100 0 -134 6v1026q70 14 167 14q237 0 364 -127.5t127 -369.5z"/>
            <glyph unicode="E" horiz-adv-x="1108" d="M430 232v410h536v230h-536v359h566v232h-847v-1463h880v232h-599z"/>
            <glyph unicode="F" horiz-adv-x="1093" d="M149 1463v-1463h281v615h523v228h-523v388h562v232h-843z"/>
            <glyph unicode="G" horiz-adv-x="1423"
                   d="M795 814v-221h241v-355q-60 -23 -183 -23q-221 0 -349 137q-133 142 -133 379q0 246 143 383q65 62 158.5 95t188 35t183.5 -14t159 -47l61 228q-73 36 -188 54.5t-249.5 13.5t-277 -56.5t-247.5 -146.5q-226 -211 -226 -559q-3 -342 204 -539q96 -92 230.5 -141 t275.5 -53t273.5 17t249.5 64v749h-514z"/>
            <glyph unicode="H" horiz-adv-x="1442" d="M1011 1463v-582h-581v582h-281v-1463h281v636h581v-636h283v1463h-283z"/>
            <glyph unicode="I" horiz-adv-x="578" d="M149 1463v-1463h281v1463h-281z"/>
            <glyph unicode="J" horiz-adv-x="845" d="M430 1463v-941q-2 -172 -63 -246q-35 -40 -95.5 -54.5t-118.5 -9t-120 23.5l-33 -225q93 -35 224 -35q486 0 486 538v949h-280z"/>
            <glyph unicode="K" horiz-adv-x="1258" d="M1241 1463h-344l-359 -506q-67 -103 -103 -160h-8v666h-278v-1463h278v506l126 152l391 -658h326l-516 841z"/>
            <glyph unicode="L" horiz-adv-x="1061" d="M430 236v1227h-281v-1463h864v236h-583z"/>
            <glyph unicode="M" horiz-adv-x="1775"
                   d="M1218 1463l-187 -562q-70 -208 -143 -514h-4q-66 302 -132 514l-174 562h-367l-99 -1463h261l31 578q15 226 26 611h5q59 -288 141 -564l182 -606h215l201 615q121 369 166 555h6q-3 -177 15 -605l29 -584h273l-85 1463h-360z"/>
            <glyph unicode="N" horiz-adv-x="1450"
                   d="M1042 1463v-481q0 -297 24 -613l-5 -2q-106 256 -241 491l-351 605h-320v-1463h259v495q0 411 -15 630l7 2q88 -212 253 -506l356 -621h292v1463h-259z"/>
            <glyph unicode="O" horiz-adv-x="1502"
                   d="M1427 747q0 158 -46 294t-130.5 235t-211 155t-279.5 56q-155 0 -284.5 -59t-216.5 -161.5t-135 -243t-48 -302.5q0 -159 45.5 -295.5t129 -236.5t209 -156.5t278.5 -56.5q331 0 515 223q174 214 174 548zM1127 736q0 -106 -23.5 -200.5t-68.5 -170t-118 -120t-165 -44.5 q-75 0 -138 28.5t-107.5 78t-76 116.5t-46.5 143.5t-15 159.5q0 210 87 356q100 178 296 178q91 0 164 -44t118 -118.5t69 -167t24 -195.5z"/>
            <glyph unicode="P" horiz-adv-x="1206"
                   d="M1135 1029q0 213 -145.5 329t-429.5 116q-232 0 -411 -30v-1444h278v547q57 -11 124 -11q145 0 257.5 37t183.5 103.5t107 155.5t36 197zM855 1019q0 -124 -81.5 -193.5t-224.5 -69.5q-76 0 -122 10v481q56 12 146 12q137 0 209.5 -61.5t72.5 -178.5z"/>
            <glyph unicode="Q" horiz-adv-x="1502"
                   d="M1357 -238l80 221q-222 47 -371 87v8q166 70 263.5 247.5t97.5 423.5q0 210 -79.5 376.5t-231.5 264t-352 97.5q-153 0 -281.5 -57t-217.5 -157.5t-139 -243.5t-50 -310q0 -337 189 -543q173 -184 439 -200q45 -4 95 -22q305 -122 558 -192zM1129 736 q0 -106 -23.5 -200.5t-68.5 -170t-118 -120t-165 -44.5q-75 0 -138 28.5t-107.5 78t-76 116.5t-46.5 143.5t-15 159.5q0 145 41.5 263.5t130.5 194.5t213 76q188 0 290 -176q83 -149 83 -349z"/>
            <glyph unicode="R" horiz-adv-x="1230"
                   d="M899 0h288q-19 39 -52 159l-62 249q-59 226 -201 282v6q113 42 187 138.5t74 224.5q0 415 -578 415q-232 0 -406 -30v-1444h278v595h122q110 0 166 -54.5t86 -194.5q58 -272 98 -346zM853 1036q0 -107 -75 -171t-205 -64h-146v450q53 10 157 10q269 0 269 -225z"/>
            <glyph unicode="S" horiz-adv-x="1117"
                   d="M1036 421q0 285 -371 434q-152 63 -207 104q-65 53 -65 129q0 70 54 115q41 35 116 47t169 -4t180 -59l65 226q-143 72 -347 72q-236 0 -379 -119.5t-143 -304.5q0 -282 389 -425q139 -52 195.5 -104.5t56.5 -131.5q0 -88 -66 -138.5t-188 -50.5q-192 0 -350 91l-58 -235 q152 -88 391 -88q263 -1 410.5 121.5t147.5 320.5z"/>
            <glyph unicode="T" horiz-adv-x="1131" d="M21 1463v-237h402v-1226h281v1226h406v237h-1089z"/>
            <glyph unicode="U" horiz-adv-x="1427"
                   d="M999 1463v-858q0 -96 -24.5 -174.5t-65 -126.5t-91.5 -74t-105 -26t-105 26t-91.5 74t-65 126t-24.5 175v858h-280v-838q1 -649 555 -649q277 0 427.5 164.5t150.5 484.5v838h-281z"/>
            <glyph unicode="V" horiz-adv-x="1299" d="M994 1463l-201 -657q-85 -273 -140 -526h-4q-41 186 -137 530l-189 653h-308l465 -1463h321l493 1463h-300z"/>
            <glyph unicode="W" horiz-adv-x="1866"
                   d="M1556 1463l-139 -643q-68 -325 -93 -507h-4q-41 276 -87 495l-135 655h-292l-148 -643q-75 -331 -103 -514h-4q-18 121 -46 280l-43 230l-130 647h-299l346 -1463h305l161 665q57 243 91 462h4q26 -213 79 -460l143 -667h299l382 1463h-287z"/>
            <glyph unicode="X" horiz-adv-x="1272"
                   d="M1216 1463h-319l-145 -293q-34 -65 -55 -115q-9 -23 -28 -67t-27 -62h-4q-54 126 -114 244l-149 293h-321l406 -721l-421 -742h319l137 284q35 79 82 177q32 68 42 94h4l139 -271l147 -284h324l-432 749z"/>
            <glyph unicode="Y" horiz-adv-x="1237" d="M914 1463l-165 -367q-57 -129 -119 -290h-5q-46 116 -121 288l-163 369h-322l454 -858v-605h281v615l475 848h-315z"/>
            <glyph unicode="Z" horiz-adv-x="1206" d="M427 234l706 1062v167h-1015v-234h653l-717 -1073v-156h1090v234h-717z"/>
            <glyph unicode="[" horiz-adv-x="652" d="M363 -83v1411h217v161h-424v-1732h424v160h-217z"/>
            <glyph unicode="\" horiz-adv-x="735" d="M15 1487l509 -1574h193l-508 1574h-194z"/>
            <glyph unicode="]" horiz-adv-x="652" d="M74 1489v-161h216v-1411h-216v-160h423v1732h-423z"/>
            <glyph unicode="^" horiz-adv-x="1293" d="M558 1411l-452 -1018h205l331 796h7l333 -796h205l-451 1018h-178z"/>
            <glyph unicode="_" horiz-adv-x="1085" d="M0 -163v-108h1085v108h-1085z"/>
            <glyph unicode="`" horiz-adv-x="650" d="M26 1506l262 -321h192l-184 321h-270z"/>
            <glyph unicode="a" horiz-adv-x="1098"
                   d="M727 0h252q-15 76 -15 254v380q2 447 -438 447q-234 0 -385 -93l54 -180q127 76 281 76q206 0 206 -172v-18q-294 0 -454.5 -103t-160.5 -298q0 -133 85 -219q47 -49 119.5 -74.5t149.5 -23.5t153.5 37.5t127.5 102.5h6zM690 514v-141q0 -37 -6 -58q-19 -59 -73 -99 t-122 -40q-146 0 -146 147q-1 97 86 144.5t261 46.5z"/>
            <glyph unicode="b" horiz-adv-x="1253"
                   d="M1179 547q0 239 -120 386.5t-310 147.5q-222 0 -326 -161h-4v619h-280v-1237q0 -188 -9 -302h239l13 154h5q103 -178 321 -178q95 0 180 40t150 112t103 180.5t38 238.5zM895 534q0 -156 -66.5 -245.5t-184.5 -89.5q-99 0 -161 70q-64 72 -64 168v176q0 103 65 174 q68 75 163 75q115 0 181.5 -90.5t66.5 -237.5z"/>
            <glyph unicode="c" horiz-adv-x="957"
                   d="M862 825l45 211q-108 45 -249 45q-267 0 -428 -161q-156 -160 -156 -402q0 -247 147 -393t394 -146q182 0 290 52l-37 207q-92 -39 -197 -39q-135 0 -219 87q-92 92 -92 244q0 147 84 239.5t225 92.5q109 0 193 -37z"/>
            <glyph unicode="d" horiz-adv-x="1247"
                   d="M868 0h250q-8 142 -8 302v1237h-283v-588h-4q-78 130 -285 130q-190 0 -325 -147q-139 -154 -139 -416q0 -240 131 -392q60 -74 151.5 -113t183.5 -37.5t177.5 49t133.5 136.5h4zM827 619v-163q0 -106 -54 -176q-64 -79 -168 -79q-115 0 -181 90t-66 237q0 152 67 244 t185 92q80 0 142 -52q54 -48 71 -128q4 -20 4 -65z"/>
            <glyph unicode="e" horiz-adv-x="1108"
                   d="M1040 569q0 107 -28 198.5t-82.5 162.5t-142 112t-199.5 41q-117 0 -215 -45t-162.5 -122.5t-100.5 -180.5t-36 -219q0 -247 144 -391t399 -144q210 0 367 65l-42 192q-129 -47 -284 -47q-135 1 -221.5 67.5t-93.5 190.5h688q9 43 9 120zM777 644h-434q12 106 70.5 177.5 t157.5 71.5q53 0 94 -21t65 -57t35.5 -79t11.5 -92z"/>
            <glyph unicode="f" horiz-adv-x="696"
                   d="M729 1320l18 217q-76 27 -169 27q-181 -2 -293.5 -119.5t-112.5 -342.5v-43h-143v-208h143v-851h280v851h223v208h-223v55q0 226 167 226q60 -2 110 -20z"/>
            <glyph unicode="g" horiz-adv-x="1228"
                   d="M845 922h-4q-92 159 -296 159q-193 0 -328 -147q-143 -161 -143 -410q-1 -227 123 -372.5t317 -145.5q199 0 296 148h4v-82q0 -308 -288 -308q-169 0 -302 80l-59 -215q139 -81 363 -81q262 0 408 129q156 137 156 475v597q0 171 8 310h-245zM812 636v-176q0 -55 -13 -93 q-47 -150 -200 -150q-109 0 -175 88t-66 227q0 154 67.5 244t175.5 90q96 0 153.5 -65t57.5 -165z"/>
            <glyph unicode="h" horiz-adv-x="1228"
                   d="M1094 0v625q0 230 -110 352q-99 104 -253 104q-198 0 -308 -161h-4v619h-280v-1539h280v634q0 92 57.5 155.5t146.5 63.5q189 0 189 -258v-595h282z"/>
            <glyph unicode="i" horiz-adv-x="557"
                   d="M443 1374q0 69 -46.5 114t-116.5 45q-71 0 -117.5 -44.5t-46.5 -114.5q0 -69 45 -113.5t115 -44.5q75 0 121 43t46 115zM139 1059v-1059h280v1059h-280z"/>
            <glyph unicode="j" horiz-adv-x="588"
                   d="M478 1374q0 69 -46.5 114t-116.5 45q-72 0 -119 -44.5t-47 -114.5q0 -69 46 -113.5t116 -44.5q72 0 119.5 43.5t47.5 114.5zM174 1059v-870q-2 -290 -68 -359q-59 -62 -195 -71l29 -221q125 0 218 30.5t160.5 97t101.5 178t34 268.5v947h-280z"/>
            <glyph unicode="k" horiz-adv-x="1106" d="M1079 1059h-335l-240 -336q-7 -12 -38 -58q-23 -32 -43 -68h-4v942h-280v-1539h280v354l87 104l284 -458h343l-434 625z"/>
            <glyph unicode="l" horiz-adv-x="557" d="M139 1539v-1539h280v1539h-280z"/>
            <glyph unicode="m" horiz-adv-x="1821"
                   d="M1684 0v628q0 222 -95 337.5t-251 115.5q-216 0 -337 -188h-5q-75 188 -288 188q-210 0 -319 -174h-7l-13 152h-239q9 -148 9 -321v-738h273v625q0 51 13 87q50 141 178 141q172 0 172 -240v-613h273v634q0 51 13 87q47 132 174 132q176 0 176 -267v-586h273z"/>
            <glyph unicode="n" horiz-adv-x="1228"
                   d="M1094 0v632q0 229 -112 347q-104 102 -259 102q-224 0 -328 -176h-6l-14 154h-245q9 -148 9 -321v-738h280v621q0 96 58 163q58 69 148 69q187 0 187 -254v-599h282z"/>
            <glyph unicode="o" horiz-adv-x="1208"
                   d="M1135 538q0 238 -141 392q-91 98 -237 134t-294.5 -1.5t-243.5 -138.5q-145 -149 -145 -402q0 -242 143 -394q93 -99 238.5 -135t292 1t242.5 138q145 160 145 406zM845 532q0 -92 -25 -169.5t-81 -130t-134 -52.5q-127 0 -191 118q-54 93 -54 230q0 139 54 232 q64 117 191 117q78 0 134 -50t81 -126.5t25 -168.5z"/>
            <glyph unicode="p" horiz-adv-x="1253"
                   d="M1179 543q0 245 -126 391q-125 147 -309 147q-230 0 -351 -180h-4l-14 158h-245q9 -159 9 -351v-1138h280v540h4q86 -134 285 -134q97 0 182 39t149.5 109.5t102 178.5t37.5 240zM895 530q0 -153 -68 -245t-185 -92q-101 0 -164 76q-59 68 -59 172v166q2 101 65 176 q69 77 165 77q115 0 180.5 -91t65.5 -239z"/>
            <glyph unicode="q" horiz-adv-x="1245"
                   d="M841 922l-6 2q-90 157 -297 157q-92 0 -176 -39t-148 -110t-102 -180t-38 -240q0 -238 131 -390q123 -146 303 -146q213 0 315 163h6v-569h281v1177q0 90 8 312h-269zM829 623v-180q0 -40 -13 -78q-21 -77 -78.5 -121.5t-132.5 -44.5q-114 0 -179.5 90t-65.5 237 q0 151 67 243.5t183 92.5q96 0 159 -71q60 -69 60 -168z"/>
            <glyph unicode="r" horiz-adv-x="774"
                   d="M740 810v267q-23 4 -63 4q-91 0 -165 -54q-85 -67 -119 -165h-6l-12 197h-243q9 -125 9 -340l-2 -719h280v545q0 124 62.5 198.5t178.5 74.5q43 0 80 -8z"/>
            <glyph unicode="s" horiz-adv-x="897"
                   d="M827 313q-4 223 -280 323q-99 37 -139 66q-39 28 -39 75q0 51 36.5 78.5t91 28.5t117 -15t115.5 -46l54 198q-113 60 -279 60q-180 0 -293 -95q-46 -40 -76 -93t-35.5 -116t17.5 -123.5t93 -118.5t181 -98q93 -33 128.5 -65t35.5 -84q1 -55 -39.5 -82.5t-120.5 -27.5 q-142 0 -267 76l-54 -202q127 -73 321 -73q204 0 318 89.5t114 244.5z"/>
            <glyph unicode="t" horiz-adv-x="761"
                   d="M458 1059v273l-276 -77v-196h-145v-208h145v-486q0 -211 84 -298q52 -54 138.5 -75t160 -14.5t131.5 26.5l-4 215q-56 -10 -99 -10q-135 0 -135 191v451h248v208h-248z"/>
            <glyph unicode="u" horiz-adv-x="1222"
                   d="M847 0h245q-9 200 -9 321v738h-282v-640q-2 -48 -13 -81q-54 -131 -189 -131q-185 0 -185 275v577h-279v-622q0 -241 106 -356q93 -105 256 -105q224 0 330 178h6z"/>
            <glyph unicode="v" horiz-adv-x="1096" d="M781 1059l-153 -525q-42 -123 -68 -265h-7q-27 124 -66 265l-162 525h-304l385 -1059h276l395 1059h-296z"/>
            <glyph unicode="w" horiz-adv-x="1608"
                   d="M1307 1059l-106 -458q-48 -201 -68 -354h-4q-30 168 -83 354l-122 458h-225l-130 -471q-62 -215 -82 -341h-5q-25 162 -65 343l-102 469h-286l307 -1059h261l126 417q44 140 76 335h4q35 -187 76 -338l117 -414h261l326 1059h-276z"/>
            <glyph unicode="x" horiz-adv-x="1067"
                   d="M1048 1059h-304l-108 -191q-41 -71 -89 -166h-4l-91 162l-118 195h-313l346 -521l-356 -538h306l115 207q68 124 90 168h4q47 -98 91 -168l119 -207h317l-349 551z"/>
            <glyph unicode="y" horiz-adv-x="1078"
                   d="M771 1059l-152 -555q-19 -71 -30 -118l-22 -86h-7q-8 32 -31 117l-25 84l-179 558h-310l383 -972q12 -38 12 -52q0 -12 -17 -48q-48 -90 -129.5 -149.5t-161.5 -78.5l65 -237q151 19 285 140q177 159 362 676l254 721h-297z"/>
            <glyph unicode="z" horiz-adv-x="969" d="M393 224v4q74 76 156 184l365 474v173h-831v-226h490v-4q-100 -106 -154 -178l-376 -488v-163h883v224h-533z"/>
            <glyph unicode="{" horiz-adv-x="652"
                   d="M588 -83h-37q-145 0 -145 168q0 44 11 145q6 51 15 143q3 210 -175 250v5q178 40 175 246q-8 92 -15 145q-11 99 -11 145q0 162 145 162h37v163h-62q-325 -1 -325 -291q2 -68 14 -175q13 -111 13 -174q0 -150 -165 -153v-147q165 -1 165 -149q0 -66 -13 -174 q-14 -120 -14 -172q1 -297 325 -297h62v160z"/>
            <glyph unicode="|" horiz-adv-x="572" d="M187 1628v-2171h202v2171h-202z"/>
            <glyph unicode="}" horiz-adv-x="652"
                   d="M590 549v147q-32 1 -58 6.5t-44 14t-31 23.5t-20.5 28.5t-11 35t-4 38.5t1.5 43t4 44.5t6 47t6 46.5q13 113 13 175q0 291 -324 291h-63v-163h37q73 1 109 -39.5t36 -122.5q0 -55 -13 -145q-12 -97 -12 -145q-5 -206 176 -246v-5q-179 -41 -176 -250q0 -50 12 -143 q13 -91 13 -145q0 -168 -145 -168h-37v-160h63q324 -1 324 297q0 61 -13 172q-14 117 -14 174q0 148 165 149z"/>
            <glyph unicode="~" horiz-adv-x="1293"
                   d="M1194 797h-181q-1 -178 -95 -178q-59 0 -228 89q-190 100 -303 100q-130 0 -207 -89q-82 -99 -80 -287h180q4 60 13.5 99t30 58t43.5 24t64 -8.5t80.5 -32.5t103.5 -54q59 -31 113.5 -54t115 -38t111.5 -14.5t98 21.5t79 64t49 119t13 181z"/>
            <glyph horiz-adv-x="1085"/>
            <glyph unicode="&#xa1;" horiz-adv-x="549"
                   d="M445 893q0 77 -46 126t-121 49q-77 0 -125.5 -48.5t-48.5 -126.5q0 -77 47.5 -125.5t124.5 -48.5q76 0 122.5 48.5t46.5 125.5zM170 584l-42 -1001h295l-41 1001h-212z"/>
            <glyph unicode="&#xa2;" horiz-adv-x="1154"
                   d="M994 238l-37 203q-105 -43 -221 -43q-129 0 -212 86t-83 235q0 145 80 234q82 91 215 91q120 0 202 -43l48 208q-98 45 -211 46v201h-187v-209q-199 -39 -319 -186q-115 -145 -115 -351q0 -220 122 -362q117 -130 312 -159v-215h185v210q132 10 221 54z"/>
            <glyph unicode="&#xa3;" horiz-adv-x="1154"
                   d="M466 230v4q83 74 112 160.5t23 208.5h273v194h-296q-23 104 -23 189q0 223 209 223q108 0 185 -39l47 213q-91 52 -242 52q-208 0 -334.5 -120.5t-126.5 -320.5q2 -94 20 -197h-181v-194h214q6 -49 6 -110q0 -110 -74 -207q-78 -94 -168 -132v-154h947v230h-591z"/>
            <glyph unicode="&#xa4;" horiz-adv-x="1154"
                   d="M1021 1158l54 207q-101 70 -267 70q-206 0 -350.5 -127t-198.5 -361h-159l-30 -137h166q-4 -55 -4 -122v-58h-132l-30 -137h177q39 -246 177 -381.5t357 -135.5q140 0 261 74l-39 202q-94 -61 -189 -61q-232 0 -286 302h340l33 137h-389v64q0 64 4 116h424l33 137h-435 q69 271 278 271q105 0 205 -60z"/>
            <glyph unicode="&#xa5;" horiz-adv-x="1154"
                   d="M849 1411l-178 -380q-64 -146 -91 -225h-4q-39 101 -49 132q-21 55 -38 91l-174 382h-300l352 -632h-265v-137h333v-145h-333v-139h333v-358h264v358h337v139h-337v145h337v137h-265l371 632h-293z"/>
            <glyph unicode="&#xa6;" horiz-adv-x="572" d="M187 1465v-759h202v759h-202zM187 379v-758h202v758h-202z"/>
            <glyph unicode="&#xa7;" horiz-adv-x="1167"
                   d="M1064 644q0 73 -24 129t-75 99t-119 75t-169 64q-130 41 -178 74q-62 41 -62 96q0 59 51 90.5t124.5 33.5t154.5 -15t142 -49l50 174q-134 68 -321 68q-193 0 -317 -85q-128 -92 -128 -243q0 -125 85 -191q-174 -94 -174 -260q0 -144 120 -231q82 -65 288 -132 q133 -45 186 -85q54 -40 54 -100q0 -135 -209 -135q-169 0 -311 89l-58 -173q140 -93 377 -93q90 0 170.5 21.5t144.5 62.5t101.5 107t37.5 149q0 123 -91 195q150 106 150 265zM845 603q0 -85 -72 -130q-126 52 -247 98q-203 72 -203 178q0 83 85 135q164 -71 271 -109 q166 -61 166 -172z"/>
            <glyph unicode="&#xa8;" horiz-adv-x="650"
                   d="M245 1328q0 56 -36.5 94.5t-90.5 38.5q-60 0 -98.5 -38t-38.5 -95q0 -56 38.5 -95t92.5 -39q58 0 95.5 38t37.5 96zM669 1328q0 57 -37 95t-94 38q-56 0 -94 -38.5t-38 -94.5q0 -57 37 -95.5t93 -38.5q57 0 95 38t38 96z"/>
            <glyph unicode="&#xa9;" horiz-adv-x="1469"
                   d="M1398 738q0 277 -191 471q-192 198 -467 198q-137 0 -260.5 -53t-213 -142.5t-142 -213.5t-52.5 -260q0 -278 193 -477q125 -128 297.5 -173.5t345.5 0t299 173.5q191 197 191 477zM1270 736q0 -151 -69 -278.5t-191.5 -203.5t-271.5 -76t-272 76t-192 203.5t-69 276.5 q0 114 40.5 217t110.5 178.5t169 120t211 44.5q228 0 380 -165q154 -164 154 -393zM1038 400l-31 104q-80 -55 -217 -55q-128 0 -204 78.5t-76 203.5q0 133 72 206.5t208 73.5q118 0 209 -50l30 110q-62 58 -239 58q-175 0 -297 -113t-122 -291q0 -86 28 -157 q56 -146 207 -206q52 -21 125 -28t158.5 8.5t148.5 57.5z"/>
            <glyph unicode="&#xaa;" horiz-adv-x="785"
                   d="M528 578h176q-12 67 -12 169v232q0 84 -23 145.5t-62 95t-89.5 51t-104.5 17.5t-108.5 -9.5t-100 -26.5t-80.5 -38l39 -124q81 54 193 54q139 0 139 -100v-17h-8q-200 0 -307.5 -63.5t-107.5 -186.5q0 -92 61 -150q41 -41 107.5 -55.5t141 6t128.5 77.5h4zM501 909v-91 q0 -27 -14 -50q-37 -69 -120 -69q-44 0 -73 26.5t-29 67.5q0 116 224 116h12z"/>
            <glyph unicode="&#xab;" horiz-adv-x="963" d="M522 955h-203l-261 -408l261 -408h203l-268 408zM916 955h-202l-260 -408l260 -408h202l-267 408z"/>
            <glyph unicode="&#xac;" horiz-adv-x="1293" d="M87 901v-178h936v-482h184v660h-1120z"/>
            <glyph unicode="&#xad;" horiz-adv-x="679" d="M65 673v-193h550v193h-550z"/>
            <glyph unicode="&#xae;" horiz-adv-x="1106"
                   d="M1040 996q0 200 -141 346q-143 143 -341 143q-204 0 -347 -143q-143 -141 -143 -344.5t141 -348.5q143 -143 346 -143t344 143q141 145 141 347zM936 996q0 -164 -109 -281.5t-269 -117.5q-163 0 -271.5 117.5t-108.5 281.5q0 161 108.5 279.5t266.5 118.5 q164 0 272 -118q111 -116 111 -280zM665 712h110q-22 41 -31 135q-15 120 -89 132v5q105 28 105 128q0 83 -52 120.5t-178 37.5q-73 0 -167 -13v-545h106v228h55q94 0 108 -87q18 -114 33 -141zM649 1105q0 -83 -123 -82h-57v164q14 2 27 2h36q117 0 117 -84z"/>
            <glyph unicode="&#xaf;" horiz-adv-x="650" d="M67 1415v-149h519v149h-519z"/>
            <glyph unicode="&#xb0;" horiz-adv-x="735"
                   d="M684 1185q0 129 -89 215q-87 87 -220 87q-129 0 -226 -89q-91 -88 -91 -221q0 -129 91 -216q91 -84 220 -84q127 0 221 89q94 87 94 219zM534 1183q0 -73 -45 -123.5t-116 -50.5q-68 0 -113 49.5t-45 120.5q0 74 44 125t112 51q73 0 118 -48.5t45 -123.5z"/>
            <glyph unicode="&#xb1;" horiz-adv-x="1293" d="M740 860v391h-187v-391h-466v-178h466v-400h187v400h467v178h-467zM87 176v-176h1120v176h-1120z"/>
            <glyph unicode="&#xb2;" horiz-adv-x="787"
                   d="M382 742v5l57 48q152 135 206 210t54 174q1 111 -83.5 183.5t-231.5 72.5q-174 0 -293 -91l58 -143q89 63 183 63q137 0 137 -122q0 -62 -65 -148q-25 -30 -191 -186l-132 -124v-106h633v164h-332z"/>
            <glyph unicode="&#xb3;" horiz-adv-x="776"
                   d="M712 823q0 80 -57.5 137t-148.5 67v4q171 54 171 193q0 98 -78 155q-52 37 -142 50t-187.5 -3t-165.5 -59l43 -138q87 54 189 54q120 0 120 -89q0 -54 -61 -82q-56 -24 -115 -24h-58v-131h60q87 0 143.5 -32.5t56.5 -91.5q0 -49 -45.5 -81.5t-119.5 -32.5q-111 0 -205 54 l-45 -148q98 -58 271 -58q170 0 272 71t102 185z"/>
            <glyph unicode="&#xb4;" horiz-adv-x="650" d="M187 1185h190l263 321h-269z"/>
            <glyph unicode="&#xb5;" horiz-adv-x="1222"
                   d="M847 0h245q-9 200 -9 321v738h-282v-666q-8 -69 -59 -122q-64 -62 -141 -62q-187 0 -187 271v579h-279v-1489h254l-20 495h6q55 -82 172 -82q184 0 280 176h6z"/>
            <glyph unicode="&#xb6;" horiz-adv-x="1139"
                   d="M975 -104v1554q-94 19 -287 19q-165 0 -287.5 -36.5t-194 -104t-105 -154t-31.5 -192.5q1 -92 36 -171t89.5 -130t120 -79.5t129.5 -28.5h13v-677h182v1398h153v-1398h182z"/>
            <glyph unicode="&#xb7;" horiz-adv-x="522" d="M432 590q0 79 -46.5 128.5t-122.5 49.5q-75 0 -123.5 -50t-48.5 -128q0 -77 47 -127.5t121 -50.5q77 0 125 50t48 128z"/>
            <glyph unicode="&#xb8;" horiz-adv-x="650"
                   d="M524 -254q0 60 -48 107q-47 40 -107 47l61 108h-154l-96 -186q168 -10 168 -83q0 -58 -81 -58q-61 0 -120 33l-39 -112q62 -41 165 -41q251 0 251 185z"/>
            <glyph unicode="&#xb9;" horiz-adv-x="752" d="M348 1424l-230 -102l31 -154l166 76h4v-666h217v846h-188z"/>
            <glyph unicode="&#xba;" horiz-adv-x="804"
                   d="M756 930q0 154 -95 254q-96 99 -253 99q-159 0 -259.5 -101.5t-100.5 -263.5q0 -156 97 -253q101 -98 255 -98q162 0 259 99.5t97 263.5zM555 924q0 -85 -31 -143q-44 -71 -119 -71.5t-117 71.5q-36 62 -36.5 141.5t32.5 141.5q44 75 119 76t119 -72q33 -62 33 -144z"/>
            <glyph unicode="&#xbb;" horiz-adv-x="963" d="M48 955l267 -408l-267 -408h202l262 408l-262 408h-202zM439 955l267 -408l-265 -408h199l263 408l-263 408h-201z"/>
            <glyph unicode="&#xbc;" horiz-adv-x="1729"
                   d="M343 -24h161l803 1459h-159zM308 1424l-227 -102l29 -154l168 76h2v-666h217v846h-189zM1535 348v507h-241l-382 -532v-118h420v-205h203v205h118v143h-118zM1342 690l-7 -98q-3 -39 -3 -54v-190h-216l-2 2l147 208q13 23 44 76q22 36 31 56h6z"/>
            <glyph unicode="&#xbd;" horiz-adv-x="1729"
                   d="M296 -24h158l803 1459h-159zM280 1424l-228 -102l31 -154l167 76h2v-666h217v846h-189zM1307 165v5l56 49q146 125 203.5 204t57.5 180q0 110 -85.5 182.5t-227.5 72.5q-175 0 -296 -92l60 -141q86 61 182 61q65 0 100 -26.5t37 -67.5t-15 -87.5t-51 -87.5 q-47 -59 -191 -187l-132 -122v-108h634v165h-332z"/>
            <glyph unicode="&#xbe;" horiz-adv-x="1729"
                   d="M704 823q0 80 -57 137t-148 67v4q172 54 172 193q0 91 -72 148q-83 63 -237 62t-267 -67l44 -138q93 54 189 54q121 0 121 -89q0 -54 -60 -82q-56 -24 -118 -24h-56v-131h58q88 0 144.5 -32.5t58.5 -91.5q0 -49 -46 -81.5t-119 -32.5q-114 0 -207 54l-44 -148 q97 -58 272 -58q168 0 270 71t102 185zM414 -24h159l803 1459h-158zM1556 348v507h-243l-379 -532v-118h421v-205h201v205h118v143h-118zM1357 690h4q-6 -121 -6 -152v-190h-218l-4 2l150 208q13 23 44 76q19 30 30 56z"/>
            <glyph unicode="&#xbf;" horiz-adv-x="922"
                   d="M692 893q0 77 -46.5 126t-121.5 49q-77 0 -124.5 -48.5t-47.5 -126.5q0 -77 47.5 -126.5t122.5 -49.5t122.5 49.5t47.5 126.5zM833 -356l-65 202q-88 -63 -201 -63q-183 0 -183 147q0 93 132 252q131 158 131 326q0 10 -1 15q-2 10 -2 15l-2 55h-247l3 -46v-9 q-1 -151 -114 -277q-81 -91 -125 -166q-59 -101 -59 -205q0 -147 104 -240t291 -93q199 0 338 87z"/>
            <glyph unicode="&#xc0;" horiz-adv-x="1365"
                   d="M315 1794l275 -251h220l-193 251h-302zM497 1463l-456 -1463h291l115 402h443l123 -402h302l-460 1463h-358zM493 615l102 344q49 191 67 280h7l71 -280l107 -344h-354z"/>
            <glyph unicode="&#xc1;" horiz-adv-x="1365"
                   d="M553 1541h222l275 267h-301zM497 1463l-456 -1463h291l115 402h443l123 -402h302l-460 1463h-358zM493 615l102 344q49 191 67 280h7l71 -280l107 -344h-354z"/>
            <glyph unicode="&#xc2;" horiz-adv-x="1365"
                   d="M593 1808l-220 -267h200l115 150h4l118 -150h201l-221 267h-197zM497 1463l-456 -1463h291l115 402h443l123 -402h302l-460 1463h-358zM493 615l102 344q49 191 67 280h7l71 -280l107 -344h-354z"/>
            <glyph unicode="&#xc3;" horiz-adv-x="1365"
                   d="M977 1810h-130q-11 -93 -59 -93q-32 0 -100 42q-76 43 -135 43q-70 0 -112.5 -60t-42.5 -168v-22h132q8 93 52 93q18 2 95 -41q76 -38 139 -38q161 0 161 228v16zM497 1463l-456 -1463h291l115 402h443l123 -402h302l-460 1463h-358zM493 615l102 344q49 191 67 280h7 l71 -280l107 -344h-354z"/>
            <glyph unicode="&#xc4;" horiz-adv-x="1365"
                   d="M607 1686q0 57 -35.5 95t-91.5 38q-57 0 -94.5 -38t-37.5 -95q0 -54 38 -93t92 -39q56 0 92.5 37.5t36.5 94.5zM1031 1686q0 57 -37 95t-93 38t-93 -38t-37 -95q0 -54 37 -93t91 -39q56 0 94 38t38 94zM497 1463l-456 -1463h291l115 402h443l123 -402h302l-460 1463h-358 zM493 615l102 344q49 191 67 280h7l71 -280l107 -344h-354z"/>
            <glyph unicode="&#xc5;" horiz-adv-x="1365"
                   d="M1320 0l-458 1454q56 66 56 153q0 100 -69 169q-71 69 -170 69q-97 0 -166 -69q-70 -68 -70 -169q0 -87 56 -153l-451 -1454h288l116 402h443l124 -402h301zM795 1607q0 -46 -34 -79.5t-82 -33.5q-45 0 -78.5 33.5t-33.5 79.5q0 47 33.5 80.5t78.5 33.5q48 0 82 -33 t34 -81zM493 615l110 367q26 81 64 257h4q18 -66 47 -182q20 -80 22 -87l109 -355h-356z"/>
            <glyph unicode="&#xc6;" horiz-adv-x="1788"
                   d="M1140 636h503v230h-538l-41 365h593v232h-1029l-626 -1463h288l181 439h424l54 -439h777v232h-535zM553 662l153 376q25 64 48 130q29 82 34 96h7l25 -224l44 -378h-311z"/>
            <glyph unicode="&#xc7;" horiz-adv-x="1251"
                   d="M1133 1198l61 223q-51 27 -127.5 44.5t-176 20t-200 -13.5t-205.5 -64t-185 -125q-224 -210 -224 -569q0 -300 156.5 -491.5t436.5 -233.5l-87 -165q167 -18 167 -85q0 -58 -80 -58q-59 0 -120 33l-39 -114q68 -39 167 -39q247 0 247 182q0 62 -43.5 105.5t-109.5 51.5 l45 79q246 1 369 62l-50 222q-120 -50 -277 -50q-230 0 -358.5 135.5t-128.5 378.5q0 255 139 393q63 63 149 96.5t172 36t164 -12t138 -42.5z"/>
            <glyph unicode="&#xc8;" horiz-adv-x="1108" d="M238 1808l276 -265h222l-195 265h-303zM430 232v410h536v230h-536v359h566v232h-847v-1463h880v232h-599z"/>
            <glyph unicode="&#xc9;" horiz-adv-x="1108" d="M441 1541h221l274 267h-300zM430 232v410h536v230h-536v359h566v232h-847v-1463h880v232h-599z"/>
            <glyph unicode="&#xca;" horiz-adv-x="1108" d="M480 1808l-217 -267h199l116 150h4l114 -150h205l-222 267h-199zM430 232v410h536v230h-536v359h566v232h-847v-1463h880v232h-599z"/>
            <glyph unicode="&#xcb;" horiz-adv-x="1108"
                   d="M493 1686q0 57 -36 95t-92 38q-55 0 -94 -38.5t-39 -94.5q0 -54 38.5 -93t92.5 -39q56 0 93 38t37 94zM916 1686q0 57 -37 95t-94 38q-54 0 -92 -38t-38 -95q0 -54 37 -93t91 -39q57 0 95 38t38 94zM430 232v410h536v230h-536v359h566v232h-847v-1463h880v232h-599z"/>
            <glyph unicode="&#xcc;" horiz-adv-x="578" d="M-65 1808l274 -265h221l-196 265h-299zM149 1463v-1463h281v1463h-281z"/>
            <glyph unicode="&#xcd;" horiz-adv-x="578" d="M149 1541h222l273 267h-298zM149 1463v-1463h281v1463h-281z"/>
            <glyph unicode="&#xce;" horiz-adv-x="578" d="M189 1808l-218 -267h201l114 150h4l116 -150h204l-221 267h-200zM149 1463v-1463h281v1463h-281z"/>
            <glyph unicode="&#xcf;" horiz-adv-x="578"
                   d="M209 1686q0 57 -36 95t-92 38q-57 0 -95 -38t-38 -95q0 -54 38 -93t92 -39q57 0 94 37.5t37 94.5zM632 1686q0 57 -37 95t-94 38q-56 0 -93 -38t-37 -95q0 -54 37 -93t91 -39q56 0 94.5 38t38.5 94zM149 1463v-1463h281v1463h-281z"/>
            <glyph unicode="&#xd0;" horiz-adv-x="1473"
                   d="M1398 766q0 359 -210.5 536t-603.5 177q-218 0 -421 -31v-593h-161v-219h161v-636q145 -19 355 -19q433 0 656.5 199t223.5 586zM1100 760q0 -278 -133.5 -416.5t-386.5 -138.5q-100 0 -135 6v425h315v219h-315v392q67 14 168 14q238 0 362.5 -126.5t124.5 -374.5z"/>
            <glyph unicode="&#xd1;" horiz-adv-x="1450"
                   d="M1023 1810h-130q-11 -93 -62 -93q-31 0 -97 42q-76 43 -135 43q-74 0 -115 -58.5t-41 -167.5v-24h130q9 93 55 93q17 2 95 -41q74 -38 137 -38q84 0 123.5 60t39.5 184zM1042 1463v-481q0 -294 24 -613l-5 -2q-109 259 -241 491l-351 605h-320v-1463h259v495 q0 411 -15 630l7 2q88 -212 253 -506l356 -621h292v1463h-259z"/>
            <glyph unicode="&#xd2;" horiz-adv-x="1502"
                   d="M391 1808l274 -265h221l-196 265h-299zM1427 747q0 158 -46 294t-130.5 235t-211 155t-279.5 56q-317 0 -506 -228q-178 -211 -178 -538q0 -159 45.5 -295.5t129 -236.5t209 -156.5t278.5 -56.5q331 0 515 223q174 214 174 548zM1127 736q0 -106 -23.5 -200.5t-68.5 -170 t-118 -120t-165 -44.5q-75 0 -138 28.5t-107.5 78t-76 116.5t-46.5 143.5t-15 159.5q0 210 87 356q100 178 296 178q91 0 164 -44t118 -118.5t69 -167t24 -195.5z"/>
            <glyph unicode="&#xd3;" horiz-adv-x="1502"
                   d="M628 1541h221l276 267h-302zM1427 747q0 158 -46 294t-130.5 235t-211 155t-279.5 56q-155 0 -284.5 -59t-216.5 -161.5t-135 -243t-48 -302.5q0 -159 45.5 -295.5t129 -236.5t209 -156.5t278.5 -56.5q331 0 515 223q174 214 174 548zM1127 736q0 -106 -23.5 -200.5 t-68.5 -170t-118 -120t-165 -44.5q-75 0 -138 28.5t-107.5 78t-76 116.5t-46.5 143.5t-15 159.5q0 210 87 356q100 178 296 178q91 0 164 -44t118 -118.5t69 -167t24 -195.5z"/>
            <glyph unicode="&#xd4;" horiz-adv-x="1502"
                   d="M651 1808l-219 -267h200l117 150h5l114 -150h203l-220 267h-200zM1427 747q0 158 -46 294t-130.5 235t-211 155t-279.5 56q-155 0 -284.5 -59t-216.5 -161.5t-135 -243t-48 -302.5q0 -159 45.5 -295.5t129 -236.5t209 -156.5t278.5 -56.5q331 0 515 223q174 214 174 548z M1127 736q0 -106 -23.5 -200.5t-68.5 -170t-118 -120t-165 -44.5q-75 0 -138 28.5t-107.5 78t-76 116.5t-46.5 143.5t-15 159.5q0 210 87 356q100 178 296 178q91 0 164 -44t118 -118.5t69 -167t24 -195.5z"/>
            <glyph unicode="&#xd5;" horiz-adv-x="1502"
                   d="M1042 1810h-130q-9 -93 -59 -93q-29 0 -99 42q-74 43 -135 43q-77 0 -119 -65.5t-38 -184.5h133q6 93 52 93q24 0 95 -41q74 -38 137 -38q169 0 163 244zM1427 747q0 158 -46 294t-130.5 235t-211 155t-279.5 56q-155 0 -284.5 -59t-216.5 -161.5t-135 -243t-48 -302.5 q0 -159 45.5 -295.5t129 -236.5t209 -156.5t278.5 -56.5q331 0 515 223q174 214 174 548zM1127 736q0 -106 -23.5 -200.5t-68.5 -170t-118 -120t-165 -44.5q-75 0 -138 28.5t-107.5 78t-76 116.5t-46.5 143.5t-15 159.5q0 210 87 356q100 178 296 178q91 0 164 -44 t118 -118.5t69 -167t24 -195.5z"/>
            <glyph unicode="&#xd6;" horiz-adv-x="1502"
                   d="M669 1686q0 57 -36 95t-90 38q-57 0 -96 -38t-39 -95q0 -54 38 -93t92 -39q57 0 94 37.5t37 94.5zM1092 1686q0 57 -37 95t-91 38q-57 0 -95 -38t-38 -95q0 -54 37 -93t91 -39q59 0 96 37.5t37 94.5zM1427 747q0 159 -46.5 295t-131 234.5t-210.5 154.5t-279 56 q-200 0 -356 -97.5t-242 -272t-86 -396.5q0 -329 178 -532q182 -213 484 -213h2q152 0 279 53t217.5 151t140.5 243.5t50 323.5zM1127 736q0 -234 -98 -380q-101 -155 -277 -155h-3q-177 1 -280 157q-100 145 -100 369q0 232 103.5 383t279.5 151q115 0 201.5 -70.5 t130 -189t43.5 -265.5z"/>
            <glyph unicode="&#xd7;" horiz-adv-x="1293" d="M647 696l-436 446l-124 -129l435 -442l-435 -443l126 -128l434 443l434 -443l126 128l-434 443l434 442l-124 129z"/>
            <glyph unicode="&#xd8;" horiz-adv-x="1502"
                   d="M1427 742q0 332 -188 538l124 187l-160 107l-120 -174q-139 87 -327 87q-197 0 -352.5 -97.5t-241.5 -270t-86 -390.5q0 -337 193 -549l-124 -186l153 -120l129 189q139 -87 327 -87q145 0 268.5 53.5t213 150.5t140.5 241.5t51 320.5zM432 427l-5 -2q-69 153 -69 309 q0 153 46.5 272.5t137 189.5t212.5 70q110 0 199 -72zM1144 736q0 -238 -104 -384q-108 -155 -288 -155q-116 0 -194 72l517 758h6q63 -139 63 -291z"/>
            <glyph unicode="&#xd9;" horiz-adv-x="1427"
                   d="M369 1808l275 -265h220l-195 265h-300zM999 1463v-858q0 -96 -24.5 -174.5t-65 -126.5t-91.5 -74t-105 -26t-105 26t-91.5 74t-65 126t-24.5 175v858h-280v-838q1 -649 555 -649q277 0 427.5 164.5t150.5 484.5v838h-281z"/>
            <glyph unicode="&#xda;" horiz-adv-x="1427"
                   d="M584 1541h219l276 267h-302zM999 1463v-858q0 -96 -24.5 -174.5t-65 -126.5t-91.5 -74t-105 -26t-105 26t-91.5 74t-65 126t-24.5 175v858h-280v-838q1 -649 555 -649q277 0 427.5 164.5t150.5 484.5v838h-281z"/>
            <glyph unicode="&#xdb;" horiz-adv-x="1427"
                   d="M634 1808l-220 -267h201l114 150h5l117 -150h202l-222 267h-197zM999 1463v-858q0 -96 -24.5 -174.5t-65 -126.5t-91.5 -74t-105 -26t-105 26t-91.5 74t-65 126t-24.5 175v858h-280v-838q1 -649 555 -649q277 0 427.5 164.5t150.5 484.5v838h-281z"/>
            <glyph unicode="&#xdc;" horiz-adv-x="1427"
                   d="M642 1686q0 57 -36 95t-92 38t-94 -38t-38 -95q0 -54 38 -93t92 -39q57 0 93.5 37.5t36.5 94.5zM1066 1686q0 57 -37 95t-93 38q-57 0 -95 -38t-38 -95q0 -54 38.5 -93t92.5 -39q56 0 94 38t38 94zM999 1463v-858q0 -96 -24.5 -174.5t-65 -126.5t-91.5 -74t-105 -26 t-105 26t-91.5 74t-65 126t-24.5 175v858h-280v-838q1 -649 555 -649q277 0 427.5 164.5t150.5 484.5v838h-281z"/>
            <glyph unicode="&#xdd;" horiz-adv-x="1237"
                   d="M512 1541h219l276 267h-299zM914 1463l-165 -367q-57 -129 -119 -290h-5q-46 116 -121 288l-163 369h-322l454 -858v-605h281v615l475 848h-315z"/>
            <glyph unicode="&#xde;" horiz-adv-x="1204"
                   d="M1133 781q0 193 -136 307.5t-387 114.5q-101 0 -185 -12v272h-276v-1463h276v306q94 -10 151 -10q255 -1 406 123t151 362zM855 758q0 -113 -74 -177.5t-214 -64.5q-48 0 -142 12v447q51 13 155 13q275 0 275 -230z"/>
            <glyph unicode="&#xdf;" horiz-adv-x="1247"
                   d="M1170 341q0 102 -56 197q-41 67 -118 141q-84 87 -84 159q0 96 134 158q27 36 41 91.5t12 119t-34 131.5t-92 118q-121 108 -311 108q-115 0 -207.5 -34t-164.5 -105t-111.5 -191.5t-39.5 -282.5v-951h280v973q0 373 223 373q83 0 134 -53.5t51 -140.5q0 -51 -15 -84 q-180 -94 -180 -267q0 -91 54 -171q29 -45 111 -129q93 -93 93 -176q0 -59 -45.5 -97.5t-121.5 -38.5q-89 0 -161 35l-36 -209q87 -39 228 -39q193 0 304.5 99.5t111.5 265.5z"/>
            <glyph unicode="&#xe0;" horiz-adv-x="1098"
                   d="M211 1506l262 -321h194l-187 321h-269zM727 0h252q-15 76 -15 254v380q2 447 -438 447q-234 0 -385 -93l54 -180q128 76 281 76q206 0 206 -172v-18q-296 0 -455.5 -102.5t-159.5 -298.5q0 -133 85 -219q47 -49 119.5 -74.5t149.5 -23.5t153.5 37.5t127.5 102.5h6z M690 514v-141q0 -37 -6 -58q-19 -59 -73 -99t-122 -40q-146 0 -146 147q0 191 336 191h11z"/>
            <glyph unicode="&#xe1;" horiz-adv-x="1098"
                   d="M414 1185h191l263 321h-269zM727 0h252q-15 76 -15 254v380q2 447 -438 447q-234 0 -385 -93l54 -180q127 76 281 76q206 0 206 -172v-18q-294 0 -454.5 -103t-160.5 -298q0 -133 85 -219q47 -49 119.5 -74.5t149.5 -23.5t153.5 37.5t127.5 102.5h6zM690 514v-141 q0 -37 -6 -58q-19 -59 -73 -99t-122 -40q-146 0 -146 147q-1 97 86 144.5t261 46.5z"/>
            <glyph unicode="&#xe2;" horiz-adv-x="1098"
                   d="M452 1506l-209 -321h182l111 191h5l112 -191h185l-210 321h-176zM727 0h252q-15 76 -15 254v380q2 447 -438 447q-234 0 -385 -93l54 -180q128 76 281 76q206 0 206 -172v-18q-296 0 -455.5 -102.5t-159.5 -298.5q0 -133 85 -219q47 -49 119.5 -74.5t149.5 -23.5 t153.5 37.5t127.5 102.5h6zM690 514v-141q0 -37 -6 -58q-19 -59 -73 -99t-122 -40q-146 0 -146 147q0 191 336 191h11z"/>
            <glyph unicode="&#xe3;" horiz-adv-x="1098"
                   d="M823 1469h-127q-6 -93 -56 -93q-23 0 -95 39q-85 46 -139 46q-74 0 -115 -61t-41 -167v-21h127q8 95 55 95q10 0 34 -8t56 -27q80 -48 140 -48q84 0 122.5 60t38.5 185zM727 0h252q-15 76 -15 254v380q2 447 -438 447q-234 0 -385 -93l54 -180q128 76 281 76 q206 0 206 -172v-18q-296 0 -455.5 -102.5t-159.5 -298.5q0 -133 85 -219q47 -49 119.5 -74.5t149.5 -23.5t153.5 37.5t127.5 102.5h6zM690 514v-141q0 -37 -6 -58q-19 -59 -73 -99t-122 -40q-146 0 -146 147q0 191 336 191h11z"/>
            <glyph unicode="&#xe4;" horiz-adv-x="1098"
                   d="M469 1328q0 56 -37.5 94.5t-93.5 38.5t-94.5 -38.5t-38.5 -94.5t38.5 -95t92.5 -39q57 0 95 38t38 96zM893 1328q0 56 -37.5 94.5t-93.5 38.5t-94 -38.5t-38 -94.5q0 -57 37 -95.5t93 -38.5t94.5 38t38.5 96zM727 0h252q-15 76 -15 254v380q2 447 -438 447 q-234 0 -385 -93l54 -180q127 76 281 76q206 0 206 -172v-18q-294 0 -454.5 -103t-160.5 -298q0 -133 85 -219q47 -49 119.5 -74.5t149.5 -23.5t153.5 37.5t127.5 102.5h6zM690 514v-141q0 -37 -6 -58q-19 -59 -73 -99t-122 -40q-146 0 -146 147q-1 97 86 144.5t261 46.5z "/>
            <glyph unicode="&#xe5;" horiz-adv-x="1098"
                   d="M762 1365q0 91 -61 152t-152 61t-152 -61t-61 -152q0 -84 62 -148q60 -62 151 -62t151 62q62 64 62 148zM642 1365q0 -37 -27.5 -65t-65.5 -28t-65.5 28t-27.5 65q0 39 27 67.5t66 28.5t66 -28.5t27 -67.5zM727 0h252q-15 76 -15 254v380q2 447 -438 447q-234 0 -385 -93 l54 -180q128 76 281 76q206 0 206 -172v-18q-297 0 -456 -102.5t-159 -298.5q0 -133 85 -219q97 -95 246 -95q196 0 304 137h6zM690 514v-141q0 -37 -6 -58q-19 -59 -73 -99t-122 -40q-146 0 -146 147q0 191 336 191h11z"/>
            <glyph unicode="&#xe6;" horiz-adv-x="1694"
                   d="M1626 576q0 101 -27 191t-78.5 161.5t-134 113t-185.5 41.5q-233 0 -358 -186h-8q-89 186 -340 186q-187 0 -354 -95l58 -182q77 52 167.5 70.5t165 2t112.5 -60.5q42 -40 42 -97v-35q-289 0 -453 -97q-79 -47 -121.5 -118t-44.5 -143.5t22.5 -140.5t71.5 -115 q37 -38 97.5 -63t134.5 -30t148 10.5t144.5 65t117.5 127.5h7q49 -97 158 -150q73 -36 175.5 -48.5t219.5 4.5t211 66l-41 191q-138 -56 -284 -56q-138 0 -219 73t-81 202h671q6 74 6 112zM1365 658h-418q4 83 54 154q63 83 167 83q50 0 89.5 -21t62 -54.5t34 -71.5 t11.5 -77v-13zM692 510v-131q0 -84 -57.5 -141.5t-143.5 -57.5q-66 0 -108 38t-42 103q0 97 86.5 143t264.5 46z"/>
            <glyph unicode="&#xe7;" horiz-adv-x="957"
                   d="M909 31l-39 207q-94 -39 -199 -39q-136 0 -223.5 91.5t-87.5 239.5q0 146 83 239t226 93q111 0 193 -39l45 213q-108 45 -249 45q-271 0 -430 -163q-154 -154 -154 -396q0 -217 113.5 -358.5t309.5 -174.5l-85 -167q168 -10 168 -83q0 -58 -83 -58q-59 0 -118 33 l-38 -112q62 -41 165 -41q250 0 250 185q0 60 -48 107q-47 40 -107 47l46 79q152 1 262 52z"/>
            <glyph unicode="&#xe8;" horiz-adv-x="1108"
                   d="M267 1506l261 -321h193l-187 321h-267zM1040 569q0 107 -28 198.5t-82.5 162.5t-142 112t-199.5 41q-117 0 -215 -45t-162.5 -122.5t-100.5 -180.5t-36 -219q0 -247 144 -391t399 -144q210 0 367 65l-42 192q-120 -49 -267.5 -46.5t-233.5 62.5q-90 67 -98 195h688 q9 37 9 120zM777 644h-434q10 102 69.5 175.5t158.5 73.5q53 0 94 -21t65 -57t35.5 -79t11.5 -92z"/>
            <glyph unicode="&#xe9;" horiz-adv-x="1108"
                   d="M462 1185h193l263 321h-269zM1040 569q0 107 -28 198.5t-82.5 162.5t-142 112t-199.5 41q-117 0 -215 -45t-162.5 -122.5t-100.5 -180.5t-36 -219q0 -247 144 -391t399 -144q210 0 367 65l-42 192q-129 -47 -284 -47q-135 1 -221.5 67.5t-93.5 190.5h688q9 43 9 120z M777 644h-434q12 106 70.5 177.5t157.5 71.5q53 0 94 -21t65 -57t35.5 -79t11.5 -92z"/>
            <glyph unicode="&#xea;" horiz-adv-x="1108"
                   d="M491 1506l-209 -321h182l114 191h4l112 -191h185l-210 321h-178zM1040 569q0 107 -28 198.5t-82.5 162.5t-142 112t-199.5 41q-117 0 -215 -45t-162.5 -122.5t-100.5 -180.5t-36 -219q0 -247 144 -391t399 -144q210 0 367 65l-42 192q-120 -49 -267.5 -46.5t-233.5 62.5 q-90 67 -98 195h688q9 37 9 120zM777 644h-434q10 102 69.5 175.5t158.5 73.5q53 0 94 -21t65 -57t35.5 -79t11.5 -92z"/>
            <glyph unicode="&#xeb;" horiz-adv-x="1108"
                   d="M512 1328q0 56 -37 94.5t-91 38.5q-59 0 -98 -38t-39 -95q0 -56 39 -95t93 -39q58 0 95.5 38t37.5 96zM936 1328q0 57 -37 95t-93 38q-57 0 -95 -38.5t-38 -94.5q0 -57 37 -95.5t93 -38.5q57 0 95 38t38 96zM1040 569q0 107 -28 198.5t-82.5 162.5t-142 112t-199.5 41 q-117 0 -215 -45t-162.5 -122.5t-100.5 -180.5t-36 -219q0 -247 144 -391t399 -144q210 0 367 65l-42 192q-120 -49 -267.5 -46.5t-233.5 62.5q-90 67 -98 195h688q9 37 9 120zM777 644h-434q10 102 69.5 175.5t158.5 73.5q53 0 94 -21t65 -57t35.5 -79t11.5 -92z"/>
            <glyph unicode="&#xec;" horiz-adv-x="557" d="M-60 1506l259 -321h194l-186 321h-267zM139 1059v-1059h280v1059h-280z"/>
            <glyph unicode="&#xed;" horiz-adv-x="557" d="M159 1185h193l263 321h-269zM139 1059v-1059h280v1059h-280z"/>
            <glyph unicode="&#xee;" horiz-adv-x="557" d="M191 1506l-208 -321h182l113 191h4l111 -191h187l-211 321h-178zM139 1059v-1059h280v1059h-280z"/>
            <glyph unicode="&#xef;" horiz-adv-x="557"
                   d="M199 1328q0 56 -36.5 94.5t-90.5 38.5q-59 0 -98 -38t-39 -95q0 -56 39 -95t93 -39q57 0 94.5 38t37.5 96zM623 1328q0 57 -37 95t-93 38t-94.5 -38.5t-38.5 -94.5q0 -57 37.5 -95.5t93.5 -38.5t94 38t38 96zM139 1059v-1059h280v1059h-280z"/>
            <glyph unicode="&#xf0;" horiz-adv-x="1199"
                   d="M1127 555q0 232 -89 415q-96 187 -265 328l226 102l-59 116l-287 -131q-128 92 -319 173l-123 -160q139 -68 206 -113l-233 -108l52 -116l305 135q118 -80 206 -210l-5 -7q-75 57 -169 57q-204 0 -351 -141q-146 -148 -146 -381q0 -241 146.5 -389.5t376.5 -148.5 q216 0 362 136q166 157 166 443zM835 526q0 -93 -23.5 -169t-78 -126.5t-132.5 -50.5q-119 0 -184 116q-54 92 -54 220q0 135 54 228q65 116 186 116q232 0 232 -334z"/>
            <glyph unicode="&#xf1;" horiz-adv-x="1228"
                   d="M907 1469h-126q-6 -93 -56 -93q-23 0 -95 39q-85 46 -139 46q-74 0 -115.5 -61t-41.5 -167v-21h128q8 95 54 95q26 0 87 -35q83 -48 144 -48q83 0 121.5 60t38.5 185zM1094 0v632q0 229 -112 347q-104 102 -259 102q-224 0 -328 -176h-6l-14 154h-245q9 -148 9 -321v-738 h280v621q0 96 58 163q58 69 148 69q187 0 187 -254v-599h282z"/>
            <glyph unicode="&#xf2;" horiz-adv-x="1208"
                   d="M286 1506l263 -321h193l-187 321h-269zM1135 538q0 238 -141 392q-91 98 -237 134t-294.5 -1.5t-243.5 -138.5q-145 -149 -145 -402q0 -242 143 -394q93 -99 238.5 -135t292 1t242.5 138q145 160 145 406zM845 532q0 -92 -25 -169.5t-81 -130t-134 -52.5q-127 0 -191 118 q-54 93 -54 230q0 95 26 172.5t83 127t136 49.5q78 0 134 -50t81 -126.5t25 -168.5z"/>
            <glyph unicode="&#xf3;" horiz-adv-x="1208"
                   d="M476 1185h191l263 321h-270zM1135 538q0 238 -141 392q-91 98 -237 134t-294.5 -1.5t-243.5 -138.5q-145 -149 -145 -402q0 -242 143 -394q93 -99 238.5 -135t292 1t242.5 138q145 160 145 406zM845 532q0 -92 -25 -169.5t-81 -130t-134 -52.5q-127 0 -191 118 q-54 93 -54 230q0 139 54 232q64 117 191 117q78 0 134 -50t81 -126.5t25 -168.5z"/>
            <glyph unicode="&#xf4;" horiz-adv-x="1208"
                   d="M514 1506l-206 -321h181l112 191h4l114 -191h184l-211 321h-178zM1135 538q0 238 -141 392q-91 98 -237 134t-294.5 -1.5t-243.5 -138.5q-145 -149 -145 -402q0 -242 143 -394q93 -99 238.5 -135t292 1t242.5 138q145 160 145 406zM845 532q0 -92 -25 -169.5t-81 -130 t-134 -52.5q-127 0 -191 118q-54 93 -54 230q0 139 54 232q64 117 191 117q78 0 134 -50t81 -126.5t25 -168.5z"/>
            <glyph unicode="&#xf5;" horiz-adv-x="1208"
                   d="M893 1469h-127q-6 -93 -56 -93q-21 0 -93 39q-85 46 -141 46q-76 0 -117.5 -66t-39.5 -183h128q8 95 54 95q28 0 89 -35q82 -48 144 -48q164 0 159 245zM1135 538q0 238 -141 392q-91 98 -237 134t-294.5 -1.5t-243.5 -138.5q-145 -149 -145 -402q0 -242 143 -394 q93 -99 238.5 -135t292 1t242.5 138q145 160 145 406zM845 532q0 -92 -25 -169.5t-81 -130t-134 -52.5q-127 0 -191 118q-54 93 -54 230q0 139 54 232q64 117 191 117q78 0 134 -50t81 -126.5t25 -168.5z"/>
            <glyph unicode="&#xf6;" horiz-adv-x="1208"
                   d="M524 1328q0 57 -36.5 95t-92.5 38q-57 0 -95.5 -38.5t-38.5 -94.5t38 -95t94 -39t93.5 38t37.5 96zM949 1328q0 56 -37.5 94.5t-93.5 38.5t-95 -38.5t-39 -94.5t38 -95t92 -39q58 0 96.5 38t38.5 96zM1135 538q0 238 -141 392q-91 98 -237 134t-294.5 -1.5t-243.5 -138.5 q-145 -149 -145 -402q0 -242 143 -394q93 -99 238.5 -135t292 1t242.5 138q145 160 145 406zM845 532q0 -92 -25 -169.5t-81 -130t-134 -52.5q-127 0 -191 118q-54 93 -54 230q0 139 54 232q64 117 191 117q78 0 134 -50t81 -126.5t25 -168.5z"/>
            <glyph unicode="&#xf7;" horiz-adv-x="1293"
                   d="M790 959q0 65 -39.5 106.5t-103.5 41.5q-63 0 -102 -41.5t-39 -106.5q0 -63 38 -104t100 -41q66 0 106 40.5t40 104.5zM85 669v-178h1120v178h-1120zM788 197q0 66 -39.5 107.5t-104.5 41.5q-62 0 -101 -42t-39 -107q0 -63 38 -104t100 -41q66 0 106 40t40 105z"/>
            <glyph unicode="&#xf8;" horiz-adv-x="1208"
                   d="M1135 534q0 261 -167 410l96 144l-107 74l-95 -141q-106 60 -255 60h-2q-233 0 -381 -151q-99 -99 -135 -254t5 -312t153 -254l-93 -139l100 -77l100 143q106 -61 251 -61q214 0 363 134q167 155 167 424zM402 328l-7 2q-47 80 -47 198q0 149 66 249t191 100 q83 0 137 -48zM866 526q0 -154 -71 -250t-190 -96q-81 0 -129 48l340 493l4 -2q46 -82 46 -193z"/>
            <glyph unicode="&#xf9;" horiz-adv-x="1222"
                   d="M286 1506l261 -321h193l-187 321h-267zM847 0h245q-9 200 -9 321v738h-282v-640q-2 -48 -13 -81q-54 -131 -189 -131q-185 0 -185 275v577h-279v-622q0 -244 106 -356q93 -105 256 -105q224 0 330 178h6z"/>
            <glyph unicode="&#xfa;" horiz-adv-x="1222"
                   d="M493 1185h193l263 321h-270zM847 0h245q-9 200 -9 321v738h-282v-640q-2 -48 -13 -81q-54 -131 -189 -131q-185 0 -185 275v577h-279v-622q0 -241 106 -356q93 -105 256 -105q224 0 330 178h6z"/>
            <glyph unicode="&#xfb;" horiz-adv-x="1222"
                   d="M522 1506l-207 -321h180l112 191h6l112 -191h184l-210 321h-177zM847 0h245q-9 200 -9 321v738h-282v-640q-2 -48 -13 -81q-54 -131 -189 -131q-185 0 -185 275v577h-279v-622q0 -244 106 -356q93 -105 256 -105q224 0 330 178h6z"/>
            <glyph unicode="&#xfc;" horiz-adv-x="1222"
                   d="M536 1328q0 57 -36 95t-92 38t-95.5 -38.5t-39.5 -94.5t38.5 -95t94.5 -39t93 38t37 96zM961 1328q0 57 -37 95t-93 38q-58 0 -96.5 -38.5t-38.5 -94.5t38.5 -95t92.5 -39q59 0 96.5 38t37.5 96zM847 0h245q-9 200 -9 321v738h-282v-640q-2 -48 -13 -81 q-54 -131 -189 -131q-185 0 -185 275v577h-279v-622q0 -241 106 -356q93 -105 256 -105q224 0 330 178h6z"/>
            <glyph unicode="&#xfd;" horiz-adv-x="1078"
                   d="M443 1185h191l263 321h-269zM771 1059l-152 -555q-19 -71 -30 -118l-22 -86h-7q-8 32 -31 117l-25 84l-179 558h-310l383 -972q12 -38 12 -52q0 -12 -17 -48q-48 -90 -129.5 -149.5t-161.5 -78.5l65 -237q151 19 285 140q177 159 362 676l254 721h-297z"/>
            <glyph unicode="&#xfe;" horiz-adv-x="1253"
                   d="M1179 538q0 247 -131 402q-116 141 -294 141q-224 0 -331 -165h-4v547h-280v-1893h280v542h4q94 -136 289 -136q93 0 176.5 37.5t148.5 106.5t103.5 177.5t38.5 240.5zM895 534q0 -155 -68 -248t-180 -93q-144 0 -202 132q-26 43 -26 100v192q2 47 22 95q58 148 212 148 q110 0 176 -90.5t66 -235.5z"/>
            <glyph unicode="&#xff;" horiz-adv-x="1078"
                   d="M482 1328q0 57 -36 95t-92 38t-95.5 -38.5t-39.5 -94.5t38.5 -95t94.5 -39t93 38t37 96zM905 1328q0 57 -36.5 95t-93.5 38q-56 0 -94.5 -38.5t-38.5 -94.5t38.5 -95t92.5 -39q58 0 95 38t37 96zM771 1059l-152 -555q-19 -71 -30 -118l-22 -86h-7q-8 32 -31 117l-25 84 l-179 558h-310l383 -972q12 -38 12 -52q0 -8 -17 -48q-48 -90 -129.5 -149.5t-161.5 -78.5l65 -237q151 19 285 140q176 155 362 676l254 721h-297z"/>
            <glyph unicode="&#x100;" horiz-adv-x="1365"
                   d="M404 1593h547v155h-547v-155zM497 1463l-456 -1463h291l115 402h443l123 -402h302l-460 1463h-358zM493 615l102 344q49 191 67 280h7l71 -280l107 -344h-354z"/>
            <glyph unicode="&#x101;" horiz-adv-x="1098"
                   d="M284 1266h526v161h-526v-161zM727 0h252q-15 76 -15 254v380q2 447 -438 447q-234 0 -385 -93l54 -180q127 76 281 76q206 0 206 -172v-18q-294 0 -454.5 -103t-160.5 -298q0 -133 85 -219q47 -49 119.5 -74.5t149.5 -23.5t153.5 37.5t127.5 102.5h6zM690 514v-141 q0 -37 -6 -58q-19 -59 -73 -99t-122 -40q-146 0 -146 147q-1 97 86 144.5t261 46.5z"/>
            <glyph unicode="&#x102;" horiz-adv-x="1365"
                   d="M538 1798h-151q4 -119 75 -189t215 -70q143 0 216 71t77 188h-150q-20 -103 -143 -103q-120 0 -139 103zM497 1463l-456 -1463h291l115 402h443l123 -402h302l-460 1463h-358zM493 615l102 344q49 191 67 280h7l71 -280l107 -344h-354z"/>
            <glyph unicode="&#x103;" horiz-adv-x="1098"
                   d="M820 1485h-138q-10 -135 -135 -135q-113 0 -130 135h-139q2 -113 63 -189q71 -80 206 -80q130 0 201.5 72t71.5 197zM727 0h252q-15 76 -15 254v380q2 447 -438 447q-234 0 -385 -93l54 -180q128 76 281 76q206 0 206 -172v-18q-296 0 -455.5 -102.5t-159.5 -298.5 q0 -133 85 -219q47 -49 119.5 -74.5t149.5 -23.5t153.5 37.5t127.5 102.5h6zM690 514v-141q0 -37 -6 -58q-19 -59 -73 -99t-122 -40q-146 0 -146 147q0 191 336 191h11z"/>
            <glyph unicode="&#x104;" horiz-adv-x="1365"
                   d="M497 1463l-456 -1463h291l115 402h443l121 -398q-4 -5 -12 -19q-7 -11 -15 -24q-68 -107 -68 -211q0 -107 60.5 -160.5t169.5 -53.5q50 0 107 16.5t97 45.5l-41 133q-40 -17 -95 -17q-51 0 -83.5 32.5t-32.5 83.5q0 29 16.5 67t26 52.5t33.5 48.5l141 2l-460 1463h-358z M493 615l102 344q49 191 67 280h7l71 -280l107 -344h-354z"/>
            <glyph unicode="&#x105;" horiz-adv-x="1098"
                   d="M886 0h93q-15 76 -15 254v380q2 447 -438 447q-234 0 -385 -93l54 -180q127 76 281 76q206 0 206 -172v-18q-294 0 -454.5 -103t-160.5 -298q0 -133 85 -219q47 -49 119.5 -74.5t149.5 -23.5t153.5 37.5t127.5 102.5h6l19 -112q-14 -26 -24 -46q-14 -26 -28 -61 q-33 -87 -33 -154q0 -99 59.5 -153t153.5 -54q128 0 213 64l-41 137q-41 -21 -97 -21q-47 0 -76 28.5t-29 81.5q0 74 61 174zM690 514v-141q0 -37 -6 -58q-19 -59 -73 -99t-122 -40q-146 0 -146 147q-1 97 86 144.5t261 46.5z"/>
            <glyph unicode="&#x106;" horiz-adv-x="1251"
                   d="M647 1541h221l276 267h-301zM1133 1198l61 223q-64 34 -169 51.5t-230.5 12.5t-260.5 -56t-234 -146q-224 -210 -224 -569q0 -335 195 -536q199 -199 543 -199q235 0 367 62l-46 222q-117 -50 -277 -50q-230 0 -358.5 136.5t-128.5 377.5q0 255 139 393q63 63 148.5 96.5 t171 36t163.5 -12t140 -42.5z"/>
            <glyph unicode="&#x107;" horiz-adv-x="957"
                   d="M452 1185h190l263 321h-269zM862 825l45 211q-108 45 -249 45q-267 0 -428 -161q-156 -160 -156 -402q0 -247 147 -393t394 -146q182 0 290 52l-37 207q-92 -39 -197 -39q-135 0 -219 87q-92 92 -92 244q0 147 84 239.5t225 92.5q109 0 193 -37z"/>
            <glyph unicode="&#x108;" horiz-adv-x="1251"
                   d="M545 1914l-209 -321h182l114 191h4l111 -191h187l-213 321h-176zM1133 1198l61 223q-64 34 -169 51.5t-230.5 12.5t-260.5 -56t-234 -146q-224 -210 -224 -569q0 -335 195 -536q199 -199 543 -199q235 0 367 62l-46 222q-117 -50 -277 -50q-230 0 -358.5 136.5 t-128.5 377.5q0 255 139 393q63 63 148.5 96.5t171 36t163.5 -12t140 -42.5z"/>
            <glyph unicode="&#x109;" horiz-adv-x="957"
                   d="M402 1510l-209 -321h182l114 192h4l110 -192h187l-212 321h-176zM862 825l45 211q-108 45 -249 45q-267 0 -428 -161q-156 -160 -156 -402q0 -247 147 -393t394 -146q182 0 290 52l-37 207q-92 -39 -197 -39q-135 0 -219 87q-92 92 -92 244q0 147 84 239.5t225 92.5 q109 0 193 -37z"/>
            <glyph unicode="&#x10a;" horiz-adv-x="1251"
                   d="M766 1728q0 57 -36 94.5t-92 37.5t-95 -38t-39 -94q0 -57 38 -96t94 -39t93 39t37 96zM1133 1198l61 223q-64 34 -169 51.5t-230.5 12.5t-260.5 -56t-234 -146q-224 -210 -224 -569q0 -335 195 -536q199 -199 543 -199q235 0 367 62l-46 222q-117 -50 -277 -50 q-230 0 -358.5 136.5t-128.5 377.5q0 255 139 393q63 63 148.5 96.5t171 36t163.5 -12t140 -42.5z"/>
            <glyph unicode="&#x10b;" horiz-adv-x="957"
                   d="M623 1324q0 57 -36 94.5t-92 37.5q-57 0 -96 -38t-39 -94t38.5 -95.5t94.5 -39.5t93 39t37 96zM862 825l45 211q-108 45 -249 45q-267 0 -428 -161q-156 -160 -156 -402q0 -247 147 -393t394 -146q182 0 290 52l-37 207q-92 -39 -197 -39q-135 0 -219 87q-92 92 -92 244 q0 147 84 239.5t225 92.5q109 0 193 -37z"/>
            <glyph unicode="&#x10c;" horiz-adv-x="1251"
                   d="M788 1659h-5l-118 149h-201l218 -267h204l216 267h-197zM1133 1198l61 223q-64 34 -169 51.5t-230.5 12.5t-260.5 -56t-234 -146q-224 -210 -224 -569q0 -335 195 -536q199 -199 543 -199q235 0 367 62l-46 222q-117 -50 -277 -50q-230 0 -358.5 136.5t-128.5 377.5 q0 255 139 393q63 63 148.5 96.5t171 36t163.5 -12t140 -42.5z"/>
            <glyph unicode="&#x10d;" horiz-adv-x="957"
                   d="M584 1313h-4l-116 193h-188l211 -321h190l211 321h-189zM862 825l45 211q-108 45 -249 45q-267 0 -428 -161q-156 -160 -156 -402q0 -247 147 -393t394 -146q182 0 290 52l-37 207q-92 -39 -197 -39q-135 0 -219 87q-92 92 -92 244q0 147 84 239.5t225 92.5 q109 0 193 -37z"/>
            <glyph unicode="&#x10e;" horiz-adv-x="1458"
                   d="M682 1659h-5l-119 149h-200l218 -267h203l217 267h-197zM1383 766q0 364 -231 549q-197 159 -583 159q-233 0 -420 -30v-1440q146 -19 355 -19q432 0 655.5 199t223.5 582zM1088 758q0 -271 -136 -411t-388 -138q-100 0 -134 6v1026q70 14 167 14q237 0 364 -127.5 t127 -369.5z"/>
            <glyph unicode="&#x10f;" horiz-adv-x="1295"
                   d="M1218 1174l120 -78q57 53 85 97q62 96 62 211q0 51 -21 97t-51 65l-180 -33q50 -72 50 -148q0 -107 -65 -211zM868 0h250q-8 142 -8 302v1237h-283v-588h-4q-78 130 -285 130q-190 0 -325 -147q-139 -154 -139 -416q0 -240 131 -392q60 -74 151.5 -113t183.5 -37.5 t177.5 49t133.5 136.5h4zM827 619v-163q0 -106 -54 -176q-64 -79 -168 -79q-115 0 -181 90t-66 237q0 152 67 244t185 92q80 0 142 -52q54 -48 71 -128q4 -20 4 -65z"/>
            <glyph unicode="&#x110;" horiz-adv-x="1462"
                   d="M1388 766q0 358 -210 533t-605 175q-233 0 -419 -30v-589h-148v-221h148v-630q145 -19 354 -19q432 0 656 199t224 582zM1092 758q0 -271 -135.5 -411t-387.5 -138q-99 0 -134 6v419h342v221h-342v386q68 14 166 14q238 0 364.5 -127.5t126.5 -369.5z"/>
            <glyph unicode="&#x111;" horiz-adv-x="1247"
                   d="M868 0h250q-8 142 -8 302v879h175v159h-175v199h-283v-199h-373v-159h373v-230h-4q-78 130 -285 130q-190 0 -325 -147q-139 -154 -139 -416q0 -240 131 -392q60 -74 151.5 -113t183.5 -37.5t177.5 49t133.5 136.5h4zM827 619v-163q0 -106 -54 -176q-64 -79 -168 -79 q-115 0 -181 90t-66 237q0 152 67 244t185 92q80 0 142 -52q54 -48 71 -128q4 -20 4 -65z"/>
            <glyph unicode="&#x112;" horiz-adv-x="1108" d="M300 1593h547v155h-547v-155zM430 232v410h536v230h-536v359h566v232h-847v-1463h880v232h-599z"/>
            <glyph unicode="&#x113;" horiz-adv-x="1108"
                   d="M321 1266h526v161h-526v-161zM1040 569q0 107 -28 198.5t-82.5 162.5t-142 112t-199.5 41q-117 0 -215 -45t-162.5 -122.5t-100.5 -180.5t-36 -219q0 -247 144 -391t399 -144q210 0 367 65l-42 192q-129 -47 -284 -47q-135 1 -221.5 67.5t-93.5 190.5h688q9 43 9 120z M777 644h-434q12 106 70.5 177.5t157.5 71.5q53 0 94 -21t65 -57t35.5 -79t11.5 -92z"/>
            <glyph unicode="&#x114;" horiz-adv-x="1108"
                   d="M860 1841h-139q-11 -134 -135 -134q-113 0 -130 134h-139q0 -111 62 -188q73 -81 207 -81q131 0 202.5 72t71.5 197zM430 232v410h536v230h-536v359h566v232h-847v-1463h880v232h-599z"/>
            <glyph unicode="&#x115;" horiz-adv-x="1108"
                   d="M827 1461h-139q-10 -135 -135 -135q-113 0 -130 135h-139q2 -113 64 -189q71 -81 205 -81q131 0 202.5 72.5t71.5 197.5zM1040 569q0 107 -28 198.5t-82.5 162.5t-142 112t-199.5 41q-117 0 -215 -45t-162.5 -122.5t-100.5 -180.5t-36 -219q0 -247 144 -391t399 -144 q210 0 367 65l-42 192q-129 -47 -284 -47q-135 1 -221.5 67.5t-93.5 190.5h688q9 43 9 120zM777 644h-434q12 106 70.5 177.5t157.5 71.5q53 0 94 -21t65 -57t35.5 -79t11.5 -92z"/>
            <glyph unicode="&#x116;" horiz-adv-x="1108"
                   d="M569 1554h2q56 0 94.5 40t38.5 95q0 57 -37 95.5t-94 38.5q-60 0 -99 -38.5t-39 -95.5q0 -55 39 -95t95 -40zM430 232v410h536v230h-536v359h566v232h-847v-1463h880v232h-599z"/>
            <glyph unicode="&#x117;" horiz-adv-x="1108"
                   d="M710 1328q0 57 -36 95t-92 38t-95.5 -38.5t-39.5 -94.5t38.5 -95t94.5 -39t93 38.5t37 95.5zM1040 569q0 107 -28 198.5t-82.5 162.5t-142 112t-199.5 41q-117 0 -215 -45t-162.5 -122.5t-100.5 -180.5t-36 -219q0 -247 144 -391t399 -144q210 0 367 65l-42 192 q-129 -47 -284 -47q-135 1 -221.5 67.5t-93.5 190.5h688q9 43 9 120zM777 644h-434q12 106 70.5 177.5t157.5 71.5q53 0 94 -21t65 -57t35.5 -79t11.5 -92z"/>
            <glyph unicode="&#x118;" horiz-adv-x="1108"
                   d="M430 232v410h536v230h-536v359h566v232h-847v-1463h632q-63 -48 -105 -110q-53 -79 -53 -163q0 -92 56 -141.5t159 -49.5q124 0 212 58l-41 137q-46 -17 -91 -17q-40 0 -64.5 19.5t-24.5 55.5q0 49 52 113q51 62 109 98h39v232h-599z"/>
            <glyph unicode="&#x119;" horiz-adv-x="1108"
                   d="M1040 569q0 107 -28 198.5t-82.5 162.5t-142 112t-199.5 41q-117 0 -215 -45t-162.5 -122.5t-100.5 -180.5t-36 -219q0 -247 144 -391t399 -144l15 2v-4q-68 -56 -104 -108q-55 -77 -55 -153q0 -85 57.5 -133.5t155.5 -48.5q119 0 213 64l-44 135q-45 -21 -99 -21 q-34 0 -56.5 19t-22.5 58q0 42 39 90t96 90q26 21 56 35q61 16 116 40l-42 192q-129 -47 -284 -47q-135 1 -221.5 67.5t-93.5 190.5h688q9 43 9 120zM777 644h-434q12 106 70.5 177.5t157.5 71.5q53 0 94 -21t65 -57t35.5 -79t11.5 -92z"/>
            <glyph unicode="&#x11a;" horiz-adv-x="1108" d="M578 1659h-5l-119 149h-200l217 -267h204l218 267h-199zM430 232v410h536v230h-536v359h566v232h-847v-1463h880v232h-599z"/>
            <glyph unicode="&#x11b;" horiz-adv-x="1108"
                   d="M569 1313h-5l-115 193h-188l210 -321h191l210 321h-188zM1040 569q0 107 -28 198.5t-82.5 162.5t-142 112t-199.5 41q-117 0 -215 -45t-162.5 -122.5t-100.5 -180.5t-36 -219q0 -247 144 -391t399 -144q210 0 367 65l-42 192q-129 -47 -284 -47q-135 1 -221.5 67.5 t-93.5 190.5h688q9 43 9 120zM777 644h-434q12 106 70.5 177.5t157.5 71.5q53 0 94 -21t65 -57t35.5 -79t11.5 -92z"/>
            <glyph unicode="&#x11c;" horiz-adv-x="1423"
                   d="M601 1908l-208 -321h183l112 191h4l111 -191h187l-213 321h-176zM795 814v-221h241v-355q-60 -23 -183 -23q-221 0 -349 137q-133 142 -133 379q0 246 143 383q65 62 158.5 95t188 35t183.5 -14t159 -47l61 228q-73 36 -188 54.5t-249.5 13.5t-277 -56.5t-247.5 -146.5 q-226 -211 -226 -559q-3 -342 204 -539q96 -92 230.5 -141t275.5 -53t273.5 17t249.5 64v749h-514z"/>
            <glyph unicode="&#x11d;" horiz-adv-x="1228"
                   d="M497 1510l-209 -321h183l113 192h4l111 -192h187l-213 321h-176zM845 922h-4q-92 159 -296 159q-193 0 -328 -147q-143 -161 -143 -410q-1 -227 123 -372.5t317 -145.5q199 0 296 148h4v-82q0 -308 -288 -308q-169 0 -302 80l-59 -215q139 -81 363 -81q262 0 408 129 q156 137 156 475v597q0 171 8 310h-245zM812 636v-176q0 -55 -13 -93q-47 -150 -200 -150q-109 0 -175 88t-66 227q0 154 67.5 244t175.5 90q96 0 153.5 -65t57.5 -165z"/>
            <glyph unicode="&#x11e;" horiz-adv-x="1423"
                   d="M1144 1802h-139q-30 -98 -147 -98q-118 0 -139 98h-146q0 -109 67 -167q74 -74 218 -74q137 0 211.5 64t74.5 177zM795 814v-221h241v-355q-60 -23 -183 -23q-221 0 -349 137q-133 142 -133 379q0 246 143 383q65 62 158.5 95t188 35t183.5 -14t159 -47l61 228 q-73 36 -188 54.5t-249.5 13.5t-277 -56.5t-247.5 -146.5q-226 -211 -226 -559q-3 -342 204 -539q96 -92 230.5 -141t275.5 -53t273.5 17t249.5 64v749h-514z"/>
            <glyph unicode="&#x11f;" horiz-adv-x="1228"
                   d="M886 1485h-139q-11 -135 -134 -135q-115 0 -131 135h-139q0 -114 63 -189q72 -80 207 -80q130 0 201.5 72t71.5 197zM845 922h-4q-92 159 -296 159q-193 0 -328 -147q-143 -161 -143 -410q-1 -227 123 -372.5t317 -145.5q199 0 296 148h4v-82q0 -308 -288 -308 q-169 0 -302 80l-59 -215q139 -81 363 -81q262 0 408 129q156 137 156 475v597q0 171 8 310h-245zM812 636v-176q0 -55 -13 -93q-47 -150 -200 -150q-109 0 -175 88t-66 227q0 154 67.5 244t175.5 90q96 0 153.5 -65t57.5 -165z"/>
            <glyph unicode="&#x120;" horiz-adv-x="1423"
                   d="M823 1721q0 57 -36.5 95t-92.5 38q-57 0 -95.5 -38t-38.5 -95q0 -56 38 -95t94 -39q57 0 94 38.5t37 95.5zM795 814v-221h241v-355q-60 -23 -183 -23q-221 0 -349 137q-133 142 -133 379q0 246 143 383q65 62 158.5 95t188 35t183.5 -14t159 -47l61 228q-73 36 -188 54.5 t-249.5 13.5t-277 -56.5t-247.5 -146.5q-226 -211 -226 -559q-3 -342 204 -539q96 -92 230.5 -141t275.5 -53t273.5 17t249.5 64v749h-514z"/>
            <glyph unicode="&#x121;" horiz-adv-x="1228"
                   d="M719 1324q0 57 -36 94.5t-93 37.5q-56 0 -95 -38t-39 -94q0 -57 38 -96t94 -39t93.5 39t37.5 96zM845 922h-4q-92 159 -296 159q-193 0 -328 -147q-143 -161 -143 -410q-1 -227 123 -372.5t317 -145.5q199 0 296 148h4v-82q0 -308 -288 -308q-169 0 -302 80l-59 -215 q139 -81 363 -81q262 0 408 129q156 137 156 475v597q0 171 8 310h-245zM812 636v-176q0 -55 -13 -93q-47 -150 -200 -150q-109 0 -175 88t-66 227q0 154 67.5 244t175.5 90q96 0 153.5 -65t57.5 -165z"/>
            <glyph unicode="&#x122;" horiz-adv-x="1423"
                   d="M795 814v-221h241v-355q-60 -23 -183 -23q-221 0 -349 137q-133 142 -133 379q0 246 143 383q65 62 158.5 95t188 35t183.5 -14t159 -47l61 228q-73 36 -188 54.5t-249.5 13.5t-277 -56.5t-247.5 -146.5q-226 -211 -226 -559q-3 -342 204 -539q96 -92 230.5 -141 t275.5 -53t273.5 17t249.5 64v749h-514zM580 -387l43 -121q135 5 225 66q96 64 96 188q0 54 -24 97.5t-60 69.5l-198 -35q67 -65 67 -130q0 -55 -42.5 -88.5t-106.5 -46.5z"/>
            <glyph unicode="&#x123;" horiz-adv-x="1228"
                   d="M827 1456l-44 105q-141 -7 -224 -60q-97 -61 -97 -179q0 -48 25 -89.5t60 -64.5l189 30q-69 63 -69 124q0 57 44.5 90t115.5 44zM845 922h-4q-92 159 -296 159q-193 0 -328 -147q-143 -161 -143 -410q-1 -227 123 -372.5t317 -145.5q199 0 296 148h4v-82 q0 -308 -288 -308q-169 0 -302 80l-59 -215q139 -81 363 -81q262 0 408 129q156 137 156 475v597q0 171 8 310h-245zM812 636v-176q0 -55 -13 -93q-47 -150 -200 -150q-109 0 -175 88t-66 227q0 154 67.5 244t175.5 90q96 0 153.5 -65t57.5 -165z"/>
            <glyph unicode="&#x124;" horiz-adv-x="1442" d="M632 1893l-209 -321h182l114 191h4l110 -191h188l-213 321h-176zM1011 1463v-582h-581v582h-281v-1463h281v636h581v-636h283v1463h-283z"/>
            <glyph unicode="&#x125;" horiz-adv-x="1228"
                   d="M528 1969l-209 -322h182l114 192h4l110 -192h187l-212 322h-176zM1094 0v625q0 230 -110 352q-99 104 -253 104q-198 0 -308 -161h-4v619h-280v-1539h280v634q0 92 57.5 155.5t146.5 63.5q189 0 189 -258v-595h282z"/>
            <glyph unicode="&#x126;" horiz-adv-x="1442"
                   d="M1294 1270v193h-283v-193h-581v193h-281v-193h-116v-209h116v-1061h281v636h581v-636h283v1061h123v209h-123zM430 1061h581v-180h-581v180z"/>
            <glyph unicode="&#x127;" horiz-adv-x="1317"
                   d="M508 1400v139h-280v-139h-195v-209h195v-1191h280v634q0 92 57.5 155.5t146.5 63.5q189 0 189 -258v-595h282v625q0 230 -110 352q-99 104 -253 104q-198 0 -308 -161h-4v271h194v209h-194z"/>
            <glyph unicode="&#x128;" horiz-adv-x="578"
                   d="M580 1810h-131q-7 -93 -60 -93q-31 0 -99 42q-76 43 -134 43q-74 0 -115 -58.5t-41 -167.5v-24h130q9 93 54 93q18 2 96 -41q74 -38 137 -38q84 0 123.5 60t39.5 184zM149 1463v-1463h281v1463h-281z"/>
            <glyph unicode="&#x129;" horiz-adv-x="557"
                   d="M567 1469h-126q-7 -93 -57 -93q-24 0 -96 39q-83 46 -139 46q-73 0 -114 -61t-41 -167v-21h128q6 95 54 95q25 0 87 -35q80 -48 143 -48q84 0 122.5 60t38.5 185zM139 1059v-1059h280v1059h-280z"/>
            <glyph unicode="&#x12a;" horiz-adv-x="578" d="M19 1593h548v155h-548v-155zM149 1463v-1463h281v1463h-281z"/>
            <glyph unicode="&#x12b;" horiz-adv-x="557" d="M17 1266h526v161h-526v-161zM139 1059v-1059h280v1059h-280z"/>
            <glyph unicode="&#x12c;" horiz-adv-x="578"
                   d="M560 1841h-139q-11 -134 -135 -134q-113 0 -130 134h-139q1 -112 64 -188q71 -81 205 -81q131 0 202.5 72t71.5 197zM149 1463v-1463h281v1463h-281z"/>
            <glyph unicode="&#x12d;" horiz-adv-x="557"
                   d="M549 1437h-139q-11 -134 -134 -134q-114 0 -131 134h-139q1 -112 64 -188q70 -81 206 -81q130 0 201.5 72t71.5 197zM139 1059v-1059h280v1059h-280z"/>
            <glyph unicode="&#x12e;" horiz-adv-x="578"
                   d="M149 1463v-1463q-2 -6 -10 -20.5t-12 -24.5q-14 -27 -27 -62q-33 -87 -33 -147q0 -108 60.5 -161.5t168.5 -53.5q52 0 108 16t95 47l-41 133q-32 -17 -93 -17q-51 0 -83 31.5t-32 86.5q0 69 63 172h117v1463h-281z"/>
            <glyph unicode="&#x12f;" horiz-adv-x="557"
                   d="M443 1374q0 69 -46.5 114t-116.5 45q-71 0 -117.5 -44.5t-46.5 -114.5q0 -69 45 -113.5t115 -44.5q75 0 121 43t46 115zM139 1059v-1059q-26 -44 -50 -105q-33 -87 -33 -149q0 -108 60 -161.5t168 -53.5q127 0 207 63l-42 133q-40 -17 -95 -17q-51 0 -83.5 31.5 t-32.5 86.5q1 48 23 96q8 17 41 76h117v1059h-280z"/>
            <glyph unicode="&#x130;" horiz-adv-x="578"
                   d="M421 1676q0 57 -36 94.5t-92 37.5q-57 0 -95.5 -38t-38.5 -94q0 -57 37.5 -96t93.5 -39q57 0 94 39t37 96zM149 1463v-1463h281v1463h-281z"/>
            <glyph unicode="&#x131;" horiz-adv-x="557" d="M139 1059v-1059h280v1059h-280z"/>
            <glyph unicode="&#x132;" horiz-adv-x="1425"
                   d="M149 1463v-1463h281v1463h-281zM1009 1463v-941q0 -172 -62 -246q-36 -39 -96.5 -54t-119 -9.5t-118.5 23.5l-33 -225q93 -35 223 -35q487 0 487 538v949h-281z"/>
            <glyph unicode="&#x133;" horiz-adv-x="1145"
                   d="M443 1374q0 69 -46.5 114t-116.5 45q-71 0 -117.5 -44.5t-46.5 -114.5q0 -69 45 -113.5t115 -44.5q75 0 121 43t46 115zM1036 1374q0 69 -47 114t-117 45q-71 0 -117.5 -44.5t-46.5 -114.5q0 -69 45 -113.5t115 -44.5q73 0 120.5 43.5t47.5 114.5zM139 1059v-1059h280 v1059h-280zM731 1059v-870q0 -289 -66 -359q-61 -62 -196 -71l28 -221q126 0 219 30.5t160 97t101 178t34 268.5v947h-280z"/>
            <glyph unicode="&#x134;" horiz-adv-x="845"
                   d="M462 1893l-208 -321h183l112 191h4l112 -191h186l-213 321h-176zM430 1463v-941q-2 -172 -63 -246q-35 -40 -95.5 -54.5t-118.5 -9t-120 23.5l-33 -225q93 -35 224 -35q486 0 486 538v949h-280z"/>
            <glyph unicode="&#x135;" horiz-adv-x="588"
                   d="M222 1489l-209 -321h182l113 191h5l110 -191h187l-212 321h-176zM174 1059v-870q-2 -290 -68 -359q-59 -62 -195 -71l29 -221q125 0 218 30.5t160.5 97t101.5 178t34 268.5v947h-280z"/>
            <glyph unicode="&#x136;" horiz-adv-x="1258"
                   d="M1241 1463h-344l-359 -506q-67 -103 -103 -160h-8v666h-278v-1463h278v506l126 152l391 -658h326l-516 841zM458 -384l43 -122q136 5 226 66q96 65 96 190q0 53 -24.5 97t-60.5 70l-197 -35q64 -64 64 -129q0 -55 -42 -89.5t-105 -47.5z"/>
            <glyph unicode="&#x137;" horiz-adv-x="1106"
                   d="M1079 1059h-335l-240 -336q-7 -12 -38 -58q-23 -32 -43 -68h-4v942h-280v-1539h280v354l87 104l284 -458h343l-434 625zM387 -387l43 -123q140 5 225 66q97 71 97 190q0 53 -24.5 97t-60.5 70l-201 -35q68 -64 68 -130q0 -55 -42 -88.5t-105 -46.5z"/>
            <glyph unicode="&#x138;" horiz-adv-x="1106" d="M1079 1059h-335l-240 -336q-7 -12 -38 -58q-23 -32 -43 -68h-4v464h-280v-1061h280v354l87 104l284 -458h343l-434 625z"/>
            <glyph unicode="&#x139;" horiz-adv-x="1061" d="M180 1541h222l275 267h-302zM430 236v1227h-281v-1463h864v236h-583z"/>
            <glyph unicode="&#x13a;" horiz-adv-x="557" d="M130 1607h226l269 260h-304zM139 1539v-1539h280v1539h-280z"/>
            <glyph unicode="&#x13b;" horiz-adv-x="1061"
                   d="M430 236v1227h-281v-1463h864v236h-583zM365 -387l43 -121q135 5 225 66q96 65 96 188q0 53 -24.5 97t-60.5 70l-197 -35q67 -65 67 -130q0 -55 -42.5 -88.5t-106.5 -46.5z"/>
            <glyph unicode="&#x13c;" horiz-adv-x="557"
                   d="M139 1539v-1539h280v1539h-280zM78 -387l44 -123q140 5 225 66q96 70 96 190q0 53 -24.5 97t-60.5 70l-199 -35q67 -67 67 -130q0 -55 -42 -88.5t-106 -46.5z"/>
            <glyph unicode="&#x13d;" horiz-adv-x="1061"
                   d="M567 1189l43 -121q139 6 225 65q97 67 97 189q0 53 -24.5 97t-60.5 70l-198 -35q68 -66 68 -130q0 -54 -43.5 -88t-106.5 -47zM430 236v1227h-281v-1463h864v236h-583z"/>
            <glyph unicode="&#x13e;" horiz-adv-x="598"
                   d="M504 1174l130 -78q6 6 36 38q23 25 45 61q58 90 58 201q0 55 -21.5 102.5t-49.5 67.5l-184 -33q53 -67 53 -148q0 -39 -11 -80.5t-23 -67t-33 -63.5zM139 1539v-1539h280v1539h-280z"/>
            <glyph unicode="&#x13f;" horiz-adv-x="1061"
                   d="M430 236v1227h-281v-1463h864v236h-583zM973 877q0 77 -47 127.5t-123 50.5q-75 0 -123 -51t-48 -127t46.5 -125.5t120.5 -49.5q78 0 126 48t48 127z"/>
            <glyph unicode="&#x140;" horiz-adv-x="1030"
                   d="M139 1539v-1539h280v1539h-280zM973 877q0 77 -47 127.5t-123 50.5q-75 0 -123 -51t-48 -127t46.5 -125.5t120.5 -49.5q78 0 126 48t48 127z"/>
            <glyph unicode="&#x141;" horiz-adv-x="1073" d="M443 236v487l274 191v204l-274 -194v539h-282v-727l-167 -117v-202l167 117v-534h864v236h-582z"/>
            <glyph unicode="&#x142;" horiz-adv-x="580" d="M432 961v578h-283v-785l-141 -118v-209l141 118v-545h283v754l152 125v209z"/>
            <glyph unicode="&#x143;" horiz-adv-x="1450"
                   d="M593 1541h221l276 267h-302zM1042 1463v-481q0 -297 24 -613l-5 -2q-106 256 -241 491l-351 605h-320v-1463h259v495q0 411 -15 630l7 2q88 -212 253 -506l356 -621h292v1463h-259z"/>
            <glyph unicode="&#x144;" horiz-adv-x="1228"
                   d="M487 1185h190l263 321h-269zM1094 0v632q0 229 -112 347q-104 102 -259 102q-224 0 -328 -176h-6l-14 154h-245q9 -148 9 -321v-738h280v621q0 96 58 163q58 69 148 69q187 0 187 -254v-599h282z"/>
            <glyph unicode="&#x145;" horiz-adv-x="1450"
                   d="M1042 1463v-481q0 -297 24 -613l-5 -2q-106 256 -241 491l-351 605h-320v-1463h259v495q0 411 -15 630l7 2q88 -212 253 -506l356 -621h292v1463h-259zM562 -384l43 -122q135 5 225 66q96 65 96 190q0 54 -23.5 97.5t-59.5 69.5l-201 -35q68 -64 68 -129 q0 -55 -42.5 -89.5t-105.5 -47.5z"/>
            <glyph unicode="&#x146;" horiz-adv-x="1228"
                   d="M1094 0v632q0 229 -112 347q-104 102 -259 102q-224 0 -328 -176h-6l-14 154h-245q9 -148 9 -321v-738h280v621q0 96 58 163q58 69 148 69q187 0 187 -254v-599h282zM435 -387l43 -121q135 5 225 66q96 65 96 190q0 53 -24.5 97t-60.5 70l-198 -35q66 -62 66 -130 q0 -54 -42.5 -89.5t-104.5 -47.5z"/>
            <glyph unicode="&#x147;" horiz-adv-x="1450"
                   d="M756 1659h-4l-120 149h-200l217 -267h204l218 267h-199zM1042 1463v-481q0 -297 24 -613l-5 -2q-106 256 -241 491l-351 605h-320v-1463h259v495q0 411 -15 630l7 2q88 -212 253 -506l356 -621h292v1463h-259z"/>
            <glyph unicode="&#x148;" horiz-adv-x="1228"
                   d="M619 1313h-4l-116 193h-188l211 -321h190l210 321h-188zM1094 0v632q0 229 -112 347q-104 102 -259 102q-224 0 -328 -176h-6l-14 154h-245q9 -148 9 -321v-738h280v621q0 96 58 163q58 69 148 69q187 0 187 -254v-599h282z"/>
            <glyph unicode="&#x149;" horiz-adv-x="1521"
                   d="M471 1502l-270 -21q-40 -274 -143 -559l172 18q139 227 241 562zM1350 0v632q-2 230 -113 347q-102 102 -258 102q-224 0 -328 -176h-7l-12 154h-245q8 -184 8 -321v-738h280v621q0 94 58 163t148 69q187 0 187 -254v-599h282z"/>
            <glyph unicode="&#x14a;" horiz-adv-x="1450"
                   d="M1042 1463v-481q0 -297 24 -613l-5 -2q-106 256 -241 491l-351 605h-320v-1463h259v495q0 411 -15 630l7 2q88 -212 253 -506l356 -621q-9 -67 -23 -107.5t-42.5 -71t-72.5 -44t-113 -18.5l27 -221q243 0 366.5 114.5t142.5 347.5h7v1463h-259z"/>
            <glyph unicode="&#x14b;" horiz-adv-x="1228"
                   d="M1094 0v632q0 229 -112 347q-104 102 -259 102q-224 0 -328 -176h-6l-14 154h-245q9 -148 9 -321v-738h280v621q0 96 58 163q58 69 148 69q187 0 187 -254v-510q-6 -101 -21 -162.5t-47.5 -98t-76 -50.5t-116.5 -19l29 -221q242 0 364.5 114.5t143.5 347.5h6z"/>
            <glyph unicode="&#x14c;" horiz-adv-x="1502"
                   d="M473 1593h548v155h-548v-155zM1427 747q0 158 -46 294t-130.5 235t-211 155t-279.5 56q-155 0 -284.5 -59t-216.5 -161.5t-135 -243t-48 -302.5q0 -159 45.5 -295.5t129 -236.5t209 -156.5t278.5 -56.5q331 0 515 223q174 214 174 548zM1127 736q0 -106 -23.5 -200.5 t-68.5 -170t-118 -120t-165 -44.5q-75 0 -138 28.5t-107.5 78t-76 116.5t-46.5 143.5t-15 159.5q0 210 87 356q100 178 296 178q91 0 164 -44t118 -118.5t69 -167t24 -195.5z"/>
            <glyph unicode="&#x14d;" horiz-adv-x="1208"
                   d="M341 1266h525v161h-525v-161zM1135 538q0 238 -141 392q-91 98 -237 134t-294.5 -1.5t-243.5 -138.5q-145 -149 -145 -402q0 -242 143 -394q93 -99 238.5 -135t292 1t242.5 138q145 160 145 406zM845 532q0 -92 -25 -169.5t-81 -130t-134 -52.5q-127 0 -191 118 q-54 93 -54 230q0 139 54 232q64 117 191 117q78 0 134 -50t81 -126.5t25 -168.5z"/>
            <glyph unicode="&#x14e;" horiz-adv-x="1502"
                   d="M1023 1865h-139q-10 -135 -135 -135q-113 0 -130 135h-139q0 -113 63 -189q72 -81 206 -81q130 0 202 72.5t72 197.5zM1427 747q0 158 -46 294t-130.5 235t-211 155t-279.5 56q-155 0 -284.5 -59t-216.5 -161.5t-135 -243t-48 -302.5q0 -159 45.5 -295.5t129 -236.5 t209 -156.5t278.5 -56.5q331 0 515 223q174 214 174 548zM1127 736q0 -106 -23.5 -200.5t-68.5 -170t-118 -120t-165 -44.5q-75 0 -138 28.5t-107.5 78t-76 116.5t-46.5 143.5t-15 159.5q0 210 87 356q100 178 296 178q91 0 164 -44t118 -118.5t69 -167t24 -195.5z"/>
            <glyph unicode="&#x14f;" horiz-adv-x="1208"
                   d="M874 1459h-138q-10 -135 -135 -135q-113 0 -130 135h-139q2 -113 63 -189q71 -81 206 -81q131 0 202 72t71 198zM1135 538q0 238 -141 392q-91 98 -237 134t-294.5 -1.5t-243.5 -138.5q-145 -149 -145 -402q0 -242 143 -394q93 -99 238.5 -135t292 1t242.5 138 q145 160 145 406zM845 532q0 -92 -25 -169.5t-81 -130t-134 -52.5q-127 0 -191 118q-54 93 -54 230q0 139 54 232q64 117 191 117q78 0 134 -50t81 -126.5t25 -168.5z"/>
            <glyph unicode="&#x150;" horiz-adv-x="1502"
                   d="M489 1561h195l228 249h-272zM855 1561h195l230 249h-271zM1427 747q0 158 -46 294t-130.5 235t-211 155t-279.5 56q-155 0 -284.5 -59t-216.5 -161.5t-135 -243t-48 -302.5q0 -159 45.5 -295.5t129 -236.5t209 -156.5t278.5 -56.5q331 0 515 223q174 214 174 548z M1127 736q0 -106 -23.5 -200.5t-68.5 -170t-118 -120t-165 -44.5q-75 0 -138 28.5t-107.5 78t-76 116.5t-46.5 143.5t-15 159.5q0 210 87 356q100 178 296 178q91 0 164 -44t118 -118.5t69 -167t24 -195.5z"/>
            <glyph unicode="&#x151;" horiz-adv-x="1208"
                   d="M311 1196h158l221 310h-230zM660 1196h158l222 310h-230zM1135 538q0 238 -141 392q-91 98 -237 134t-294.5 -1.5t-243.5 -138.5q-145 -149 -145 -402q0 -242 143 -394q93 -99 238.5 -135t292 1t242.5 138q145 160 145 406zM845 532q0 -92 -25 -169.5t-81 -130 t-134 -52.5q-127 0 -191 118q-54 93 -54 230q0 139 54 232q64 117 191 117q78 0 134 -50t81 -126.5t25 -168.5z"/>
            <glyph unicode="&#x152;" horiz-adv-x="1959"
                   d="M1280 232v410h535v228h-535v361h568v232h-730q-32 0 -67 4q-90 7 -94 7q-104 13 -160 13q-326 0 -524 -209q-197 -203 -197 -557q0 -162 47 -297.5t135.5 -235.5t224.5 -156t305 -56q29 -2 154 13q105 11 152 11h786v232h-600zM1001 1231v-1003q-65 -27 -166 -27 q-213 0 -340 145q-124 141 -124 385q0 241 123 385.5t320 144.5q106 0 187 -30z"/>
            <glyph unicode="&#x153;" horiz-adv-x="1848"
                   d="M1782 571q0 105 -27 195.5t-79.5 162.5t-138.5 113t-195 41q-247 0 -372 -209h-4q-104 209 -373 209q-228 0 -373.5 -152.5t-145.5 -402.5q0 -253 145 -404q69 -72 172.5 -110t209.5 -36.5t207 54.5t160 152h5q58 -97 160 -149t211 -56.5t210.5 15.5t175.5 60l-41 191 q-135 -54 -285 -54q-131 0 -215 70.5t-89 192.5h673q9 51 9 117zM1518 647h-422q4 98 62.5 172t154.5 74q115 0 168 -87q37 -70 37 -159zM838 532q0 -97 -22.5 -173t-77.5 -126.5t-137 -50.5q-119 0 -184 120q-54 93 -54 228q0 138 49 232q64 117 191 117q78 0 132.5 -50 t78.5 -126.5t24 -170.5z"/>
            <glyph unicode="&#x154;" horiz-adv-x="1230"
                   d="M469 1541h221l276 267h-301zM899 0h288q-19 39 -52 159l-62 249q-59 226 -201 282v6q113 42 187 138.5t74 224.5q0 415 -578 415q-232 0 -406 -30v-1444h278v595h122q110 0 166 -54.5t86 -194.5q58 -272 98 -346zM853 1036q0 -107 -75 -171t-205 -64h-146v450 q53 10 157 10q269 0 269 -225z"/>
            <glyph unicode="&#x155;" horiz-adv-x="774"
                   d="M278 1185h191l262 321h-269zM740 810v267q-23 4 -63 4q-91 0 -165 -54q-85 -67 -119 -165h-6l-12 197h-243q9 -125 9 -340l-2 -719h280v545q0 124 62.5 198.5t178.5 74.5q43 0 80 -8z"/>
            <glyph unicode="&#x156;" horiz-adv-x="1230"
                   d="M899 0h288q-19 39 -52 159l-62 249q-59 226 -201 282v6q113 42 187 138.5t74 224.5q0 415 -578 415q-232 0 -406 -30v-1444h278v595h122q110 0 166 -54.5t86 -194.5q58 -272 98 -346zM853 1036q0 -107 -75 -171t-205 -64h-146v450q53 10 157 10q269 0 269 -225zM452 -387 l43 -123q140 5 225 66q96 70 96 190q0 53 -24.5 97t-60.5 70l-199 -35q67 -67 67 -130q0 -55 -42 -88.5t-105 -46.5z"/>
            <glyph unicode="&#x157;" horiz-adv-x="774"
                   d="M740 810v267q-23 4 -63 4q-91 0 -165 -54q-85 -67 -119 -165h-6l-12 197h-243q9 -125 9 -340l-2 -719h280v545q0 124 62.5 198.5t178.5 74.5q43 0 80 -8zM78 -387l44 -123q140 5 225 66q96 70 96 190q0 53 -24.5 97t-60.5 70l-199 -35q67 -67 67 -130q0 -55 -42 -88.5 t-106 -46.5z"/>
            <glyph unicode="&#x158;" horiz-adv-x="1230"
                   d="M605 1659h-4l-119 149h-200l217 -267h205l216 267h-197zM899 0h288q-19 39 -52 159l-62 249q-59 226 -201 282v6q113 42 187 138.5t74 224.5q0 415 -578 415q-232 0 -406 -30v-1444h278v595h122q110 0 166 -54.5t86 -194.5q58 -272 98 -346zM853 1036q0 -107 -75 -171 t-205 -64h-146v450q53 10 157 10q269 0 269 -225z"/>
            <glyph unicode="&#x159;" horiz-adv-x="774"
                   d="M402 1313h-4l-116 193h-189l211 -321h191l211 321h-190zM740 810v267q-23 4 -63 4q-91 0 -165 -54q-85 -67 -119 -165h-6l-12 197h-243q9 -125 9 -340l-2 -719h280v545q0 124 62.5 198.5t178.5 74.5q43 0 80 -8z"/>
            <glyph unicode="&#x15a;" horiz-adv-x="1117"
                   d="M423 1541h221l276 267h-301zM1036 421q0 285 -371 434q-152 63 -207 104q-65 53 -65 129q0 70 54 115q41 35 116 47t169 -4t180 -59l65 226q-143 72 -347 72q-236 0 -379 -119.5t-143 -304.5q0 -282 389 -425q139 -52 195.5 -104.5t56.5 -131.5q0 -88 -66 -138.5 t-188 -50.5q-192 0 -350 91l-58 -235q152 -88 391 -88q263 -1 410.5 121.5t147.5 320.5z"/>
            <glyph unicode="&#x15b;" horiz-adv-x="897"
                   d="M330 1185h192l261 321h-269zM827 313q-4 223 -280 323q-99 37 -139 66q-39 28 -39 75q0 51 36.5 78.5t91 28.5t117 -15t115.5 -46l54 198q-113 60 -279 60q-180 0 -293 -95q-46 -40 -76 -93t-35.5 -116t17.5 -123.5t93 -118.5t181 -98q93 -33 128.5 -65t35.5 -84 q1 -55 -39.5 -82.5t-120.5 -27.5q-142 0 -267 76l-54 -202q127 -73 321 -73q204 0 318 89.5t114 244.5z"/>
            <glyph unicode="&#x15c;" horiz-adv-x="1117"
                   d="M471 1914l-208 -321h182l113 191h4l111 -191h187l-213 321h-176zM1036 421q0 285 -371 434q-152 63 -207 104q-65 53 -65 129q0 70 54 115q41 35 116 47t169 -4t180 -59l65 226q-143 72 -347 72q-236 0 -379 -119.5t-143 -304.5q0 -282 389 -425q139 -52 195.5 -104.5 t56.5 -131.5q0 -88 -66 -138.5t-188 -50.5q-192 0 -350 91l-58 -235q152 -88 391 -88q263 -1 410.5 121.5t147.5 320.5z"/>
            <glyph unicode="&#x15d;" horiz-adv-x="897"
                   d="M360 1510l-208 -321h182l113 192h5l110 -192h187l-213 321h-176zM827 313q-4 223 -280 323q-99 37 -139 66q-39 28 -39 75q0 51 36.5 78.5t91 28.5t117 -15t115.5 -46l54 198q-113 60 -279 60q-180 0 -293 -95q-46 -40 -76 -93t-35.5 -116t17.5 -123.5t93 -118.5t181 -98 q93 -33 128.5 -65t35.5 -84q1 -55 -39.5 -82.5t-120.5 -27.5q-142 0 -267 76l-54 -202q127 -73 321 -73q204 0 318 89.5t114 244.5z"/>
            <glyph unicode="&#x15e;" horiz-adv-x="1117"
                   d="M1036 421q0 285 -371 434q-152 63 -207 104q-65 53 -65 129q0 70 54 115q41 35 116 47t169 -4t180 -59l65 226q-143 72 -347 72q-236 0 -379 -119.5t-143 -304.5q0 -282 389 -425q139 -52 195.5 -104.5t56.5 -131.5q0 -88 -66 -138.5t-188 -50.5q-192 0 -350 91l-58 -235 q147 -87 373 -88l-81 -157q168 -10 168 -83q0 -58 -81 -58q-60 0 -118 33l-40 -112q64 -41 165 -41q250 0 250 185q0 60 -43.5 102t-110.5 52l48 89q117 15 209.5 66.5t151 146.5t58.5 219z"/>
            <glyph unicode="&#x15f;" horiz-adv-x="897"
                   d="M827 313q-4 223 -280 323q-99 37 -139 66q-39 28 -39 75q0 51 36.5 78.5t91 28.5t117 -15t115.5 -46l54 198q-113 60 -279 60q-180 0 -293 -95q-46 -40 -76 -93t-35.5 -116t17.5 -123.5t93 -118.5t181 -98q93 -33 128.5 -65t35.5 -84q1 -55 -39.5 -82.5t-120.5 -27.5 q-142 0 -267 76l-54 -202q118 -67 293 -73l-81 -157q168 -10 168 -83q0 -58 -83 -58q-59 0 -117 33l-39 -112q64 -41 164 -41q251 0 251 185q0 60 -43.5 102t-110.5 52l50 89q62 13 113 36t95 60.5t68.5 95.5t24.5 132z"/>
            <glyph unicode="&#x160;" horiz-adv-x="1117"
                   d="M588 1659h-4l-120 149h-197l217 -267h204l217 267h-197zM1036 421q0 285 -371 434q-152 63 -207 104q-65 53 -65 129q0 70 54 115q41 35 116 47t169 -4t180 -59l65 226q-143 72 -347 72q-236 0 -379 -119.5t-143 -304.5q0 -282 389 -425q139 -52 195.5 -104.5 t56.5 -131.5q0 -88 -66 -138.5t-188 -50.5q-192 0 -350 91l-58 -235q152 -88 391 -88q263 -1 410.5 121.5t147.5 320.5z"/>
            <glyph unicode="&#x161;" horiz-adv-x="897"
                   d="M460 1313h-4l-118 193h-186l211 -321h190l209 321h-186zM827 313q-4 223 -280 323q-99 37 -139 66q-39 28 -39 75q0 51 36.5 78.5t91 28.5t117 -15t115.5 -46l54 198q-113 60 -279 60q-180 0 -293 -95q-46 -40 -76 -93t-35.5 -116t17.5 -123.5t93 -118.5t181 -98 q93 -33 128.5 -65t35.5 -84q1 -55 -39.5 -82.5t-120.5 -27.5q-142 0 -267 76l-54 -202q127 -73 321 -73q204 0 318 89.5t114 244.5z"/>
            <glyph unicode="&#x162;" horiz-adv-x="1131"
                   d="M653 0l-56 -100q60 -7 107 -47q48 -47 48 -107q0 -185 -251 -185q-103 0 -165 41l39 112q59 -33 120 -33q81 0 81 58q0 73 -168 83l92 178h-77v1226h-402v237h1089v-237h-406v-1226h-51z"/>
            <glyph unicode="&#x163;" horiz-adv-x="761"
                   d="M458 851v-451q0 -191 135 -191q43 0 99 10l4 -215q-59 -21 -135 -25l-45 -79q60 -7 107 -47q48 -47 48 -107q0 -185 -250 -185q-103 0 -164 41l39 112q58 -33 118 -33q81 0 81 58q0 72 -167 83l85 167q-94 22 -147 78q-84 87 -84 298v486h-145v208h145v196l276 77v-273 h248v-208h-248z"/>
            <glyph unicode="&#x164;" horiz-adv-x="1131" d="M571 1659h-4l-120 149h-200l217 -267h205l217 267h-198zM21 1463v-237h402v-1226h281v1226h406v237h-1089z"/>
            <glyph unicode="&#x165;" horiz-adv-x="783"
                   d="M601 1274l72 -104q72 17 135 78q76 74 76 183q0 47 -21.5 87.5t-50.5 61.5l-184 -32q49 -63 49 -121q0 -49 -22 -91t-54 -62zM458 1059v273l-276 -77v-196h-145v-208h145v-486q0 -211 84 -298q52 -54 138.5 -75t160 -14.5t131.5 26.5l-4 215q-56 -10 -99 -10 q-135 0 -135 191v451h248v208h-248z"/>
            <glyph unicode="&#x166;" horiz-adv-x="1131" d="M704 922v304h406v237h-1089v-237h402v-304h-282v-208h282v-714h281v714h280v208h-280z"/>
            <glyph unicode="&#x167;" horiz-adv-x="761"
                   d="M458 640v211h248v208h-248v273l-276 -77v-196h-145v-208h145v-211h-145v-208h145v-67q0 -211 84 -298q52 -54 138.5 -75t160 -14.5t131.5 26.5l-4 215q-56 -10 -99 -10q-135 0 -135 191v32h248v208h-248z"/>
            <glyph unicode="&#x168;" horiz-adv-x="1427"
                   d="M1015 1810h-129q-9 -93 -61 -93q-31 0 -98 42q-76 43 -134 43q-75 0 -115.5 -58t-40.5 -168v-24h130q9 93 54 93q18 2 96 -41q74 -38 136 -38q84 0 123 59.5t39 184.5zM999 1463v-858q0 -96 -24.5 -174.5t-65 -126.5t-91.5 -74t-105 -26t-105 26t-91.5 74t-65 126 t-24.5 175v858h-280v-838q1 -649 555 -649q277 0 427.5 164.5t150.5 484.5v838h-281z"/>
            <glyph unicode="&#x169;" horiz-adv-x="1222"
                   d="M897 1469h-126q-7 -93 -57 -93q-23 0 -95 39q-85 46 -139 46q-74 0 -115.5 -61t-41.5 -167v-21h129q6 95 54 95q25 0 87 -35q79 -48 143 -48q83 0 122 60t39 185zM847 0h245q-9 200 -9 321v738h-282v-640q-2 -48 -13 -81q-54 -131 -189 -131q-185 0 -185 275v577h-279 v-622q0 -244 106 -356q93 -105 256 -105q224 0 330 178h6z"/>
            <glyph unicode="&#x16a;" horiz-adv-x="1427"
                   d="M441 1593h547v155h-547v-155zM999 1463v-858q0 -96 -24.5 -174.5t-65 -126.5t-91.5 -74t-105 -26t-105 26t-91.5 74t-65 126t-24.5 175v858h-280v-838q1 -649 555 -649q277 0 427.5 164.5t150.5 484.5v838h-281z"/>
            <glyph unicode="&#x16b;" horiz-adv-x="1222"
                   d="M350 1266h524v161h-524v-161zM847 0h245q-9 200 -9 321v738h-282v-640q-2 -48 -13 -81q-54 -131 -189 -131q-185 0 -185 275v577h-279v-622q0 -241 106 -356q93 -105 256 -105q224 0 330 178h6z"/>
            <glyph unicode="&#x16c;" horiz-adv-x="1427"
                   d="M986 1841h-139q-11 -134 -135 -134q-113 0 -130 134h-139q0 -111 63 -188q72 -81 206 -81q131 0 202.5 72t71.5 197zM999 1463v-858q0 -96 -24.5 -174.5t-65 -126.5t-91.5 -74t-105 -26t-105 26t-91.5 74t-65 126t-24.5 175v858h-280v-838q1 -649 555 -649 q277 0 427.5 164.5t150.5 484.5v838h-281z"/>
            <glyph unicode="&#x16d;" horiz-adv-x="1222"
                   d="M884 1437h-140q-11 -134 -134 -134q-113 0 -130 134h-139q0 -111 63 -188q70 -81 206 -81q131 0 202.5 72t71.5 197zM847 0h245q-9 200 -9 321v738h-282v-640q-2 -48 -13 -81q-54 -131 -189 -131q-185 0 -185 275v577h-279v-622q0 -241 106 -356q93 -105 256 -105 q224 0 330 178h6z"/>
            <glyph unicode="&#x16e;" horiz-adv-x="1427"
                   d="M476 1717q0 -103 68 -168q71 -68 168 -68t170 68q69 66 69 168q0 99 -69 170q-71 69 -172 69q-97 0 -166 -69q-68 -70 -68 -170zM827 1717q0 -47 -33.5 -80t-81.5 -33q-47 0 -80 33t-33 80q0 48 33 82t80 34q48 0 81.5 -34t33.5 -82zM999 1463v-858q0 -96 -24.5 -174.5 t-65 -126.5t-91.5 -74t-105 -26t-105 26t-91.5 74t-65 126t-24.5 175v858h-280v-838q1 -649 555 -649q277 0 427.5 164.5t150.5 484.5v838h-281z"/>
            <glyph unicode="&#x16f;" horiz-adv-x="1222"
                   d="M820 1365q0 91 -60.5 152t-152.5 61q-91 0 -151.5 -61t-60.5 -152q0 -86 62 -148t150 -62q90 0 152 62q61 63 61 148zM704 1365q0 -37 -29 -65t-68 -28t-67 27t-28 66t28 67.5t67 28.5q40 0 68.5 -28.5t28.5 -67.5zM847 0h245q-9 200 -9 321v738h-282v-640 q-2 -48 -13 -81q-54 -131 -189 -131q-185 0 -185 275v577h-279v-622q0 -241 106 -356q93 -105 256 -105q224 0 330 178h6z"/>
            <glyph unicode="&#x170;" horiz-adv-x="1427"
                   d="M419 1561h196l228 249h-272zM785 1561h197l230 249h-272zM999 1463v-858q0 -96 -24.5 -174.5t-65 -126.5t-91.5 -74t-105 -26t-105 26t-91.5 74t-65 126t-24.5 175v858h-280v-838q1 -649 555 -649q277 0 427.5 164.5t150.5 484.5v838h-281z"/>
            <glyph unicode="&#x171;" horiz-adv-x="1222"
                   d="M334 1196h159l221 310h-230zM684 1196h159l221 310h-231zM847 0h245q-9 200 -9 321v738h-282v-640q-2 -48 -13 -81q-54 -131 -189 -131q-185 0 -185 275v577h-279v-622q0 -241 106 -356q93 -105 256 -105q224 0 330 178h6z"/>
            <glyph unicode="&#x172;" horiz-adv-x="1427"
                   d="M999 1463v-858q0 -96 -24.5 -174.5t-65 -126.5t-91.5 -74t-105 -26t-105 26t-91.5 74t-65 126t-24.5 175v858h-280v-838q1 -649 555 -649q-126 -128 -126 -252q0 -88 55.5 -137t158.5 -49q124 0 215 62l-39 135q-46 -21 -96 -21q-39 0 -66 22.5t-27 64.5q0 88 124 201 q134 39 226 135q153 165 153 488v838h-281z"/>
            <glyph unicode="&#x173;" horiz-adv-x="1222"
                   d="M1005 2l87 -2q-9 200 -9 321v738h-282v-640q-2 -48 -13 -81q-54 -131 -189 -131q-185 0 -185 275v577h-279v-622q0 -241 106 -356q93 -105 256 -105q224 0 330 178h6l14 -152q-19 -23 -52 -105q-33 -83 -33 -149q0 -104 60.5 -158t167.5 -54q124 0 206 60l-41 133 q-40 -15 -96 -15q-51 0 -83 31.5t-32 84.5q0 74 61 172z"/>
            <glyph unicode="&#x174;" horiz-adv-x="1866"
                   d="M849 1893l-209 -321h183l113 191h4l110 -191h187l-212 321h-176zM1556 1463l-139 -643q-68 -325 -93 -507h-4q-41 276 -87 495l-135 655h-292l-148 -643q-75 -331 -103 -514h-4q-18 121 -46 280l-43 230l-130 647h-299l346 -1463h305l161 665q57 243 91 462h4 q26 -213 79 -460l143 -667h299l382 1463h-287z"/>
            <glyph unicode="&#x175;" horiz-adv-x="1608"
                   d="M717 1489l-209 -321h182l113 191h5l110 -191h187l-212 321h-176zM1307 1059l-106 -458q-48 -201 -68 -354h-4q-30 168 -83 354l-122 458h-225l-130 -471q-62 -215 -82 -341h-5q-25 162 -65 343l-102 469h-286l307 -1059h261l126 417q44 140 76 335h4q35 -187 76 -338 l117 -414h261l326 1059h-276z"/>
            <glyph unicode="&#x176;" horiz-adv-x="1237"
                   d="M534 1893l-209 -321h183l113 191h4l111 -191h186l-212 321h-176zM914 1463l-165 -367q-57 -129 -119 -290h-5q-46 116 -121 288l-163 369h-322l454 -858v-605h281v615l475 848h-315z"/>
            <glyph unicode="&#x177;" horiz-adv-x="1078"
                   d="M452 1489l-209 -321h182l113 191h5l110 -191h188l-213 321h-176zM771 1059l-152 -555q-19 -71 -30 -118l-22 -86h-7q-8 32 -31 117l-25 84l-179 558h-310l383 -972q12 -38 12 -52q0 -12 -17 -48q-48 -90 -129.5 -149.5t-161.5 -78.5l65 -237q151 19 285 140 q177 159 362 676l254 721h-297z"/>
            <glyph unicode="&#x178;" horiz-adv-x="1237"
                   d="M551 1686q0 57 -36 95t-92 38t-94.5 -38t-38.5 -95q0 -54 38.5 -93t92.5 -39q57 0 93.5 37.5t36.5 94.5zM975 1686q0 57 -37 95t-93 38q-57 0 -95 -38t-38 -95q0 -54 38.5 -93t92.5 -39q56 0 94 38t38 94zM914 1463l-165 -367q-57 -129 -119 -290h-5q-46 116 -121 288 l-163 369h-322l454 -858v-605h281v615l475 848h-315z"/>
            <glyph unicode="&#x179;" horiz-adv-x="1206" d="M473 1541h221l276 267h-301zM427 234l706 1062v167h-1015v-234h653l-717 -1073v-156h1090v234h-717z"/>
            <glyph unicode="&#x17a;" horiz-adv-x="969" d="M379 1185h192l262 321h-269zM393 224v4q74 76 156 184l365 474v173h-831v-226h490v-4q-100 -106 -154 -178l-376 -488v-163h883v224h-533z"/>
            <glyph unicode="&#x17b;" horiz-adv-x="1206"
                   d="M619 1554h2q56 0 94.5 40t38.5 95q0 57 -37.5 95.5t-93.5 38.5q-60 0 -99.5 -38.5t-39.5 -95.5q0 -55 39.5 -95t95.5 -40zM427 234l706 1062v167h-1015v-234h653l-717 -1073v-156h1090v234h-717z"/>
            <glyph unicode="&#x17c;" horiz-adv-x="969"
                   d="M644 1328q0 57 -36 95t-92 38t-95 -38.5t-39 -94.5t38 -95t94 -39t93 38.5t37 95.5zM393 224v4q74 76 156 184l365 474v173h-831v-226h490v-4q-100 -106 -154 -178l-376 -488v-163h883v224h-533z"/>
            <glyph unicode="&#x17d;" horiz-adv-x="1206" d="M651 1659h-4l-119 149h-200l217 -267h204l217 267h-198zM427 234l706 1062v167h-1015v-234h653l-717 -1073v-156h1090v234h-717z"/>
            <glyph unicode="&#x17e;" horiz-adv-x="969"
                   d="M506 1313h-5l-114 193h-190l211 -321h191l209 321h-187zM393 224v4q74 76 156 184l365 474v173h-831v-226h490v-4q-100 -106 -154 -178l-376 -488v-163h883v224h-533z"/>
            <glyph unicode="&#x17f;" horiz-adv-x="696" d="M729 1320l18 217q-76 27 -169 27q-181 -2 -293.5 -119.5t-112.5 -342.5v-43h-143v-208h143v-851h280v1114q0 226 167 226q60 -2 110 -20z"/>
            <glyph unicode="&#x191;" horiz-adv-x="1093" d="M149 1463v-1316q-6 -249 -66 -317q-59 -62 -195 -71l27 -221q243 0 366 114.5t142 347.5h7v615h523v228h-523v388h562v232h-843z"/>
            <glyph unicode="&#x192;" horiz-adv-x="1154"
                   d="M1019 1201l45 199q-62 35 -165 35q-226 0 -346 -169q-78 -117 -104 -298l-8 -82h-203v-198h179l-40 -352q-20 -176 -59 -245q-25 -43 -71 -59t-87 -10.5t-75 21.5l-42 -197q68 -37 185 -37q193 0 288 116.5t122 354.5l50 408h254v198h-232l13 102q30 232 191 232 q57 0 105 -19z"/>
            <glyph unicode="&#x1a0;" horiz-adv-x="1502"
                   d="M1427 747q0 275 -140 473q113 -4 171 57.5t58 164.5q0 97 -49 205l-203 -36q43 -90 43 -152q0 -89 -87 -89q-24 0 -51 9q-59 20 -117 45q-24 11 -56 22q-112 41 -236 41q-317 0 -506 -228q-178 -211 -178 -538q0 -159 45.5 -295.5t129 -236.5t209 -156.5t278.5 -56.5 q331 0 515 223q174 214 174 548zM1127 736q0 -106 -23.5 -200.5t-68.5 -170t-118 -120t-165 -44.5q-75 0 -138 28.5t-107.5 78t-76 116.5t-46.5 143.5t-15 159.5q0 210 87 356q100 178 296 178q91 0 164 -44t118 -118.5t69 -167t24 -195.5z"/>
            <glyph unicode="&#x1a1;" horiz-adv-x="1226"
                   d="M617 1081q-253 0 -398 -157q-145 -149 -145 -402q0 -242 143 -394q93 -99 238.5 -135t292 1t242.5 138q145 160 145 406q0 184 -87 313q99 4 154 61t55 154q0 95 -45 189l-201 -35q18 -32 30 -68q8 -23 11 -46t1.5 -50.5t-21.5 -44.5t-57 -17q-42 0 -91 23q-47 22 -89 36 q-86 28 -178 28zM845 532q0 -92 -25 -169.5t-81 -130t-134 -52.5q-127 0 -191 118q-54 93 -54 230q0 95 26 172.5t83 127t136 49.5q78 0 134 -50t81 -126.5t25 -168.5z"/>
            <glyph unicode="&#x1a7;" horiz-adv-x="1117"
                   d="M87 421q0 -193 139 -313q95 -82 250.5 -112.5t306.5 -9.5t253 81l-59 235q-160 -91 -349 -91q-122 0 -188.5 50.5t-66.5 138.5q0 79 57 131t195 105q388 142 388 425q0 185 -143 304.5t-377 119.5q-205 0 -348 -72l66 -226q133 68 288 68q110 0 170 -47t60 -120 q0 -77 -64 -129q-57 -41 -207 -104q-371 -149 -371 -434z"/>
            <glyph unicode="&#x1a8;" horiz-adv-x="897"
                   d="M74 313q0 -154 110 -241q74 -60 194.5 -82t242 -4.5t206.5 66.5l-54 202q-125 -76 -267 -76q-160 0 -160 110q0 53 35 84.5t129 64.5q111 40 181 98t93 118.5t17.5 123.5t-35.5 116t-76 93q-113 95 -292 95q-168 0 -280 -60l54 -198q73 42 156 56.5t143.5 -10.5t60.5 -92 q0 -47 -39 -75q-40 -29 -139 -66q-276 -100 -280 -323z"/>
            <glyph unicode="&#x1af;" horiz-adv-x="1514"
                   d="M1280 625v684q135 15 195 64.5t60 157.5q0 91 -44 188l-199 -35q40 -70 40 -136q0 -46 -23.5 -65.5t-84.5 -19.5h-225v-858q0 -96 -24.5 -174.5t-65 -126.5t-91.5 -74t-105 -26t-105 26t-91.5 74t-65 126t-24.5 175v858h-280v-838q1 -649 555 -649q277 0 427.5 164.5 t150.5 484.5z"/>
            <glyph unicode="&#x1b0;" horiz-adv-x="1222"
                   d="M1083 321v601q93 0 154 58t61 153q0 88 -45 182l-200 -32q41 -77 41 -137q0 -87 -108 -87h-185v-640q-2 -48 -13 -81q-54 -131 -189 -131q-185 0 -185 275v577h-279v-622q0 -244 106 -356q93 -105 256 -105q224 0 330 178h6l14 -154h245q-9 200 -9 321z"/>
            <glyph unicode="&#x1b5;" horiz-adv-x="1206" d="M847 864l286 432v167h-1015v-234h653l-245 -365h-246v-209h107l-333 -499v-156h1090v234h-717l281 421h241v209h-102z"/>
            <glyph unicode="&#x1b6;" horiz-adv-x="969"
                   d="M710 621l204 265v173h-831v-226h490v-4q-100 -106 -154 -178l-24 -30h-246v-209h85l-191 -249v-163h883v224h-533v4q74 76 156 184h269v209h-108z"/>
            <glyph unicode="&#x1c0;" horiz-adv-x="572" d="M187 1463v-1463h202v1463h-202z"/>
            <glyph unicode="&#x1c1;" horiz-adv-x="915" d="M187 1463v-1463h202v1463h-202zM543 1463v-1463h201v1463h-201z"/>
            <glyph unicode="&#x1c2;" horiz-adv-x="833" d="M522 1107v356h-203v-356h-252v-175h252v-263h-252v-178h252v-491h203v491h253v178h-253v263h253v175h-253z"/>
            <glyph unicode="&#x1c3;" horiz-adv-x="549"
                   d="M167 458h215l41 1005h-297zM445 149q0 80 -47 129.5t-125 49.5q-74 0 -121.5 -50t-47.5 -129q0 -74 47 -123.5t120 -49.5q78 0 126 48.5t48 124.5z"/>
            <glyph unicode="&#x1c4;" horiz-adv-x="2664"
                   d="M2061 1700h-6l-114 193h-189l210 -321h192l210 321h-189zM1383 766q0 364 -231 549q-197 159 -583 159q-233 0 -420 -30v-1440q146 -19 355 -19q432 0 655.5 199t223.5 582zM1887 234l705 1062v167h-1016v-234h653l-716 -1073v-156h1090v234h-716zM1088 758 q0 -271 -136 -411t-388 -138q-100 0 -134 6v1026q70 14 167 14q237 0 364 -127.5t127 -369.5z"/>
            <glyph unicode="&#x1c5;" horiz-adv-x="2428"
                   d="M1945 1296h-4l-116 193h-188l211 -321h190l211 321h-188zM1383 766q0 364 -231 549q-197 159 -583 159q-233 0 -420 -30v-1440q146 -19 355 -19q432 0 655.5 199t223.5 582zM1088 758q0 -271 -136 -411t-388 -138q-100 0 -134 6v1026q70 14 167 14q237 0 364 -127.5 t127 -369.5zM1852 224v4q79 82 156 184l364 474v173h-831v-226h491v-4q-94 -102 -154 -178l-376 -488v-163h884v224h-534z"/>
            <glyph unicode="&#x1c6;" horiz-adv-x="2218"
                   d="M868 0h250q-8 142 -8 302v1237h-283v-588h-4q-78 130 -285 130q-190 0 -325 -147q-139 -154 -139 -416q0 -240 131 -392q60 -74 151.5 -113t183.5 -37.5t177.5 49t133.5 136.5h4zM1734 1296h-4l-115 193h-188l210 -321h190l211 321h-188zM1641 224v4q84 87 157 184 l364 474v173h-832v-226h491v-4q-94 -102 -154 -178l-375 -488v-163h883v224h-534zM827 619v-163q0 -106 -54 -176q-64 -79 -168 -79q-115 0 -181 90t-66 237q0 152 67 244t185 92q80 0 142 -52q54 -48 71 -128q4 -20 4 -65z"/>
            <glyph unicode="&#x1c7;" horiz-adv-x="1908"
                   d="M430 236v1227h-281v-1463h864v236h-583zM1491 1463v-941q0 -172 -62 -246q-35 -39 -96 -54t-119 -9.5t-120 23.5l-33 -225q93 -35 224 -35q486 0 486 538v949h-280z"/>
            <glyph unicode="&#x1c8;" horiz-adv-x="1649"
                   d="M1539 1374q0 69 -46.5 114t-116.5 45q-71 0 -117.5 -44.5t-46.5 -114.5q0 -69 45 -113.5t115 -44.5q73 0 120 43.5t47 114.5zM430 236v1227h-281v-1463h864v236h-583zM1235 1059v-870q0 -289 -67 -359q-59 -62 -195 -71l28 -221q126 0 219 30.5t160.5 97t101.5 178 t34 268.5v947h-281z"/>
            <glyph unicode="&#x1c9;" horiz-adv-x="1145"
                   d="M139 1539v-1539h280v1539h-280zM1036 1374q0 69 -47 114t-117 45q-71 0 -117.5 -44.5t-46.5 -114.5q0 -69 45 -113.5t115 -44.5q73 0 120.5 43.5t47.5 114.5zM731 1059v-870q0 -289 -66 -359q-61 -62 -196 -71l28 -221q126 0 219 30.5t160 97t101 178t34 268.5v947h-280z "/>
            <glyph unicode="&#x1ca;" horiz-adv-x="2295"
                   d="M1042 1463v-481q0 -297 24 -613l-5 -2q-106 256 -241 491l-351 605h-320v-1463h259v495q0 411 -15 630l7 2q88 -212 253 -506l356 -621h292v1463h-259zM1880 1463v-941q-2 -172 -63 -246q-35 -40 -95.5 -54.5t-118.5 -9t-120 23.5l-33 -225q93 -35 224 -35q486 0 486 538 v949h-280z"/>
            <glyph unicode="&#x1cb;" horiz-adv-x="2038"
                   d="M1928 1374q0 69 -46.5 114t-116.5 45q-72 0 -118.5 -44.5t-46.5 -114.5q0 -69 45.5 -113.5t115.5 -44.5q73 0 120 43.5t47 114.5zM1042 1463v-481q0 -297 24 -613l-5 -2q-106 256 -241 491l-351 605h-320v-1463h259v495q0 411 -15 630l7 2q88 -212 253 -506l356 -621h292 v1463h-259zM1624 1059v-870q-2 -290 -68 -359q-59 -62 -195 -71l29 -221q126 0 219 30.5t160 97t101 178t34 268.5v947h-280z"/>
            <glyph unicode="&#x1cc;" horiz-adv-x="1816"
                   d="M1707 1374q0 69 -47 114t-117 45q-72 0 -118.5 -45t-46.5 -114t45.5 -113.5t115.5 -44.5q73 0 120.5 43.5t47.5 114.5zM1094 0v632q0 229 -112 347q-104 102 -259 102q-224 0 -328 -176h-6l-14 154h-245q9 -148 9 -321v-738h280v621q0 96 58 163q58 69 148 69 q187 0 187 -254v-599h282zM1402 1059v-870q0 -289 -66 -359q-61 -62 -196 -71l28 -221q126 0 219 30.5t160 97t101 178t34 268.5v947h-280z"/>
            <glyph unicode="&#x1cd;" horiz-adv-x="1365"
                   d="M679 1700h-4l-115 193h-189l211 -321h191l211 321h-189zM497 1463l-456 -1463h291l115 402h443l123 -402h302l-460 1463h-358zM493 615l102 344q49 191 67 280h7l71 -280l107 -344h-354z"/>
            <glyph unicode="&#x1ce;" horiz-adv-x="1098"
                   d="M526 1318h-4l-116 192h-189l210 -321h192l210 321h-189zM727 0h252q-15 76 -15 254v380q2 447 -438 447q-234 0 -385 -93l54 -180q127 76 281 76q206 0 206 -172v-18q-294 0 -454.5 -103t-160.5 -298q0 -133 85 -219q47 -49 119.5 -74.5t149.5 -23.5t153.5 37.5 t127.5 102.5h6zM690 514v-141q0 -37 -6 -58q-19 -59 -73 -99t-122 -40q-146 0 -146 147q-1 97 86 144.5t261 46.5z"/>
            <glyph unicode="&#x1cf;" horiz-adv-x="578" d="M290 1700h-4l-114 193h-189l210 -321h191l211 321h-189zM149 1463v-1463h281v1463h-281z"/>
            <glyph unicode="&#x1d0;" horiz-adv-x="557" d="M280 1296h-4l-115 193h-190l211 -321h191l211 321h-189zM139 1059v-1059h280v1059h-280z"/>
            <glyph unicode="&#x1d1;" horiz-adv-x="1502"
                   d="M754 1724h-5l-115 192h-189l210 -321h192l210 321h-189zM1427 747q0 158 -46 294t-130.5 235t-211 155t-279.5 56q-155 0 -284.5 -59t-216.5 -161.5t-135 -243t-48 -302.5q0 -159 45.5 -295.5t129 -236.5t209 -156.5t278.5 -56.5q331 0 515 223q174 214 174 548z M1127 736q0 -106 -23.5 -200.5t-68.5 -170t-118 -120t-165 -44.5q-75 0 -138 28.5t-107.5 78t-76 116.5t-46.5 143.5t-15 159.5q0 210 87 356q100 178 296 178q91 0 164 -44t118 -118.5t69 -167t24 -195.5z"/>
            <glyph unicode="&#x1d2;" horiz-adv-x="1208"
                   d="M605 1318h-4l-114 192h-189l210 -321h191l210 321h-188zM1135 538q0 238 -141 392q-91 98 -237 134t-294.5 -1.5t-243.5 -138.5q-145 -149 -145 -402q0 -242 143 -394q93 -99 238.5 -135t292 1t242.5 138q145 160 145 406zM845 532q0 -92 -25 -169.5t-81 -130t-134 -52.5 q-127 0 -191 118q-54 93 -54 230q0 139 54 232q64 117 191 117q78 0 134 -50t81 -126.5t25 -168.5z"/>
            <glyph unicode="&#x1d3;" horiz-adv-x="1427"
                   d="M717 1700h-5l-115 193h-189l211 -321h191l211 321h-190zM999 1463v-858q0 -96 -24.5 -174.5t-65 -126.5t-91.5 -74t-105 -26t-105 26t-91.5 74t-65 126t-24.5 175v858h-280v-838q1 -649 555 -649q277 0 427.5 164.5t150.5 484.5v838h-281z"/>
            <glyph unicode="&#x1d4;" horiz-adv-x="1222"
                   d="M615 1296h-5l-115 193h-189l210 -321h192l210 321h-189zM847 0h245q-9 200 -9 321v738h-282v-640q-2 -48 -13 -81q-54 -131 -189 -131q-185 0 -185 275v577h-279v-622q0 -241 106 -356q93 -105 256 -105q224 0 330 178h6z"/>
            <glyph unicode="&#x1d5;" horiz-adv-x="1427"
                   d="M456 2097v-150h519v150h-519zM636 1707q0 56 -37 94t-91 38q-59 0 -98 -38t-39 -94q0 -57 39 -96t94 -39q57 0 94.5 38t37.5 97zM1059 1707q0 57 -36.5 94.5t-92.5 37.5q-58 0 -95.5 -37.5t-37.5 -94.5q0 -58 36.5 -96.5t92.5 -38.5q58 0 95.5 38t37.5 97zM999 1463v-858 q0 -96 -24.5 -174.5t-65 -126.5t-91.5 -74t-105 -26t-105 26t-91.5 74t-65 126t-24.5 175v858h-280v-838q1 -649 555 -649q277 0 427.5 164.5t150.5 484.5v838h-281z"/>
            <glyph unicode="&#x1d6;" horiz-adv-x="1222"
                   d="M354 1693v-150h518v150h-518zM534 1303q0 56 -37 94t-91 38q-58 0 -97.5 -38t-39.5 -94t39.5 -95.5t93.5 -39.5q57 0 94.5 38t37.5 97zM957 1303q0 56 -37 94t-93 38t-94.5 -38t-38.5 -94q0 -57 37.5 -96t93.5 -39q57 0 94.5 38t37.5 97zM847 0h245q-9 200 -9 321v738 h-282v-640q-2 -48 -13 -81q-54 -131 -189 -131q-185 0 -185 275v577h-279v-622q0 -241 106 -356q93 -105 256 -105q224 0 330 178h6z"/>
            <glyph unicode="&#x1d7;" horiz-adv-x="1427"
                   d="M605 1947h192l262 321h-269zM636 1707q0 56 -37 94t-91 38q-59 0 -98 -38t-39 -94q0 -57 39 -96t94 -39q57 0 94.5 38t37.5 97zM1059 1707q0 57 -36.5 94.5t-92.5 37.5q-58 0 -95.5 -37.5t-37.5 -94.5q0 -58 36.5 -96.5t92.5 -38.5q58 0 95.5 38t37.5 97zM999 1463v-858 q0 -96 -24.5 -174.5t-65 -126.5t-91.5 -74t-105 -26t-105 26t-91.5 74t-65 126t-24.5 175v858h-280v-838q1 -649 555 -649q277 0 427.5 164.5t150.5 484.5v838h-281z"/>
            <glyph unicode="&#x1d8;" horiz-adv-x="1222"
                   d="M512 1543h192l262 322h-270zM534 1303q0 56 -37 94t-91 38q-58 0 -97.5 -38t-39.5 -94t39.5 -95.5t93.5 -39.5q57 0 94.5 38t37.5 97zM957 1303q0 56 -37 94t-93 38t-94.5 -38t-38.5 -94q0 -57 37.5 -96t93.5 -39q57 0 94.5 38t37.5 97zM847 0h245q-9 200 -9 321v738 h-282v-640q-2 -48 -13 -81q-54 -131 -189 -131q-185 0 -185 275v577h-279v-622q0 -241 106 -356q93 -105 256 -105q224 0 330 178h6z"/>
            <glyph unicode="&#x1d9;" horiz-adv-x="1427"
                   d="M717 2075h-5l-115 193h-189l211 -321h191l211 321h-190zM636 1707q0 56 -37 94t-91 38q-59 0 -98 -38t-39 -94q0 -57 39 -96t94 -39q57 0 94.5 38t37.5 97zM1059 1707q0 57 -36.5 94.5t-92.5 37.5q-58 0 -95.5 -37.5t-37.5 -94.5q0 -58 36.5 -96.5t92.5 -38.5 q58 0 95.5 38t37.5 97zM999 1463v-858q0 -96 -24.5 -174.5t-65 -126.5t-91.5 -74t-105 -26t-105 26t-91.5 74t-65 126t-24.5 175v858h-280v-838q1 -649 555 -649q277 0 427.5 164.5t150.5 484.5v838h-281z"/>
            <glyph unicode="&#x1da;" horiz-adv-x="1222"
                   d="M615 1672h-5l-115 193h-189l210 -322h192l210 322h-189zM534 1303q0 56 -37 94t-91 38q-58 0 -97.5 -38t-39.5 -94t39.5 -95.5t93.5 -39.5q57 0 94.5 38t37.5 97zM957 1303q0 56 -37 94t-93 38t-94.5 -38t-38.5 -94q0 -57 37.5 -96t93.5 -39q57 0 94.5 38t37.5 97zM847 0 h245q-9 200 -9 321v738h-282v-640q-2 -48 -13 -81q-54 -131 -189 -131q-185 0 -185 275v577h-279v-622q0 -241 106 -356q93 -105 256 -105q224 0 330 178h6z"/>
            <glyph unicode="&#x1db;" horiz-adv-x="1427"
                   d="M404 2268l263 -321h191l-185 321h-269zM636 1707q0 56 -37 94t-91 38q-59 0 -98 -38t-39 -94q0 -57 39 -96t94 -39q57 0 94.5 38t37.5 97zM1059 1707q0 57 -36.5 94.5t-92.5 37.5q-58 0 -95.5 -37.5t-37.5 -94.5q0 -58 36.5 -96.5t92.5 -38.5q58 0 95.5 38t37.5 97z M999 1463v-858q0 -96 -24.5 -174.5t-65 -126.5t-91.5 -74t-105 -26t-105 26t-91.5 74t-65 126t-24.5 175v858h-280v-838q1 -649 555 -649q277 0 427.5 164.5t150.5 484.5v838h-281z"/>
            <glyph unicode="&#x1dc;" horiz-adv-x="1222"
                   d="M293 1865l262 -322h192l-185 322h-269zM534 1303q0 56 -37 94t-91 38q-58 0 -97.5 -38t-39.5 -94t39.5 -95.5t93.5 -39.5q57 0 94.5 38t37.5 97zM957 1303q0 56 -37 94t-93 38t-94.5 -38t-38.5 -94q0 -57 37.5 -96t93.5 -39q57 0 94.5 38t37.5 97zM847 0h245 q-9 200 -9 321v738h-282v-640q-2 -48 -13 -81q-54 -131 -189 -131q-185 0 -185 275v577h-279v-622q0 -241 106 -356q93 -105 256 -105q224 0 330 178h6z"/>
            <glyph unicode="&#x1dd;" horiz-adv-x="1108"
                   d="M74 495q0 -107 28 -198.5t82.5 -162.5t142 -112t199.5 -41q117 0 215 44.5t162.5 121.5t100.5 180t36 220q0 248 -144 392t-399 144q-212 0 -367 -64l42 -194q129 47 284 47q129 0 217 -62q90 -68 98 -195h-688q-9 -43 -9 -120zM336 419h435q-12 -105 -71 -176t-157 -71 q-104 0 -155.5 71.5t-51.5 175.5z"/>
            <glyph unicode="&#x1de;" horiz-adv-x="1365"
                   d="M419 2097v-150h519v150h-519zM599 1707q0 56 -37 94t-91 38q-59 0 -98 -38t-39 -94q0 -57 38.5 -96t93.5 -39q58 0 95.5 38t37.5 97zM1023 1707q0 56 -37 94t-93 38q-57 0 -95 -37.5t-38 -94.5q0 -58 37 -96.5t93 -38.5q57 0 95 38t38 97zM497 1463l-456 -1463h291 l115 402h443l123 -402h302l-460 1463h-358zM493 615l102 344q49 191 67 280h7l71 -280l107 -344h-354z"/>
            <glyph unicode="&#x1df;" horiz-adv-x="1098"
                   d="M265 1715v-149h518v149h-518zM445 1324q0 56 -37 94t-91 38q-58 0 -97.5 -38t-39.5 -94t39.5 -95.5t93.5 -39.5q56 0 94 38.5t38 96.5zM868 1324q0 56 -37 94t-93 38t-94.5 -38t-38.5 -94q0 -57 37.5 -96t93.5 -39q57 0 94.5 38.5t37.5 96.5zM727 0h252q-15 76 -15 254 v380q2 447 -438 447q-234 0 -385 -93l54 -180q127 76 281 76q206 0 206 -172v-18q-294 0 -454.5 -103t-160.5 -298q0 -133 85 -219q47 -49 119.5 -74.5t149.5 -23.5t153.5 37.5t127.5 102.5h6zM690 514v-141q0 -37 -6 -58q-19 -59 -73 -99t-122 -40q-146 0 -146 147 q-1 97 86 144.5t261 46.5z"/>
            <glyph unicode="&#x1e0;" horiz-adv-x="1365"
                   d="M419 2097v-150h519v150h-519zM810 1707q0 57 -36 94.5t-92 37.5q-57 0 -96 -38t-39 -94q0 -58 38 -96.5t94 -38.5q57 0 94 39t37 96zM497 1463l-456 -1463h291l115 402h443l123 -402h302l-460 1463h-358zM493 615l102 344q49 191 67 280h7l71 -280l107 -344h-354z"/>
            <glyph unicode="&#x1e1;" horiz-adv-x="1098"
                   d="M265 1715v-149h518v149h-518zM655 1324q0 57 -35.5 94.5t-91.5 37.5q-57 0 -96 -38t-39 -94t38.5 -95.5t94.5 -39.5t92.5 39t36.5 96zM727 0h252q-15 76 -15 254v380q2 447 -438 447q-234 0 -385 -93l54 -180q127 76 281 76q206 0 206 -172v-18q-294 0 -454.5 -103 t-160.5 -298q0 -133 85 -219q47 -49 119.5 -74.5t149.5 -23.5t153.5 37.5t127.5 102.5h6zM690 514v-141q0 -37 -6 -58q-19 -59 -73 -99t-122 -40q-146 0 -146 147q-1 97 86 144.5t261 46.5z"/>
            <glyph unicode="&#x1e2;" horiz-adv-x="1788"
                   d="M605 1721v-149h520v149h-520zM1140 636h503v230h-538l-41 365h593v232h-1029l-626 -1463h288l181 439h424l54 -439h777v232h-535zM553 662l153 376q25 64 48 130q29 82 34 96h7l25 -224l44 -378h-311z"/>
            <glyph unicode="&#x1e3;" horiz-adv-x="1694"
                   d="M588 1342v-151h519v151h-519zM1626 576q0 101 -27 191t-78.5 161.5t-134 113t-185.5 41.5q-233 0 -358 -186h-8q-89 186 -340 186q-187 0 -354 -95l58 -182q77 52 167.5 70.5t165 2t112.5 -60.5q42 -40 42 -97v-35q-289 0 -453 -97q-79 -47 -121.5 -118t-44.5 -143.5 t22.5 -140.5t71.5 -115q37 -38 97.5 -63t134.5 -30t148 10.5t144.5 65t117.5 127.5h7q49 -97 158 -150q73 -36 175.5 -48.5t219.5 4.5t211 66l-41 191q-138 -56 -284 -56q-138 0 -219 73t-81 202h671q6 74 6 112zM1365 658h-418q4 83 54 154q63 83 167 83q50 0 89.5 -21 t62 -54.5t34 -71.5t11.5 -77v-13zM692 510v-131q0 -84 -57.5 -141.5t-143.5 -57.5q-66 0 -108 38t-42 103q0 97 86.5 143t264.5 46z"/>
            <glyph unicode="&#x1e4;" horiz-adv-x="1599"
                   d="M1309 506v308h-514v-221h241v-87h-241v-208h241v-60q-60 -23 -183 -23q-221 0 -349 137q-133 142 -133 379q0 246 143 383q65 62 158.5 95t188 35t183.5 -14t159 -47l61 228q-73 36 -188 54.5t-249.5 13.5t-277 -56.5t-247.5 -146.5q-226 -211 -226 -559 q-3 -342 204 -539q96 -92 230.5 -141t275.5 -53t273.5 17t249.5 64v233h241v208h-241z"/>
            <glyph unicode="&#x1e5;" horiz-adv-x="1323"
                   d="M1276 8h-193q9 57 9 144v597q0 171 8 310h-245l-10 -137h-4q-92 159 -296 159q-193 0 -328 -147q-143 -161 -143 -410q-1 -227 123 -372.5t317 -145.5q199 0 296 148h4v-82q0 -37 -4 -64h-203v-207h83q-67 -37 -164 -37q-169 0 -302 80l-59 -215q139 -81 363 -81 q262 0 408 129q52 45 91 124h249v207zM812 636v-176q0 -55 -13 -93q-47 -150 -200 -150q-109 0 -175 88t-66 227q0 154 67.5 244t175.5 90q96 0 153.5 -65t57.5 -165z"/>
            <glyph unicode="&#x1e6;" horiz-adv-x="1423"
                   d="M905 1715h-4l-116 193h-188l211 -321h191l210 321h-188zM795 814v-221h241v-355q-60 -23 -183 -23q-221 0 -349 137q-133 142 -133 379q0 246 143 383q65 62 158.5 95t188 35t183.5 -14t159 -47l61 228q-73 36 -188 54.5t-249.5 13.5t-277 -56.5t-247.5 -146.5 q-226 -211 -226 -559q-3 -342 204 -539q96 -92 230.5 -141t275.5 -53t273.5 17t249.5 64v749h-514z"/>
            <glyph unicode="&#x1e7;" horiz-adv-x="1228"
                   d="M549 1318h-4l-115 192h-189l211 -321h190l211 321h-188zM845 922h-4q-92 159 -296 159q-193 0 -328 -147q-143 -161 -143 -410q-1 -227 123 -372.5t317 -145.5q199 0 296 148h4v-82q0 -308 -288 -308q-169 0 -302 80l-59 -215q139 -81 363 -81q262 0 408 129 q156 137 156 475v597q0 171 8 310h-245zM812 636v-176q0 -55 -13 -93q-47 -150 -200 -150q-109 0 -175 88t-66 227q0 154 67.5 244t175.5 90q96 0 153.5 -65t57.5 -165z"/>
            <glyph unicode="&#x1e8;" horiz-adv-x="1258"
                   d="M547 1700h-4l-116 193h-189l211 -321h191l211 321h-189zM1241 1463h-344l-359 -506q-67 -103 -103 -160h-8v666h-278v-1463h278v506l126 152l391 -658h326l-516 841z"/>
            <glyph unicode="&#x1e9;" horiz-adv-x="1106"
                   d="M464 1776h-4l-114 193h-190l211 -322h191l210 322h-188zM1079 1059h-335l-240 -336q-7 -12 -38 -58q-23 -32 -43 -68h-4v942h-280v-1539h280v354l87 104l284 -458h343l-434 625z"/>
            <glyph unicode="&#x1ea;" horiz-adv-x="1502"
                   d="M760 1487q153 0 279.5 -56t211 -155t130.5 -235t46 -294q0 -333 -174 -548q-158 -192 -428 -219q-83 -43 -139 -107.5t-56 -117.5q0 -87 89 -87q57 0 104 21l22 -106q-78 -37 -174 -37q-92 0 -145 46t-53 128q0 75 62.5 148t140.5 110q-278 23 -439.5 229t-160.5 514 q0 162 48 302.5t135 243t216.5 161.5t284.5 59zM752 201q92 0 165 44.5t118 120t68.5 170t23.5 200.5q0 103 -24 195.5t-69 167t-118 118.5t-164 44q-196 0 -296 -178q-87 -146 -87 -356q0 -83 15 -159.5t46.5 -143.5t76 -116.5t107.5 -78t138 -28.5z"/>
            <glyph unicode="&#x1eb;" horiz-adv-x="1208"
                   d="M994 930q141 -155 141 -392q0 -246 -145 -406q-123 -129 -320 -152q-84 -43 -140.5 -107.5t-56.5 -117.5q0 -87 89 -87q58 0 105 21l21 -106q-77 -37 -174 -37q-92 0 -144.5 45.5t-52.5 128.5q0 76 64 149.5t144 111.5q-191 23 -308 147q-143 152 -143 394q0 253 145 402 q95 101 243.5 138.5t294.5 1.5t237 -134zM605 180q78 0 134 52.5t81 130t25 169.5t-25 168.5t-81 126.5t-134 50q-127 0 -191 -117q-54 -93 -54 -232q0 -137 54 -230q64 -118 191 -118z"/>
            <glyph unicode="&#x1ec;" horiz-adv-x="1502"
                   d="M1011 1595h-518v151h518v-151zM760 1487q153 0 279.5 -56t211 -155t130.5 -235t46 -294q0 -333 -174 -548q-170 -205 -460 -221q-82 -44 -137 -107.5t-55 -115.5q0 -87 89 -87q58 0 105 21l21 -106q-77 -37 -174 -37q-92 0 -144.5 45.5t-52.5 128.5q0 76 64 149.5 t144 111.5q-179 20 -310.5 121.5t-199.5 261t-67 357.5q0 162 48 302.5t135 243t216.5 161.5t284.5 59zM752 201q92 0 165 44.5t118 120t68.5 170t23.5 200.5q0 103 -24 195.5t-69 167t-118 118.5t-164 44q-196 0 -296 -178q-87 -146 -87 -356q0 -83 15 -159.5t46.5 -143.5 t76 -116.5t107.5 -78t138 -28.5z"/>
            <glyph unicode="&#x1ed;" horiz-adv-x="1208"
                   d="M864 1189h-518v151h518v-151zM994 930q141 -155 141 -392q0 -246 -145 -406q-128 -135 -336 -153q-82 -44 -138 -108t-56 -116q0 -87 89 -87q57 0 104 21l22 -106q-77 -37 -174 -37q-92 0 -144.5 45.5t-52.5 128.5t75 164q63 66 135 98q-184 26 -297 146 q-143 152 -143 394q0 253 145 402q95 101 243.5 138.5t294.5 1.5t237 -134zM605 180q78 0 134 52.5t81 130t25 169.5t-25 168.5t-81 126.5t-134 50q-127 0 -191 -117q-54 -93 -54 -232q0 -137 54 -230q64 -118 191 -118z"/>
            <glyph unicode="&#x1f0;" horiz-adv-x="588"
                   d="M315 1296h-4l-116 193h-189l211 -321h191l211 321h-189zM174 1059v-870q-2 -290 -68 -359q-59 -62 -195 -71l29 -221q125 0 218 30.5t160.5 97t101.5 178t34 268.5v947h-280z"/>
            <glyph unicode="&#x1f1;" horiz-adv-x="2664"
                   d="M1383 766q0 364 -231 549q-197 159 -583 159q-233 0 -420 -30v-1440q146 -19 355 -19q432 0 655.5 199t223.5 582zM1887 234l705 1062v167h-1016v-234h653l-716 -1073v-156h1090v234h-716zM1088 758q0 -271 -136 -411t-388 -138q-100 0 -134 6v1026q70 14 167 14 q237 0 364 -127.5t127 -369.5z"/>
            <glyph unicode="&#x1f2;" horiz-adv-x="2428"
                   d="M1383 766q0 364 -231 549q-197 159 -583 159q-233 0 -420 -30v-1440q146 -19 355 -19q432 0 655.5 199t223.5 582zM1088 758q0 -271 -136 -411t-388 -138q-100 0 -134 6v1026q70 14 167 14q237 0 364 -127.5t127 -369.5zM1852 224v4q79 82 156 184l364 474v173h-831v-226 h491v-4q-94 -102 -154 -178l-376 -488v-163h884v224h-534z"/>
            <glyph unicode="&#x1f3;" horiz-adv-x="2218"
                   d="M868 0h250q-8 142 -8 302v1237h-283v-588h-4q-78 130 -285 130q-190 0 -325 -147q-139 -154 -139 -416q0 -240 131 -392q60 -74 151.5 -113t183.5 -37.5t177.5 49t133.5 136.5h4zM1641 224v4q84 87 157 184l364 474v173h-832v-226h491v-4q-94 -102 -154 -178l-375 -488 v-163h883v224h-534zM827 619v-163q0 -106 -54 -176q-64 -79 -168 -79q-115 0 -181 90t-66 237q0 152 67 244t185 92q80 0 142 -52q54 -48 71 -128q4 -20 4 -65z"/>
            <glyph unicode="&#x1f4;" horiz-adv-x="1423"
                   d="M756 1587h191l262 321h-269zM795 814v-221h241v-355q-60 -23 -183 -23q-221 0 -349 137q-133 142 -133 379q0 246 143 383q65 62 158.5 95t188 35t183.5 -14t159 -47l61 228q-73 36 -188 54.5t-249.5 13.5t-277 -56.5t-247.5 -146.5q-226 -211 -226 -559 q-3 -342 204 -539q96 -92 230.5 -141t275.5 -53t273.5 17t249.5 64v749h-514z"/>
            <glyph unicode="&#x1f5;" horiz-adv-x="1228"
                   d="M454 1189h190l263 321h-269zM845 922h-4q-92 159 -296 159q-193 0 -328 -147q-143 -161 -143 -410q-1 -227 123 -372.5t317 -145.5q199 0 296 148h4v-82q0 -308 -288 -308q-169 0 -302 80l-59 -215q139 -81 363 -81q262 0 408 129q156 137 156 475v597q0 171 8 310h-245z M812 636v-176q0 -55 -13 -93q-47 -150 -200 -150q-109 0 -175 88t-66 227q0 154 67.5 244t175.5 90q96 0 153.5 -65t57.5 -165z"/>
            <glyph unicode="&#x1f8;" horiz-adv-x="1450"
                   d="M427 1893l263 -321h191l-185 321h-269zM1042 1463v-481q0 -297 24 -613l-5 -2q-106 256 -241 491l-351 605h-320v-1463h259v495q0 411 -15 630l7 2q88 -212 253 -506l356 -621h292v1463h-259z"/>
            <glyph unicode="&#x1f9;" horiz-adv-x="1228"
                   d="M300 1510l262 -321h192l-185 321h-269zM1094 0v632q0 229 -112 347q-104 102 -259 102q-224 0 -328 -176h-6l-14 154h-245q9 -148 9 -321v-738h280v621q0 96 58 163q58 69 148 69q187 0 187 -254v-599h282z"/>
            <glyph unicode="&#x1fa;" horiz-adv-x="1365"
                   d="M545 2104h191l263 321h-270zM890 1782q0 91 -61 152t-152 61q-86 0 -148 -62q-63 -61 -63 -151q0 -87 63 -148q60 -62 148 -62q90 0 152 62q61 61 61 148zM773 1782q0 -37 -28.5 -65t-67.5 -28q-37 0 -65 28t-28 65q0 39 28 67.5t65 28.5q40 0 68 -28.5t28 -67.5z M497 1463l-456 -1463h291l115 402h443l123 -402h302l-460 1463h-358zM493 615l102 344q49 191 67 280h7l71 -280l107 -344h-354z"/>
            <glyph unicode="&#x1fb;" horiz-adv-x="1098"
                   d="M414 1721h191l263 322h-269zM736 1400q0 91 -60.5 152t-151.5 61q-87 0 -149 -62t-62 -151q0 -87 62 -149t149 -62q86 0 150 62q62 60 62 149zM619 1400q0 -37 -28 -65t-67 -28q-37 0 -65.5 28t-28.5 65q0 39 28.5 67.5t65.5 28.5q38 0 66.5 -28.5t28.5 -67.5zM727 0h252 q-15 76 -15 254v380q2 447 -438 447q-234 0 -385 -93l54 -180q127 76 281 76q206 0 206 -172v-18q-294 0 -454.5 -103t-160.5 -298q0 -133 85 -219q47 -49 119.5 -74.5t149.5 -23.5t153.5 37.5t127.5 102.5h6zM690 514v-141q0 -37 -6 -58q-19 -59 -73 -99t-122 -40 q-146 0 -146 147q-1 97 86 144.5t261 46.5z"/>
            <glyph unicode="&#x1fc;" horiz-adv-x="1788"
                   d="M719 1572h190l263 321h-269zM1140 636h503v230h-538l-41 365h593v232h-1029l-626 -1463h288l181 439h424l54 -439h777v232h-535zM553 662l153 376q25 64 48 130q29 82 34 96h7l25 -224l44 -378h-311z"/>
            <glyph unicode="&#x1fd;" horiz-adv-x="1694"
                   d="M731 1191h191l263 322h-269zM1626 576q0 101 -27 191t-78.5 161.5t-134 113t-185.5 41.5q-233 0 -358 -186h-8q-89 186 -340 186q-187 0 -354 -95l58 -182q77 52 167.5 70.5t165 2t112.5 -60.5q42 -40 42 -97v-35q-289 0 -453 -97q-79 -47 -121.5 -118t-44.5 -143.5 t22.5 -140.5t71.5 -115q37 -38 97.5 -63t134.5 -30t148 10.5t144.5 65t117.5 127.5h7q49 -97 158 -150q73 -36 175.5 -48.5t219.5 4.5t211 66l-41 191q-138 -56 -284 -56q-138 0 -219 73t-81 202h671q6 74 6 112zM1365 658h-418q4 83 54 154q63 83 167 83q50 0 89.5 -21 t62 -54.5t34 -71.5t11.5 -77v-13zM692 510v-131q0 -84 -57.5 -141.5t-143.5 -57.5q-66 0 -108 38t-42 103q0 97 86.5 143t264.5 46z"/>
            <glyph unicode="&#x1fe;" horiz-adv-x="1502"
                   d="M634 1682h191l263 321h-270zM1427 742q0 332 -188 538l124 187l-160 107l-120 -174q-139 87 -327 87q-197 0 -352.5 -97.5t-241.5 -270t-86 -390.5q0 -337 193 -549l-124 -186l153 -120l129 189q139 -87 327 -87q145 0 268.5 53.5t213 150.5t140.5 241.5t51 320.5z M432 427l-5 -2q-69 153 -69 309q0 153 46.5 272.5t137 189.5t212.5 70q110 0 199 -72zM1144 736q0 -238 -104 -384q-108 -155 -288 -155q-116 0 -194 72l517 758h6q63 -139 63 -291z"/>
            <glyph unicode="&#x1ff;" horiz-adv-x="1208"
                   d="M512 1270h192l262 321h-270zM1135 534q0 261 -167 410l96 144l-107 74l-95 -141q-106 60 -255 60h-2q-233 0 -381 -151q-99 -99 -135 -254t5 -312t153 -254l-93 -139l100 -77l100 143q106 -61 251 -61q214 0 363 134q167 155 167 424zM402 328l-7 2q-47 80 -47 198 q0 149 66 249t191 100q83 0 137 -48zM866 526q0 -154 -71 -250t-190 -96q-81 0 -129 48l340 493l4 -2q46 -82 46 -193z"/>
            <glyph unicode="&#x200;" horiz-adv-x="1365"
                   d="M534 1572h158l-149 311h-230zM884 1572h158l-149 311h-231zM497 1463l-456 -1463h291l115 402h443l123 -402h302l-460 1463h-358zM493 615l102 344q49 191 67 280h7l71 -280l107 -344h-354z"/>
            <glyph unicode="&#x201;" horiz-adv-x="1098"
                   d="M379 1189h159l-149 311h-230zM729 1189h159l-150 311h-230zM727 0h252q-15 76 -15 254v380q2 447 -438 447q-234 0 -385 -93l54 -180q127 76 281 76q206 0 206 -172v-18q-294 0 -454.5 -103t-160.5 -298q0 -133 85 -219q47 -49 119.5 -74.5t149.5 -23.5t153.5 37.5 t127.5 102.5h6zM690 514v-141q0 -37 -6 -58q-19 -59 -73 -99t-122 -40q-146 0 -146 147q-1 97 86 144.5t261 46.5z"/>
            <glyph unicode="&#x202;" horiz-adv-x="1365"
                   d="M406 1572h139q11 135 134 135q115 0 131 -135h139q0 112 -63 189q-72 80 -207 80q-130 0 -201.5 -72t-71.5 -197zM497 1463l-456 -1463h291l115 402h443l123 -402h302l-460 1463h-358zM493 615l102 344q49 191 67 280h7l71 -280l107 -344h-354z"/>
            <glyph unicode="&#x203;" horiz-adv-x="1098"
                   d="M252 1189h139q11 135 135 135q112 0 129 -135h140q-2 113 -64 189q-71 81 -205 81q-131 0 -202.5 -72.5t-71.5 -197.5zM727 0h252q-15 76 -15 254v380q2 447 -438 447q-234 0 -385 -93l54 -180q127 76 281 76q206 0 206 -172v-18q-294 0 -454.5 -103t-160.5 -298 q0 -133 85 -219q47 -49 119.5 -74.5t149.5 -23.5t153.5 37.5t127.5 102.5h6zM690 514v-141q0 -37 -6 -58q-19 -59 -73 -99t-122 -40q-146 0 -146 147q-1 97 86 144.5t261 46.5z"/>
            <glyph unicode="&#x204;" horiz-adv-x="1108" d="M445 1572h158l-149 311h-230zM795 1572h158l-150 311h-230zM430 232v410h536v230h-536v359h566v232h-847v-1463h880v232h-599z"/>
            <glyph unicode="&#x205;" horiz-adv-x="1108"
                   d="M412 1191h159l-150 311h-230zM762 1191h158l-149 311h-230zM1040 569q0 107 -28 198.5t-82.5 162.5t-142 112t-199.5 41q-117 0 -215 -45t-162.5 -122.5t-100.5 -180.5t-36 -219q0 -247 144 -391t399 -144q210 0 367 65l-42 192q-129 -47 -284 -47q-135 1 -221.5 67.5 t-93.5 190.5h688q9 43 9 120zM777 644h-434q12 106 70.5 177.5t157.5 71.5q53 0 94 -21t65 -57t35.5 -79t11.5 -92z"/>
            <glyph unicode="&#x206;" horiz-adv-x="1108"
                   d="M317 1572h139q10 135 134 135q114 0 131 -135h139q0 112 -63 189q-72 80 -207 80q-130 0 -201.5 -72t-71.5 -197zM430 232v410h536v230h-536v359h566v232h-847v-1463h880v232h-599z"/>
            <glyph unicode="&#x207;" horiz-adv-x="1108"
                   d="M284 1191h139q11 135 135 135q114 0 130 -135h139q0 114 -63 190q-72 80 -206 80q-131 0 -202.5 -72.5t-71.5 -197.5zM1040 569q0 107 -28 198.5t-82.5 162.5t-142 112t-199.5 41q-117 0 -215 -45t-162.5 -122.5t-100.5 -180.5t-36 -219q0 -247 144 -391t399 -144 q210 0 367 65l-42 192q-129 -47 -284 -47q-135 1 -221.5 67.5t-93.5 190.5h688q9 43 9 120zM777 644h-434q12 106 70.5 177.5t157.5 71.5q53 0 94 -21t65 -57t35.5 -79t11.5 -92z"/>
            <glyph unicode="&#x208;" horiz-adv-x="578" d="M145 1572h159l-150 311h-230zM495 1572h158l-149 311h-231zM149 1463v-1463h281v1463h-281z"/>
            <glyph unicode="&#x209;" horiz-adv-x="557" d="M135 1168h158l-150 311h-230zM484 1168h158l-149 311h-230zM139 1059v-1059h280v1059h-280z"/>
            <glyph unicode="&#x20a;" horiz-adv-x="578"
                   d="M17 1572h139q11 135 134 135q114 0 131 -135h139q0 112 -63 189q-72 80 -207 80q-130 0 -201.5 -72t-71.5 -197zM149 1463v-1463h281v1463h-281z"/>
            <glyph unicode="&#x20b;" horiz-adv-x="557"
                   d="M6 1168h139q11 135 135 135q114 0 130 -135h139q0 112 -62 189q-74 80 -207 80q-131 0 -202.5 -72t-71.5 -197zM139 1059v-1059h280v1059h-280z"/>
            <glyph unicode="&#x20c;" horiz-adv-x="1502"
                   d="M607 1595h159l-149 311h-230zM957 1595h159l-150 311h-230zM1427 747q0 158 -46 294t-130.5 235t-211 155t-279.5 56q-155 0 -284.5 -59t-216.5 -161.5t-135 -243t-48 -302.5q0 -159 45.5 -295.5t129 -236.5t209 -156.5t278.5 -56.5q331 0 515 223q174 214 174 548z M1127 736q0 -106 -23.5 -200.5t-68.5 -170t-118 -120t-165 -44.5q-75 0 -138 28.5t-107.5 78t-76 116.5t-46.5 143.5t-15 159.5q0 210 87 356q100 178 296 178q91 0 164 -44t118 -118.5t69 -167t24 -195.5z"/>
            <glyph unicode="&#x20d;" horiz-adv-x="1208"
                   d="M460 1189h159l-150 311h-231zM810 1189h158l-150 311h-230zM1135 538q0 238 -141 392q-91 98 -237 134t-294.5 -1.5t-243.5 -138.5q-145 -149 -145 -402q0 -242 143 -394q93 -99 238.5 -135t292 1t242.5 138q145 160 145 406zM845 532q0 -92 -25 -169.5t-81 -130 t-134 -52.5q-127 0 -191 118q-54 93 -54 230q0 139 54 232q64 117 191 117q78 0 134 -50t81 -126.5t25 -168.5z"/>
            <glyph unicode="&#x20e;" horiz-adv-x="1502"
                   d="M480 1595h139q11 135 135 135q114 0 130 -135h139q-2 113 -64 189q-71 81 -205 81q-131 0 -202.5 -72.5t-71.5 -197.5zM1427 747q0 158 -46 294t-130.5 235t-211 155t-279.5 56q-155 0 -284.5 -59t-216.5 -161.5t-135 -243t-48 -302.5q0 -159 45.5 -295.5t129 -236.5 t209 -156.5t278.5 -56.5q331 0 515 223q174 214 174 548zM1127 736q0 -106 -23.5 -200.5t-68.5 -170t-118 -120t-165 -44.5q-75 0 -138 28.5t-107.5 78t-76 116.5t-46.5 143.5t-15 159.5q0 210 87 356q100 178 296 178q91 0 164 -44t118 -118.5t69 -167t24 -195.5z"/>
            <glyph unicode="&#x20f;" horiz-adv-x="1208"
                   d="M332 1189h139q10 135 134 135q115 0 131 -135h138q0 112 -62 189q-72 81 -207 81q-130 0 -201.5 -72.5t-71.5 -197.5zM1135 538q0 238 -141 392q-91 98 -237 134t-294.5 -1.5t-243.5 -138.5q-145 -149 -145 -402q0 -242 143 -394q93 -99 238.5 -135t292 1t242.5 138 q145 160 145 406zM845 532q0 -92 -25 -169.5t-81 -130t-134 -52.5q-127 0 -191 118q-54 93 -54 230q0 139 54 232q64 117 191 117q78 0 134 -50t81 -126.5t25 -168.5z"/>
            <glyph unicode="&#x210;" horiz-adv-x="1230"
                   d="M526 1583h158l-150 310h-230zM874 1583h160l-150 310h-231zM899 0h288q-19 39 -52 159l-62 249q-59 226 -201 282v6q113 42 187 138.5t74 224.5q0 415 -578 415q-232 0 -406 -30v-1444h278v595h122q110 0 166 -54.5t86 -194.5q58 -272 98 -346zM853 1036q0 -107 -75 -171 t-205 -64h-146v450q53 10 157 10q269 0 269 -225z"/>
            <glyph unicode="&#x211;" horiz-adv-x="774"
                   d="M293 1189h159l-150 311h-230zM642 1189h159l-150 311h-230zM740 810v267q-23 4 -63 4q-91 0 -165 -54q-85 -67 -119 -165h-6l-12 197h-243q9 -125 9 -340l-2 -719h280v545q0 124 62.5 198.5t178.5 74.5q43 0 80 -8z"/>
            <glyph unicode="&#x212;" horiz-adv-x="1230"
                   d="M398 1583h138q11 134 135 134q113 0 130 -134h139q-1 111 -63 188q-71 81 -206 81q-131 0 -202 -72t-71 -197zM899 0h288q-19 39 -52 159l-62 249q-59 226 -201 282v6q113 42 187 138.5t74 224.5q0 415 -578 415q-232 0 -406 -30v-1444h278v595h122q110 0 166 -54.5 t86 -194.5q58 -272 98 -346zM853 1036q0 -107 -75 -171t-205 -64h-146v450q53 10 157 10q269 0 269 -225z"/>
            <glyph unicode="&#x213;" horiz-adv-x="774"
                   d="M165 1189h139q10 135 135 135q113 0 130 -135h139q-2 113 -64 189q-71 81 -205 81q-131 0 -202.5 -72.5t-71.5 -197.5zM740 810v267q-23 4 -63 4q-91 0 -165 -54q-85 -67 -119 -165h-6l-12 197h-243q9 -125 9 -340l-2 -719h280v545q0 124 62.5 198.5t178.5 74.5 q43 0 80 -8z"/>
            <glyph unicode="&#x214;" horiz-adv-x="1427"
                   d="M571 1572h158l-149 311h-230zM920 1572h159l-149 311h-231zM999 1463v-858q0 -96 -24.5 -174.5t-65 -126.5t-91.5 -74t-105 -26t-105 26t-91.5 74t-65 126t-24.5 175v858h-280v-838q1 -649 555 -649q277 0 427.5 164.5t150.5 484.5v838h-281z"/>
            <glyph unicode="&#x215;" horiz-adv-x="1222"
                   d="M469 1168h159l-150 311h-231zM818 1168h159l-150 311h-230zM847 0h245q-9 200 -9 321v738h-282v-640q-2 -48 -13 -81q-54 -131 -189 -131q-185 0 -185 275v577h-279v-622q0 -241 106 -356q93 -105 256 -105q224 0 330 178h6z"/>
            <glyph unicode="&#x216;" horiz-adv-x="1427"
                   d="M443 1572h139q10 135 135 135q113 0 130 -135h139q-2 113 -64 189q-71 80 -205 80q-131 0 -202.5 -72t-71.5 -197zM999 1463v-858q0 -96 -24.5 -174.5t-65 -126.5t-91.5 -74t-105 -26t-105 26t-91.5 74t-65 126t-24.5 175v858h-280v-838q1 -649 555 -649 q277 0 427.5 164.5t150.5 484.5v838h-281z"/>
            <glyph unicode="&#x217;" horiz-adv-x="1222"
                   d="M341 1168h139q10 135 135 135q113 0 129 -135h140q-2 113 -64 189q-71 80 -205 80q-131 0 -202.5 -72t-71.5 -197zM847 0h245q-9 200 -9 321v738h-282v-640q-2 -48 -13 -81q-54 -131 -189 -131q-185 0 -185 275v577h-279v-622q0 -241 106 -356q93 -105 256 -105 q224 0 330 178h6z"/>
            <glyph unicode="&#x218;" horiz-adv-x="1117"
                   d="M1036 421q0 285 -371 434q-152 63 -207 104q-65 53 -65 129q0 70 54 115q41 35 116 47t169 -4t180 -59l65 226q-143 72 -347 72q-236 0 -379 -119.5t-143 -304.5q0 -282 389 -425q139 -52 195.5 -104.5t56.5 -131.5q0 -88 -66 -138.5t-188 -50.5q-192 0 -350 91l-58 -235 q152 -88 391 -88q263 -1 410.5 121.5t147.5 320.5zM679 -118l-262 -19q-42 -259 -135 -523l172 16q125 210 225 526z"/>
            <glyph unicode="&#x219;" horiz-adv-x="897"
                   d="M827 313q-4 223 -280 323q-99 37 -139 66q-39 28 -39 75q0 51 36.5 78.5t91 28.5t117 -15t115.5 -46l54 198q-113 60 -279 60q-180 0 -293 -95q-46 -40 -76 -93t-35.5 -116t17.5 -123.5t93 -118.5t181 -98q93 -33 128.5 -65t35.5 -84q1 -55 -39.5 -82.5t-120.5 -27.5 q-142 0 -267 76l-54 -202q127 -73 321 -73q204 0 318 89.5t114 244.5zM571 -118l-263 -19q-42 -256 -134 -523l172 16q125 210 225 526z"/>
            <glyph unicode="&#x21a;" horiz-adv-x="1131" d="M21 1463v-237h402v-1226h281v1226h406v237h-1089zM725 -83l-293 -21q-47 -294 -148 -582l189 17q144 234 252 586z"/>
            <glyph unicode="&#x21b;" horiz-adv-x="761"
                   d="M458 1059v273l-276 -77v-196h-145v-208h145v-486q0 -211 84 -298q52 -54 138.5 -75t160 -14.5t131.5 26.5l-4 215q-56 -10 -99 -10q-135 0 -135 191v451h248v208h-248zM617 -83l-294 -21q-45 -292 -147 -582l189 17q144 234 252 586z"/>
            <glyph unicode="&#x21e;" horiz-adv-x="1442" d="M723 1700h-4l-116 193h-189l211 -321h191l211 321h-189zM1011 1463v-582h-581v582h-281v-1463h281v636h581v-636h283v1463h-283z"/>
            <glyph unicode="&#x21f;" horiz-adv-x="1228"
                   d="M524 1776h-6l-114 193h-189l210 -322h192l210 322h-189zM1094 0v625q0 230 -110 352q-99 104 -253 104q-198 0 -308 -161h-4v619h-280v-1539h280v634q0 92 57.5 155.5t146.5 63.5q189 0 189 -258v-595h282z"/>
            <glyph unicode="&#x226;" horiz-adv-x="1365"
                   d="M810 1707q0 57 -36 94.5t-92 37.5q-57 0 -96 -38t-39 -94q0 -58 38 -96.5t94 -38.5q57 0 94 39t37 96zM497 1463l-456 -1463h291l115 402h443l123 -402h302l-460 1463h-358zM493 615l102 344q49 191 67 280h7l71 -280l107 -344h-354z"/>
            <glyph unicode="&#x227;" horiz-adv-x="1098"
                   d="M655 1324q0 57 -35.5 94.5t-91.5 37.5q-57 0 -96 -38t-39 -94t38.5 -95.5t94.5 -39.5t92.5 39t36.5 96zM727 0h252q-15 76 -15 254v380q2 447 -438 447q-234 0 -385 -93l54 -180q127 76 281 76q206 0 206 -172v-18q-294 0 -454.5 -103t-160.5 -298q0 -133 85 -219 q47 -49 119.5 -74.5t149.5 -23.5t153.5 37.5t127.5 102.5h6zM690 514v-141q0 -37 -6 -58q-19 -59 -73 -99t-122 -40q-146 0 -146 147q-1 97 86 144.5t261 46.5z"/>
            <glyph unicode="&#x228;" horiz-adv-x="1108"
                   d="M704 0l-62 -108q60 -9 107 -48q48 -46 48 -107q0 -184 -250 -184q-103 0 -165 41l39 110q40 -23 86 -31t80 6.5t34 51.5q0 71 -167 82l95 187h-400v1463h847v-232h-566v-359h536v-230h-536v-410h599v-232h-325z"/>
            <glyph unicode="&#x229;" horiz-adv-x="1108"
                   d="M1040 569q0 107 -28 198.5t-82.5 162.5t-142 112t-199.5 41q-117 0 -215 -45t-162.5 -122.5t-100.5 -180.5t-36 -219q0 -247 144 -391t399 -144q210 0 367 65l-42 192q-129 -47 -284 -47q-135 1 -221.5 67.5t-93.5 190.5h688q9 43 9 120zM777 644h-434q12 106 70.5 177.5 t157.5 71.5q53 0 94 -21t65 -57t35.5 -79t11.5 -92zM764 -282q0 59 -47 106q-46 39 -107 48l61 109h-155l-95 -188q167 -9 167 -81q0 -60 -80 -60q-60 0 -119 33l-39 -110q61 -41 164 -41q250 0 250 184z"/>
            <glyph unicode="&#x22a;" horiz-adv-x="1502"
                   d="M493 2121v-149h518v149h-518zM673 1730q0 56 -37 94t-91 38q-58 0 -97.5 -38t-39.5 -94t39.5 -95.5t93.5 -39.5q56 0 94 38.5t38 96.5zM1096 1730q0 56 -37 94t-93 38q-57 0 -95 -38t-38 -94q0 -57 37.5 -96t93.5 -39q57 0 94.5 38.5t37.5 96.5zM1427 747q0 158 -46 294 t-130.5 235t-211 155t-279.5 56q-155 0 -284.5 -59t-216.5 -161.5t-135 -243t-48 -302.5q0 -159 45.5 -295.5t129 -236.5t209 -156.5t278.5 -56.5q331 0 515 223q174 214 174 548zM1127 736q0 -106 -23.5 -200.5t-68.5 -170t-118 -120t-165 -44.5q-75 0 -138 28.5t-107.5 78 t-76 116.5t-46.5 143.5t-15 159.5q0 210 87 356q100 178 296 178q91 0 164 -44t118 -118.5t69 -167t24 -195.5z"/>
            <glyph unicode="&#x22b;" horiz-adv-x="1208"
                   d="M346 1715v-149h518v149h-518zM526 1324q0 56 -37 94t-91 38q-60 0 -98.5 -37.5t-38.5 -94.5q0 -56 39 -95.5t93 -39.5q56 0 94.5 38.5t38.5 96.5zM949 1324q0 56 -37.5 94t-93.5 38t-94 -38t-38 -94q0 -57 37 -96t93 -39t94.5 38.5t38.5 96.5zM1135 538q0 238 -141 392 q-91 98 -237 134t-294.5 -1.5t-243.5 -138.5q-145 -149 -145 -402q0 -242 143 -394q93 -99 238.5 -135t292 1t242.5 138q145 160 145 406zM845 532q0 -92 -25 -169.5t-81 -130t-134 -52.5q-127 0 -191 118q-54 93 -54 230q0 139 54 232q64 117 191 117q78 0 134 -50 t81 -126.5t25 -168.5z"/>
            <glyph unicode="&#x22c;" horiz-adv-x="1502"
                   d="M493 2113v-151h518v151h-518zM1038 1854h-124q-8 -93 -56 -93q-24 0 -96 39q-86 45 -141 45q-75 0 -116 -64t-41 -177v-9h131q1 38 9 60t19 31t30 6t37 -11t46 -24q80 -48 143 -48q159 0 159 236v9zM1427 747q0 158 -46 294t-130.5 235t-211 155t-279.5 56 q-155 0 -284.5 -59t-216.5 -161.5t-135 -243t-48 -302.5q0 -159 45.5 -295.5t129 -236.5t209 -156.5t278.5 -56.5q331 0 515 223q174 214 174 548zM1127 736q0 -106 -23.5 -200.5t-68.5 -170t-118 -120t-165 -44.5q-75 0 -138 28.5t-107.5 78t-76 116.5t-46.5 143.5 t-15 159.5q0 210 87 356q100 178 296 178q91 0 164 -44t118 -118.5t69 -167t24 -195.5z"/>
            <glyph unicode="&#x22d;" horiz-adv-x="1208"
                   d="M346 1707v-151h518v151h-518zM890 1448h-124q-6 -93 -56 -93q-23 0 -95 39q-86 45 -142 45q-74 0 -115 -64t-41 -177v-9h130q2 38 10 60t19 31t30 6t37 -11t45 -24q81 -48 143 -48q159 0 159 236v9zM1135 538q0 238 -141 392q-91 98 -237 134t-294.5 -1.5t-243.5 -138.5 q-145 -149 -145 -402q0 -242 143 -394q93 -99 238.5 -135t292 1t242.5 138q145 160 145 406zM845 532q0 -92 -25 -169.5t-81 -130t-134 -52.5q-127 0 -191 118q-54 93 -54 230q0 139 54 232q64 117 191 117q78 0 134 -50t81 -126.5t25 -168.5z"/>
            <glyph unicode="&#x22e;" horiz-adv-x="1502"
                   d="M884 1730q0 57 -36 94.5t-92 37.5q-57 0 -96 -38t-39 -94q0 -57 38 -96t95 -39q56 0 93 39t37 96zM1427 747q0 158 -46 294t-130.5 235t-211 155t-279.5 56q-155 0 -284.5 -59t-216.5 -161.5t-135 -243t-48 -302.5q0 -159 45.5 -295.5t129 -236.5t209 -156.5t278.5 -56.5 q331 0 515 223q174 214 174 548zM1127 736q0 -106 -23.5 -200.5t-68.5 -170t-118 -120t-165 -44.5q-75 0 -138 28.5t-107.5 78t-76 116.5t-46.5 143.5t-15 159.5q0 210 87 356q100 178 296 178q91 0 164 -44t118 -118.5t69 -167t24 -195.5z"/>
            <glyph unicode="&#x22f;" horiz-adv-x="1208"
                   d="M736 1324q0 57 -36 94.5t-93 37.5q-56 0 -95 -38t-39 -94q0 -57 38 -96t94 -39t93.5 39t37.5 96zM1135 538q0 238 -141 392q-91 98 -237 134t-294.5 -1.5t-243.5 -138.5q-145 -149 -145 -402q0 -242 143 -394q93 -99 238.5 -135t292 1t242.5 138q145 160 145 406z M845 532q0 -92 -25 -169.5t-81 -130t-134 -52.5q-127 0 -191 118q-54 93 -54 230q0 139 54 232q64 117 191 117q78 0 134 -50t81 -126.5t25 -168.5z"/>
            <glyph unicode="&#x230;" horiz-adv-x="1502"
                   d="M493 2121v-149h518v149h-518zM884 1730q0 57 -36 94.5t-92 37.5q-57 0 -96 -38t-39 -94q0 -57 38 -96t95 -39q56 0 93 39t37 96zM1427 747q0 158 -46 294t-130.5 235t-211 155t-279.5 56q-155 0 -284.5 -59t-216.5 -161.5t-135 -243t-48 -302.5q0 -159 45.5 -295.5 t129 -236.5t209 -156.5t278.5 -56.5q331 0 515 223q174 214 174 548zM1127 736q0 -106 -23.5 -200.5t-68.5 -170t-118 -120t-165 -44.5q-75 0 -138 28.5t-107.5 78t-76 116.5t-46.5 143.5t-15 159.5q0 210 87 356q100 178 296 178q91 0 164 -44t118 -118.5t69 -167 t24 -195.5z"/>
            <glyph unicode="&#x231;" horiz-adv-x="1208"
                   d="M346 1715v-149h518v149h-518zM736 1324q0 57 -36 94.5t-93 37.5q-56 0 -95 -38t-39 -94q0 -57 38 -96t94 -39t93.5 39t37.5 96zM1135 538q0 238 -141 392q-91 98 -237 134t-294.5 -1.5t-243.5 -138.5q-145 -149 -145 -402q0 -242 143 -394q93 -99 238.5 -135t292 1 t242.5 138q145 160 145 406zM845 532q0 -92 -25 -169.5t-81 -130t-134 -52.5q-127 0 -191 118q-54 93 -54 230q0 139 54 232q64 117 191 117q78 0 134 -50t81 -126.5t25 -168.5z"/>
            <glyph unicode="&#x232;" horiz-adv-x="1237"
                   d="M365 1721v-149h519v149h-519zM914 1463l-165 -367q-57 -129 -119 -290h-5q-46 116 -121 288l-163 369h-322l454 -858v-605h281v615l475 848h-315z"/>
            <glyph unicode="&#x233;" horiz-adv-x="1078"
                   d="M282 1318v-150h519v150h-519zM771 1059l-152 -555q-19 -71 -30 -118l-22 -86h-7q-8 32 -31 117l-25 84l-179 558h-310l383 -972q12 -38 12 -52q0 -12 -17 -48q-48 -90 -129.5 -149.5t-161.5 -78.5l65 -237q151 19 285 140q177 159 362 676l254 721h-297z"/>
            <glyph unicode="&#x237;" horiz-adv-x="588" d="M174 1059v-870q-2 -290 -68 -359q-59 -62 -195 -71l29 -221q125 0 218 30.5t160.5 97t101.5 178t34 268.5v947h-280z"/>
            <glyph unicode="&#x238;" horiz-adv-x="1247"
                   d="M1891 547q0 239 -120 386.5t-310 147.5q-222 0 -330 -161v619h-308v-588q-78 130 -285 130q-190 0 -325 -147q-139 -154 -139 -416q0 -240 131 -392q60 -74 151.5 -113t183.5 -37.5t177.5 49t133.5 136.5v-161h259v137q66 -104 183 -142t239.5 -3.5t211.5 128.5 q147 160 147 427zM827 619v-163q0 -106 -54 -176q-64 -79 -168 -79q-115 0 -181 90t-66 237q0 152 67 244t185 92q80 0 142 -52q54 -48 71 -128q4 -20 4 -65zM1607 534q0 -156 -66.5 -245.5t-183.5 -89.5q-100 0 -162 70q-64 72 -64 168v176q0 103 65 174q68 75 163 75 q115 0 181.5 -90.5t66.5 -237.5z"/>
            <glyph unicode="&#x239;" horiz-adv-x="1247"
                   d="M74 510q0 -242 119 -388t311 -146q221 0 329 161v-619h309v588q78 -130 285 -130q96 0 180.5 40t147.5 111t99.5 177.5t36.5 233.5q0 238 -126 390.5t-319 152.5q-232 0 -332 -184v160h-259v-137q-104 161 -310 161q-96 0 -181.5 -39.5t-150 -111.5t-102 -181t-37.5 -239 zM358 524q0 156 66 245t183 89q98 0 163 -70q63 -69 63 -167v-176q0 -103 -64 -175q-68 -75 -164 -75q-115 0 -186 95q-61 88 -61 234zM1137 439v162q0 109 59.5 181.5t162.5 72.5q116 0 182 -89t66 -236q0 -153 -67 -245t-185 -92q-80 0 -138 49.5t-75 130.5q-5 25 -5 66z "/>
            <glyph unicode="&#x2b9;" horiz-adv-x="518" d="M58 922l172 18l241 562l-270 -21z"/>
            <glyph unicode="&#x2ba;" horiz-adv-x="897" d="M56 922l172 18l241 562l-270 -21zM443 922l172 18l238 562l-267 -21z"/>
            <glyph unicode="&#x2bb;" horiz-adv-x="518" d="M473 1502l-171 -17q-141 -232 -242 -563l270 22q40 272 143 558z"/>
            <glyph unicode="&#x2bc;" horiz-adv-x="518" d="M471 1502l-270 -21q-40 -274 -143 -559l172 18q139 227 241 562z"/>
            <glyph unicode="&#x2c6;" horiz-adv-x="650" d="M236 1506l-207 -321h182l112 191h5l111 -191h186l-213 321h-176z"/>
            <glyph unicode="&#x2c7;" horiz-adv-x="650" d="M328 1313h-5l-114 193h-190l211 -321h191l211 321h-189z"/>
            <glyph unicode="&#x2c9;" horiz-adv-x="650" d="M67 1415v-149h519v149h-519z"/>
            <glyph unicode="&#x2d8;" horiz-adv-x="650" d="M597 1485h-139q-10 -135 -135 -135q-113 0 -130 135h-139q2 -113 64 -189q71 -80 205 -80q131 0 202.5 72t71.5 197z"/>
            <glyph unicode="&#x2d9;" horiz-adv-x="650" d="M410 1328q0 57 -36 95t-92 38t-95.5 -38.5t-39.5 -94.5t38.5 -95t94.5 -39t93 38.5t37 95.5z"/>
            <glyph unicode="&#x2da;" horiz-adv-x="868"
                   d="M644 1365q0 91 -60 152t-152 61q-86 0 -148 -62q-62 -60 -62 -151q0 -86 62 -148q60 -62 148 -62q89 0 151 62q61 61 61 148zM528 1365q0 -37 -28.5 -65t-67.5 -28q-37 0 -65.5 28t-28.5 65q0 39 28.5 67.5t65.5 28.5q39 0 67.5 -28.5t28.5 -67.5z"/>
            <glyph unicode="&#x2db;" horiz-adv-x="650"
                   d="M501 -400l-21 107q-45 -22 -105 -22q-89 0 -89 87q0 54 59 119.5t144 108.5h-146q-80 -34 -146.5 -109.5t-66.5 -153.5q0 -83 52.5 -128.5t145.5 -45.5q96 0 173 37z"/>
            <glyph unicode="&#x2dc;" horiz-adv-x="650"
                   d="M613 1469h-124q-7 -93 -57 -93q-24 0 -96 39q-85 46 -141 46q-74 0 -115 -64t-41 -177v-8h131q5 95 52 95q27 0 89 -35q79 -48 143 -48q159 0 159 237v8z"/>
            <glyph unicode="&#x2dd;" horiz-adv-x="650" d="M35 1196h158l221 310h-230zM384 1196h159l221 310h-230z"/>
            <glyph unicode="&#x2ee;" horiz-adv-x="897" d="M469 1502l-270 -21q-40 -274 -143 -559l172 18q139 227 241 562zM853 1502l-267 -21q-40 -274 -143 -559l172 18q138 234 238 562z"/>
            <glyph unicode="&#x300;" d="M-226 1506l263 -321h191l-185 321h-269z"/>
            <glyph unicode="&#x301;" d="M-226 1185h191l263 321h-269z"/>
            <glyph unicode="&#x302;" d="M-89 1506l-209 -321h182l114 191h4l110 -191h188l-213 321h-176z"/>
            <glyph unicode="&#x303;" d="M286 1469h-123q-7 -93 -57 -93q-23 0 -95 39q-85 46 -141 46q-76 0 -116 -63.5t-40 -177.5v-8h130q5 95 52 95q28 0 89 -35q81 -48 143 -48q158 0 158 237v8z"/>
            <glyph unicode="&#x304;" d="M67 1415v-149h519v149h-519z"/>
            <glyph unicode="&#x306;" d="M271 1485h-139q-10 -135 -134 -135q-114 0 -130 135h-139q0 -112 62 -189q72 -80 207 -80q130 0 201.5 72t71.5 197z"/>
            <glyph unicode="&#x307;" d="M132 1328q0 57 -36 95t-92 38t-95 -38.5t-39 -94.5t38 -95t94 -39t93 38.5t37 95.5z"/>
            <glyph unicode="&#x308;"
                   d="M-78 1328q0 56 -37.5 94.5t-91.5 38.5q-58 0 -97 -38.5t-39 -94.5t39 -95t93 -39q57 0 95 38t38 96zM346 1328q0 56 -37.5 94.5t-93.5 38.5t-94 -38.5t-38 -94.5q0 -57 37 -95.5t93 -38.5q57 0 95 38t38 96z"/>
            <glyph unicode="&#x309;"
                   d="M-83 1179l137 -33q17 37 47 70q18 20 56 60q67 73 67 151q0 77 -58.5 127t-146.5 50q-167 0 -243 -160l94 -59q16 23 26.5 36.5t30.5 26.5t40 13q31 0 49.5 -20.5t18.5 -52.5q0 -19 -8.5 -38t-16 -28.5t-25.5 -30.5q-57 -65 -68 -112z"/>
            <glyph unicode="&#x30a;"
                   d="M213 1365q0 91 -61 152t-152 61q-87 0 -149 -62t-62 -151q0 -84 62 -148q60 -62 149 -62q91 0 151 62q62 64 62 148zM95 1365q0 -37 -28 -65t-67 -28q-37 0 -65 28t-28 65q0 39 28 67.5t65 28.5q39 0 67 -28.5t28 -67.5z"/>
            <glyph unicode="&#x30b;" d="M-365 1196h158l222 310h-230zM-15 1196h158l222 310h-230z"/>
            <glyph unicode="&#x30c;" d="M2 1313h-4l-116 193h-188l211 -321h190l211 321h-188z"/>
            <glyph unicode="&#x30d;" d="M76 1506h-150v-406h150v406z"/>
            <glyph unicode="&#x30e;" d="M-87 1506h-149v-406h149v406zM238 1506h-149v-406h149v406z"/>
            <glyph unicode="&#x30f;" d="M-143 1196h158l-150 310h-230zM207 1196h158l-150 310h-230z"/>
            <glyph unicode="&#x311;" d="M-271 1216h139q11 134 134 134q113 0 130 -134h139q0 111 -62 188q-72 81 -207 81q-130 0 -201.5 -72t-71.5 -197z"/>
            <glyph unicode="&#x312;" d="M-197 1048l264 20q42 276 132 523l-170 -15q-125 -205 -226 -528z"/>
            <glyph unicode="&#x313;" d="M199 1591l-264 -19q-43 -280 -132 -524l171 16q125 208 225 527z"/>
            <glyph unicode="&#x314;" d="M67 1572l-264 19q100 -319 226 -527l170 -16q-95 265 -132 524z"/>
            <glyph unicode="&#x316;" d="M-226 -126l263 -321h191l-185 321h-269z"/>
            <glyph unicode="&#x317;" d="M-226 -447h191l263 321h-269z"/>
            <glyph unicode="&#x31b;" d="M-187 1463l57 -154q132 12 200.5 37t93.5 67t25 118q0 91 -44 188l-199 -35q41 -71 41 -136q0 -42 -55 -64q-53 -21 -119 -21z"/>
            <glyph unicode="&#x31c;" d="M106 -172v118q-91 0 -151.5 -61t-60.5 -152q0 -89 62 -149q62 -62 150 -62v118q-39 0 -67 28t-28 65q0 39 28 67t67 28z"/>
            <glyph unicode="&#x323;" d="M132 -306q0 57 -36 94.5t-92 37.5t-95 -38t-39 -94q0 -57 38 -96t94 -39t93 39t37 96z"/>
            <glyph unicode="&#x324;"
                   d="M-78 -306q0 56 -37.5 94t-91.5 38q-58 0 -97 -38t-39 -94q0 -57 39 -96t93 -39q57 0 95 38t38 97zM346 -306q0 56 -37.5 94t-93.5 38t-94 -38t-38 -94q0 -57 37 -96t93 -39q57 0 95 38t38 97z"/>
            <glyph unicode="&#x325;"
                   d="M213 -269q0 91 -61 152t-152 61q-87 0 -149 -62t-62 -151q0 -87 62 -149t149 -62q89 0 151 62t62 149zM95 -269q0 -37 -28 -65.5t-67 -28.5q-37 0 -65 28.5t-28 65.5q0 39 28 67t65 28q39 0 67 -28t28 -67z"/>
            <glyph unicode="&#x326;" d="M199 -41l-264 -19q-43 -284 -132 -524l171 15q126 210 225 528z"/>
            <glyph unicode="&#x327;" d="M209 -254q0 60 -48 107q-47 40 -107 47l62 108h-155l-96 -186q168 -10 168 -83q0 -58 -81 -58q-60 0 -119 33l-40 -112q62 -41 166 -41q250 0 250 185z"/>
            <glyph unicode="&#x328;" d="M187 -400l-22 107q-45 -22 -105 -22q-89 0 -89 87q0 54 59 119.5t144 108.5h-145q-75 -33 -137 -98q-76 -82 -76 -165t52.5 -128.5t144.5 -45.5q96 0 174 37z"/>
            <glyph unicode="&#x329;" d="M76 -126h-150v-406h150v406z"/>
            <glyph unicode="&#x32c;" d="M2 -319h-4l-116 193h-188l211 -321h190l211 321h-188z"/>
            <glyph unicode="&#x32d;" d="M-89 -126l-209 -321h182l114 190h4l110 -190h188l-213 321h-176z"/>
            <glyph unicode="&#x32e;" d="M271 -147h-139q-10 -135 -134 -135q-114 0 -130 135h-139q0 -112 62 -189q72 -81 207 -81q130 0 201.5 72.5t71.5 197.5z"/>
            <glyph unicode="&#x32f;" d="M-271 -417h139q10 135 134 135q114 0 130 -135h139q0 112 -62 189q-72 81 -207 81q-130 0 -201.5 -72.5t-71.5 -197.5z"/>
            <glyph unicode="&#x330;" d="M286 -163h-123q-7 -94 -57 -94q-24 0 -95 40q-85 45 -141 45q-76 0 -116 -63t-40 -177v-9h130q4 96 52 96q28 0 89 -35q81 -48 143 -48q158 0 158 236v9z"/>
            <glyph unicode="&#x331;" d="M-259 -217v-150h520v150h-520z"/>
            <glyph unicode="&#x339;" d="M-106 -54v-118q39 0 67 -28t28 -67q0 -37 -28 -65t-67 -28v-118q87 0 151 62q61 61 61 149q0 91 -60.5 152t-151.5 61z"/>
            <glyph unicode="&#x33e;" d="M130 1626h-8q-238 0 -238 -159q1 -62 49 -143q34 -59 34 -89q0 -47 -95 -52l-2 -130h8q114 0 178 40q119 74 20 257q-39 70 -39 96q0 50 93 56v124z"/>
            <glyph unicode="&#x340;" d="M-226 1506l263 -321h191l-185 321h-269z"/>
            <glyph unicode="&#x341;" d="M-226 1185h191l263 321h-269z"/>
            <glyph unicode="&#x34f;"/>
            <glyph unicode="&#x351;" d="M106 1461v117q-91 0 -151.5 -61t-60.5 -152q0 -86 62 -148q60 -62 150 -62v117q-39 0 -67 28t-28 65q0 39 28 67.5t67 28.5z"/>
            <glyph unicode="&#x357;" d="M-106 1578v-117q39 0 67 -28.5t28 -67.5q0 -37 -28 -65t-67 -28v-117q89 0 151 62q61 63 61 148q0 91 -60.5 152t-151.5 61z"/>
            <glyph unicode="&#xa00;" horiz-adv-x="503"/>
            <glyph unicode="&#xe00;" horiz-adv-x="422"/>
            <glyph unicode="&#xe01;" horiz-adv-x="1349"
                   d="M1209 0v756q0 219 -140 350q-145 135 -398 135q-218 0 -384 -117q-161 -113 -204 -264l176 -143q-52 -32 -84 -87t-32 -122v-508h282v510q0 155 137 204l-183 154q32 60 113 104q81 43 173 43q123 0 192 -66t69 -193v-756h283z"/>
            <glyph unicode="&#xe02;" horiz-adv-x="1230"
                   d="M391 404v114q0 36 15.5 73.5t29.5 58.5t46 62q30 38 45.5 61.5t30.5 62.5t15 78v54q0 131 -58 185q-69 63 -227 63h-166v-222h132q50 0 50 -50v-30q0 -28 -17.5 -63t-29.5 -50.5t-50 -61.5q-47 -57 -73 -107.5t-26 -113.5v-112q0 -432 491 -432q249 0 370 115.5 t121 333.5v793h-282v-795q0 -116 -52 -171t-157 -55t-156.5 51t-51.5 158z"/>
            <glyph unicode="&#xe03;" horiz-adv-x="1249"
                   d="M410 404v145q0 38 18 78.5t34.5 63.5t52.5 67q33 42 51 67.5t35.5 67t17.5 80.5v40q0 105 -51.5 162.5t-146.5 57.5q-117 0 -185 -83l-184 94v-213l189 -95q29 89 72 89q33 0 33 -35v-31q0 -25 -15.5 -55.5t-32.5 -52t-49 -59.5q-8 -9 -12 -14q-109 -127 -109 -229v-143 q0 -432 491 -432q248 0 369.5 115.5t121.5 333.5v793h-283v-795q0 -116 -51.5 -171t-156.5 -55q-106 0 -157.5 51t-51.5 158z"/>
            <glyph unicode="&#xe04;" horiz-adv-x="1384"
                   d="M423 538v216q0 115 71.5 188t197.5 73q128 0 198.5 -72.5t70.5 -188.5v-754h283v756q0 210 -146 345q-151 140 -406 140q-253 0 -404 -140q-147 -136 -147 -345v-756h282v276q21 73 74.5 110t149.5 37h128v235h-122q-167 0 -230 -120z"/>
            <glyph unicode="&#xe05;" horiz-adv-x="1406"
                   d="M423 538v307q1 129 99 149l182 -113l182 113q98 -20 98 -149v-845h282v843q0 157 -83 258t-249 140l-230 -141l-231 141q-166 -38 -249 -139t-83 -259v-843h282v276q43 147 228 147h132v235h-125q-172 0 -235 -120z"/>
            <glyph unicode="&#xe06;" horiz-adv-x="1334"
                   d="M427 398v151q0 38 16 78.5t31.5 64t48.5 67.5q31 43 47.5 69t32.5 70.5t16 87.5v27q0 105 -51.5 162.5t-146.5 57.5q-117 0 -185 -83l-184 94v-213l189 -95q29 89 72 89q33 0 33 -35v-31q0 -14 -4.5 -29.5t-10 -27.5t-18 -31t-20 -29t-24 -32.5t-23.5 -31.5 q-47 -63 -74 -116t-27 -113v-549h253l29 149q63 -75 143 -118q104 -57 213 -57q198 0 304.5 117.5t106.5 345.5v779h-282v-767q0 -250 -198 -250q-90 0 -168.5 56.5t-118.5 142.5z"/>
            <glyph unicode="&#xe07;" horiz-adv-x="1230"
                   d="M367 0h223q247 0 401 174q157 177 157 477q0 274 -133 437q-124 153 -329 153q-150 0 -234 -47l41 -206q78 27 145 27q106 0 167 -88t61 -276q0 -190 -81 -309q-79 -116 -186 -116h-23l-298 990h-278z"/>
            <glyph unicode="&#xe08;" horiz-adv-x="1187"
                   d="M346 0h230q104 0 200.5 49.5t171.5 138.5q157 187 157 454q0 284 -149.5 441.5t-427.5 157.5q-318 0 -520 -182l87 -201q184 157 417 157q149 0 230 -90.5t81 -280.5q0 -177 -76 -296q-69 -109 -171 -122h-25l-80 321q-23 90 -75.5 124.5t-143.5 34.5h-159v-226h81 q51 0 62 -50z"/>
            <glyph unicode="&#xe09;" horiz-adv-x="1297"
                   d="M74 480h63q41 0 41 -48v-78q0 -196 85.5 -288t254.5 -92q232 0 356 175l31 -149h253v727q0 247 -138 380.5t-407 133.5q-296 0 -553 -177l103 -209q93 72 207.5 116t230.5 44q141 0 207 -72t66 -216v-329q-69 -199 -264 -199q-70 0 -106 33q-44 39 -44 135v130 q0 209 -215 209h-171v-226z"/>
            <glyph unicode="&#xe0a;" horiz-adv-x="1230"
                   d="M1094 423v217q0 92 -44.5 162.5t-129.5 98.5l246 315h-296l-230 -335l44 -104h33q49 0 72 -30.5t23 -99.5v-226q0 -116 -52.5 -171t-158.5 -55q-105 0 -157.5 51t-52.5 158v114q0 36 15.5 73.5t29.5 58.5t46 62q30 38 45.5 61.5t30.5 62.5t15 78v54q0 131 -58 185 q-69 63 -227 63h-166v-222h132q50 0 50 -50v-30q0 -28 -17.5 -63t-29.5 -50.5t-50 -61.5q-47 -57 -73 -107.5t-26 -113.5v-112q0 -213 120 -322.5t373 -109.5q249 0 371 115.5t122 333.5z"/>
            <glyph unicode="&#xe0b;" horiz-adv-x="1245"
                   d="M1110 423v217q0 92 -44.5 162.5t-129.5 98.5l245 315h-295l-231 -335l44 -104h32q51 0 73.5 -30.5t22.5 -99.5v-226q0 -116 -51.5 -171t-156.5 -55q-106 0 -157.5 51t-51.5 158v145q0 38 18 78.5t34.5 63.5t52.5 67q33 42 51 67.5t35.5 67t17.5 80.5v40 q0 105 -51.5 162.5t-146.5 57.5q-117 0 -185 -83l-184 94v-213l189 -95q29 89 72 89q33 0 33 -35v-31q0 -25 -15.5 -55.5t-32.5 -52t-49 -59.5q-8 -9 -12 -14q-109 -127 -109 -229v-143q0 -432 491 -432q248 0 369.5 115.5t121.5 333.5z"/>
            <glyph unicode="&#xe0c;" horiz-adv-x="2030"
                   d="M1609 1216v-767q0 -250 -180 -250q-81 0 -155 56.5t-114 142.5v358q0 220 -133 350q-140 135 -383 135q-206 0 -364 -117q-154 -113 -197 -264l176 -143q-52 -32 -84 -87t-32 -122v-270q0 -113 63 -175.5t187 -62.5h191v222h-126q-33 0 -33 35v253q0 155 137 204 l-183 154q32 60 105 104q73 43 154 43q111 0 175 -66t64 -193v-756h252l31 149q56 -71 139 -118q100 -57 199 -57q186 0 289.5 118t103.5 345v779h-282z"/>
            <glyph unicode="&#xe0d;" horiz-adv-x="2026"
                   d="M1609 176v-104q0 -131 -78 -188q-67 -49 -199 -49q-78 0 -171 22t-171 62l-70 -192q103 -52 205 -77t232 -25q233 0 376 112q154 122 154 348v1131h-283v-793q-40 -86 -115.5 -141.5t-168.5 -55.5q-82 0 -121 48.5t-39 162.5v319q0 220 -133 350q-140 135 -383 135 q-206 0 -364 -117q-154 -113 -197 -264l176 -143q-52 -32 -84 -87t-32 -122v-270q0 -113 63 -175.5t187 -62.5h191v222h-126q-33 0 -33 35v253q0 155 137 204l-183 154q32 60 105 104q73 43 154 43q111 0 175 -66t64 -193v-333q0 -213 102.5 -318t288.5 -105q96 0 201 58 q85 48 140 118z"/>
            <glyph unicode="&#xe0e;" horiz-adv-x="1367"
                   d="M1226 -435v1191q0 223 -136 350q-146 135 -404 135q-219 0 -387 -117q-159 -111 -204 -264l198 -152q-106 -65 -106 -200v-251q0 -35 -33 -35h-100v-222h165q124 0 187 62.5t63 175.5v272q0 82 30 127t98 69l-204 162q34 59 114.5 103t171.5 44q126 0 195.5 -65.5 t69.5 -193.5v-971q-50 54 -136 90q-91 36 -185 36q-123 0 -210.5 -35t-158.5 -102l76 -221q89 72 165.5 99t171.5 27q67 0 142.5 -33.5t122.5 -80.5h294z"/>
            <glyph unicode="&#xe0f;" horiz-adv-x="1367"
                   d="M1226 -435v1191q0 223 -136 350q-146 135 -404 135q-219 0 -387 -117q-159 -111 -204 -264l198 -152q-106 -65 -106 -200v-251q0 -35 -33 -35h-100v-222h165q124 0 187 62.5t63 175.5v272q0 82 30 127t98 69l-204 162q34 59 114.5 103t171.5 44q126 0 195.5 -65.5 t69.5 -193.5v-982l-258 170q-44 -174 -228 -174q-101 0 -193 63l-72 -222q113 -63 259 -63q175 0 273 150l211 -133h290z"/>
            <glyph unicode="&#xe10;" horiz-adv-x="1187"
                   d="M346 0h230q104 0 200.5 49.5t171.5 138.5q157 187 157 454q0 241 -150 415l205 244h-311l-89 -105q-108 45 -232 45q-318 0 -520 -182l87 -201q184 157 417 157q146 0 228.5 -95.5t82.5 -275.5q0 -177 -76 -296q-69 -109 -171 -122h-25l-80 321q-23 90 -75.5 124.5 t-143.5 34.5h-159v-226h81q51 0 62 -50zM1015 -93h-251v-124h-70q-62 0 -109 26t-90 83q-38 -60 -90 -84.5t-127 -24.5h-168v-218h170q68 0 127 30.5t88 83.5q30 -53 90.5 -83.5t131.5 -30.5h298v342z"/>
            <glyph unicode="&#xe11;" horiz-adv-x="1371"
                   d="M427 0v518q0 84 31.5 172t85.5 161q123 164 270 164q73 0 103 -41.5t30 -146.5v-827h282v841q0 200 -101 306q-90 94 -235 94q-93 0 -172.5 -40t-134.5 -103q-21 135 -165 135q-117 0 -185 -83l-184 94v-213l189 -95q29 89 72 89q33 0 33 -35v-58q-83 -73 -136 -181 q-65 -134 -65 -243v-508h282z"/>
            <glyph unicode="&#xe12;" horiz-adv-x="2159"
                   d="M1736 1216v-767q0 -127 -43.5 -188.5t-142.5 -61.5q-91 0 -167 56t-117 143v445q0 157 -83 258t-249 140l-222 -136l-198 136q-193 -48 -313 -234q-114 -176 -114 -412q0 -300 152 -465q134 -147 356 -147q155 0 238 54l-50 204q-73 -32 -162 -32q-100 0 -169 84 q-83 100 -83 300q0 150 45.5 252t132.5 145l165 -100l174 104q98 -20 98 -149v-845h251l31 149q61 -75 140 -118q102 -57 214 -57q196 0 297.5 117t101.5 346v779h-283z"/>
            <glyph unicode="&#xe13;" horiz-adv-x="2030"
                   d="M1160 410v346q0 220 -133 350q-140 135 -383 135q-206 0 -364 -117q-154 -113 -197 -264l176 -143q-52 -32 -84 -87t-32 -122v-270q0 -113 63 -175.5t187 -62.5h191v222h-126q-33 0 -33 35v253q0 155 137 204l-183 154q32 60 105 104q73 43 154 43q111 0 175 -66t64 -193 v-358q0 -214 102.5 -319t288.5 -105q101 0 199 57q76 44 137 118l31 -149h252v1216h-283v-818q-40 -87 -115.5 -143t-168.5 -56q-81 0 -120.5 48.5t-39.5 162.5z"/>
            <glyph unicode="&#xe14;" horiz-adv-x="1402"
                   d="M1261 0v734q0 222 -145 362q-153 145 -424 145q-288 0 -449 -187q-156 -181 -156 -461q0 -299 157 -463q138 -147 351 -147q155 0 238 54l-50 204q-73 -32 -162 -32q-100 0 -169 84q-83 100 -83 300q0 197 86.5 309.5t243.5 112.5q129 0 204.5 -75.5t75.5 -203.5v-736 h282z"/>
            <glyph unicode="&#xe15;" horiz-adv-x="1423"
                   d="M721 1105l-207 136q-193 -48 -313 -234q-114 -176 -114 -412q0 -300 152 -465q134 -147 356 -147q155 0 238 54l-50 204q-73 -32 -162 -32q-100 0 -169 84q-83 100 -83 300q0 150 45.5 252t132.5 145l174 -100l182 104q98 -20 98 -149v-845h282v843q0 157 -83 258 t-249 140z"/>
            <glyph unicode="&#xe16;" horiz-adv-x="1351"
                   d="M425 257v253q0 155 137 204l-183 154q32 60 113 104q81 43 173 43q123 0 194 -66t71 -193v-756h282v756q0 219 -140 350q-146 135 -401 135q-218 0 -384 -117q-161 -113 -204 -264l176 -143q-52 -32 -84 -87t-32 -122v-270q0 -113 63 -175.5t187 -62.5h191v222h-126 q-33 0 -33 35z"/>
            <glyph unicode="&#xe17;" horiz-adv-x="1369"
                   d="M1229 0v797q0 210 -104.5 327t-279.5 117q-211 0 -418 -175l-29 150h-253v-1216h282v833q74 85 165.5 133.5t188.5 48.5q88 0 127 -56t39 -176v-783h282z"/>
            <glyph unicode="&#xe18;" horiz-adv-x="1230"
                   d="M1131 360v92q0 142 -78 215t-230 95l-363 52q-108 16 -108 98q0 49 65 84t190 35q243 0 424 -99l50 208q-195 101 -478 101q-246 0 -383 -90.5t-137 -245.5q0 -138 83 -211t240 -95l369 -52q43 -6 65 -27t22 -62v-98q0 -94 -57.5 -131.5t-194.5 -37.5q-134 0 -193 43 t-59 145v116h-269v-116q0 -213 121 -305q122 -93 400 -93t399 86q122 85 122 293z"/>
            <glyph unicode="&#xe19;" horiz-adv-x="1347"
                   d="M141 1216v-802q0 -222 107 -331t305 -109q118 0 221 55q94 50 146 120l31 -149h252v1216h-283v-818q-42 -88 -123 -143.5t-174 -55.5q-99 0 -149.5 54t-50.5 174v789h-282z"/>
            <glyph unicode="&#xe1a;" horiz-adv-x="1353"
                   d="M677 -26q259 0 398 123t139 365v754h-282v-754q0 -125 -67 -194t-188 -69q-120 0 -187 69t-67 194v754h-282v-754q0 -242 139 -365t397 -123z"/>
            <glyph unicode="&#xe1b;" horiz-adv-x="1353"
                   d="M677 -26q259 0 398 123t139 365v1166h-282v-1166q0 -125 -67 -194t-188 -69q-120 0 -187 69t-67 194v754h-282v-754q0 -242 139 -365t397 -123z"/>
            <glyph unicode="&#xe1c;" horiz-adv-x="1488"
                   d="M1344 0v1216h-269v-541q0 -195 35 -423h-8q-46 191 -116 326l-151 296h-173l-158 -296q-65 -124 -117 -326h-8q35 201 35 423v284q0 35 33 35h126v222h-178q-124 0 -187 -63t-63 -176v-977h309l201 417q57 117 92 260h5q34 -147 91 -260l193 -417h308z"/>
            <glyph unicode="&#xe1d;" horiz-adv-x="1488"
                   d="M1344 0v1628h-269v-953q0 -195 35 -423h-8q-46 191 -116 326l-151 296h-173l-158 -296q-65 -124 -117 -326h-8q35 201 35 423v284q0 35 33 35h126v222h-178q-124 0 -187 -63t-63 -176v-977h309l201 417q57 117 92 260h5q34 -147 91 -260l193 -417h308z"/>
            <glyph unicode="&#xe1e;" horiz-adv-x="1616"
                   d="M677 1155l-149 -536q-20 -64 -36 -167q-15 -96 -28 -235h-6q-4 238 -33 402l-95 597h-276l207 -1216h310l160 555q50 170 75 387h6q25 -215 74 -387l160 -555h311l207 1216h-277l-96 -597q-28 -180 -31 -402h-8q-6 71 -12 129q-14 119 -32 194q-11 42 -18 79l-150 536 h-263z"/>
            <glyph unicode="&#xe1f;" horiz-adv-x="1616"
                   d="M684 1155l-146 -536q-30 -121 -39 -167q-24 -119 -35 -235h-6q-4 238 -33 402l-95 597h-276l207 -1216h310l171 555q42 149 70 387h6q17 -149 85 -387l172 -555h301l196 1628h-263l-102 -1009q-20 -161 -20 -402h-6q-35 279 -74 402l-160 536h-263z"/>
            <glyph unicode="&#xe20;" horiz-adv-x="1367"
                   d="M469 238v272q0 82 30 127t98 69l-204 162q34 59 114.5 103t171.5 44q126 0 195.5 -65.5t69.5 -193.5v-756h282v756q0 223 -136 350q-146 135 -404 135q-219 0 -387 -117q-159 -111 -204 -264l198 -152q-106 -65 -106 -200v-251q0 -35 -33 -35h-100v-222h165 q124 0 187 62.5t63 175.5z"/>
            <glyph unicode="&#xe21;" horiz-adv-x="1347"
                   d="M924 1216v-767q1 -250 -203 -250q-90 0 -174 58q-83 57 -120 141v818h-282v-1216h253l29 149q62 -73 146 -118q107 -57 217 -57q199 0 308 118t109 345v779h-283z"/>
            <glyph unicode="&#xe22;" horiz-adv-x="1308"
                   d="M886 1216v-745q0 -126 -75.5 -199t-217.5 -73q-101 0 -164.5 50.5t-63.5 137.5q0 76 49 119t137 43h148l-24 217h-165q-60 0 -106 35.5t-46 95.5q0 51 38.5 79.5t109.5 28.5q67 0 136 -28l29 210q-97 46 -252 46q-152 0 -244 -84q-88 -80 -88 -207q0 -103 69 -187 q71 -86 150 -102q-96 -17 -157.5 -93t-61.5 -178q0 -199 140 -307q131 -101 359 -101q302 0 447 137q135 128 135 358v747h-282z"/>
            <glyph unicode="&#xe23;" horiz-adv-x="1102"
                   d="M506 199q-182 0 -352 94l-67 -215q186 -104 441 -104q239 0 366 100q121 96 121 254q0 167 -109 262q-89 77 -291 146q-56 19 -87.5 30.5t-69.5 28.5t-57 32.5t-32 36.5t-13 45q0 54 53.5 80t141.5 26q201 0 354 -81l74 199q-204 108 -441 108q-200 0 -328 -95 q-127 -96 -127 -239q0 -158 119 -256q50 -42 117 -72.5t163 -62.5q134 -44 177 -68q83 -46 83 -116q0 -66 -61.5 -99.5t-174.5 -33.5z"/>
            <glyph unicode="&#xe24;" horiz-adv-x="1351"
                   d="M425 257v253q0 155 137 204l-183 154q32 60 113 104q81 43 173 43q123 0 194 -66t71 -193v-1191h282v1191q0 219 -140 350q-146 135 -401 135q-218 0 -384 -117q-161 -113 -204 -264l176 -143q-52 -32 -84 -87t-32 -122v-270q0 -113 63 -175.5t187 -62.5h191v222h-126 q-33 0 -33 35z"/>
            <glyph unicode="&#xe25;" horiz-adv-x="1293"
                   d="M1152 0v790q0 205 -137 328t-373 123q-158 0 -294.5 -46t-229.5 -116l89 -195q193 141 423 141q124 0 185.5 -63t61.5 -172v-41h-243q-287 0 -425.5 -93.5t-138.5 -292.5q0 -184 121 -286q113 -96 298 -96q142 0 242 48l-45 205q-78 -37 -168 -37q-75 0 -123.5 45.5 t-48.5 122.5q0 91 68.5 129t198.5 38h264v-532h275z"/>
            <glyph unicode="&#xe26;" horiz-adv-x="1367"
                   d="M469 238v272q0 82 30 127t98 69l-204 162q34 59 114.5 103t171.5 44q126 0 195.5 -65.5t69.5 -193.5v-1191h282v1191q0 223 -136 350q-146 135 -404 135q-219 0 -387 -117q-159 -111 -204 -264l198 -152q-106 -65 -106 -200v-251q0 -35 -33 -35h-100v-222h165 q124 0 187 62.5t63 175.5z"/>
            <glyph unicode="&#xe27;" horiz-adv-x="1147"
                   d="M120 304l-66 -219q156 -111 430 -111q276 0 426.5 164.5t150.5 484.5q0 296 -150 457t-424 161q-115 0 -228 -34.5t-205 -94.5l66 -213q162 116 338 116q153 0 237 -101t84 -307q0 -201 -81.5 -304.5t-237.5 -103.5q-158 0 -340 105z"/>
            <glyph unicode="&#xe28;" horiz-adv-x="1384"
                   d="M423 538v216q0 115 71.5 188t197.5 73q128 0 199 -79q70 -78 70 -194v-742h283v744q0 191 -134 324l193 233h-311l-85 -98q-107 38 -215 38q-253 0 -404 -140q-147 -136 -147 -345v-756h282v276q21 73 74.5 110t149.5 37h128v235h-122q-167 0 -230 -120z"/>
            <glyph unicode="&#xe29;" horiz-adv-x="1380"
                   d="M677 -26q259 0 398 123t139 365v133h143l50 219h-193v402h-282v-402h-259v-219h259v-133q0 -125 -67 -194t-188 -69q-120 0 -187 69t-67 194v754h-282v-754q0 -242 139 -365t397 -123z"/>
            <glyph unicode="&#xe2a;" horiz-adv-x="1293"
                   d="M1152 0v790q0 171 -118 298l178 213h-311l-74 -92q-78 32 -185 32q-158 0 -294.5 -46t-229.5 -116l89 -195q193 141 423 141q119 0 186 -72q61 -65 61 -163v-41h-243q-287 0 -425.5 -93.5t-138.5 -292.5q0 -184 121 -286q113 -96 298 -96q142 0 242 48l-45 205 q-78 -37 -168 -37q-75 0 -123.5 45.5t-48.5 122.5q0 91 68.5 129t198.5 38h264v-532h275z"/>
            <glyph unicode="&#xe2b;" horiz-adv-x="1319" d="M1290 0l-196 588q-38 106 -97.5 170t-163.5 93l443 365h-356l-493 -413v413h-282v-1216h282v508l213 182q130 -8 189 -172l172 -518h289z"/>
            <glyph unicode="&#xe2c;" horiz-adv-x="1488"
                   d="M1344 0v936q0 121 -52.5 199.5t-147.5 97.5l323 395h-282l-304 -414l43 -104h29q60 0 91 -41.5t31 -111.5v-282q0 -195 35 -423h-8q-46 191 -116 326l-159 296h-174l-149 -296q-65 -124 -117 -326h-8q35 201 35 423v541h-269v-1216h309l193 417q56 113 91 260h4 q39 -155 91 -260l203 -417h308z"/>
            <glyph unicode="&#xe2d;" horiz-adv-x="1315"
                   d="M582 706h-278q-116 0 -168.5 -58t-52.5 -179v-37q0 -210 137 -332q142 -126 416 -126q279 0 436 162t157 477q0 297 -170 467q-164 161 -442 161q-293 0 -539 -170l92 -211q204 155 427 155q160 0 255 -103t95 -291q0 -216 -89 -319q-30 -34 -79 -59t-104.5 -37 t-112.5 -5.5t-102.5 30t-74.5 75.5t-29 126v7q0 41 39 41h187v226z"/>
            <glyph unicode="&#xe2e;" horiz-adv-x="1315"
                   d="M582 706h-278q-116 0 -168.5 -58t-52.5 -179v-37q0 -210 137 -332q142 -126 416 -126q279 0 436 162t157 477q0 292 -187 468l184 220h-310l-83 -96q-103 36 -216 36q-293 0 -539 -170l92 -211q204 155 427 155q158 0 254 -106.5t96 -287.5q0 -216 -89 -319 q-30 -34 -79 -59t-104.5 -37t-112.5 -5.5t-102.5 30t-74.5 75.5t-29 126v7q0 41 39 41h187v226z"/>
            <glyph unicode="&#xe2f;" horiz-adv-x="1206"
                   d="M1066 1216h-278v-72q0 -123 -89 -201q-84 -73 -200 -73q-72 0 -114 52.5t-42 160.5v133h-278v-133q0 -188 103 -310q105 -124 288 -124q108 0 195.5 50.5t131.5 131.5v-831h283v1216z"/>
            <glyph unicode="&#xe30;" horiz-adv-x="704"
                   d="M83 1073v-100q0 -128 72 -192q62 -56 173 -56h287v213h-222q-50 0 -50 50v85h-260zM83 487v-100q0 -128 72 -192q60 -56 173 -56h287v213h-222q-50 0 -50 50v85h-260z"/>
            <glyph unicode="&#xe31;" d="M-690 1724v-109q0 -128 72 -192q62 -56 173 -56h621v213h-555q-51 0 -51 50v94h-260z"/>
            <glyph unicode="&#xe32;" horiz-adv-x="1058" d="M918 0v773q0 220 -116.5 344t-337.5 124q-123 0 -241.5 -38.5t-214.5 -102.5l73 -201q176 116 360 116q195 0 195 -234v-781h282z"/>
            <glyph unicode="&#xe33;" horiz-adv-x="1058"
                   d="M-286 1336q106 0 173 69q72 72 72 171q0 98 -72 172q-69 69 -173 69q-101 0 -172 -69q-72 -72 -72 -172q0 -101 72 -171q69 -69 172 -69zM-286 1491q-33 0 -58 25.5t-25 61.5t24.5 60.5t58.5 24.5q36 0 60.5 -24t24.5 -61t-24 -62t-61 -25zM918 0v773q0 220 -116.5 344 t-337.5 124q-123 0 -241.5 -38.5t-214.5 -102.5l73 -201q176 116 360 116q195 0 195 -234v-781h282z"/>
            <glyph unicode="&#xe34;" d="M-141 1580h-988v-213h988v213z"/>
            <glyph unicode="&#xe35;" d="M-141 1787h-252v-207h-736v-213h988v420z"/>
            <glyph unicode="&#xe36;"
                   d="M-1129 1367h821q93 0 158 63.5t65 156.5q0 95 -64.5 158t-158.5 63q-95 0 -159.5 -64.5t-64.5 -163.5h-597v-213zM-308 1510q-31 0 -53.5 23t-22.5 56q0 34 22 56t54 22q33 0 54.5 -21.5t21.5 -56.5q0 -33 -22 -56t-54 -23z"/>
            <glyph unicode="&#xe37;" d="M-141 1787h-195v-217h-96v217h-196v-207h-501v-213h988v420z"/>
            <glyph unicode="&#xe38;" d="M-141 -610v272q0 104 -51 150.5t-158 46.5h-182v-209h83q51 0 51 -52v-208h257z"/>
            <glyph unicode="&#xe39;"
                   d="M-466 -630q152 0 238.5 68t86.5 178v243h-248v-243q0 -35 -21.5 -52.5t-55.5 -17.5t-56.5 17.5t-22.5 52.5v243h-369v-197h126v-46q0 -111 84.5 -178.5t237.5 -67.5z"/>
            <glyph unicode="&#xe3a;" d="M-102 -298q0 70 -51 121t-125 51q-68 0 -121 -51q-53 -53 -53 -121q0 -67 53 -118q52 -50 121 -50q73 0 124.5 49t51.5 119z"/>
            <glyph unicode="&#xe3f;" horiz-adv-x="1280"
                   d="M721 -217v219q226 11 351 131q111 105 111 281q0 134 -67 218.5t-178 116.5q81 43 127 105q62 83 62 182q0 164 -102 263t-304 114v215h-139v-213h-430v-1415h430v-217h139zM421 1189h161v-348h-161v348zM862 1021q0 -74 -38 -118.5t-103 -57.5v338q67 -13 104 -55.5 t37 -106.5zM421 619h161v-393h-161v393zM914 427q0 -80 -50.5 -131t-142.5 -66v383q193 -30 193 -186z"/>
            <glyph unicode="&#xe40;" horiz-adv-x="576" d="M147 0h283v1216h-283v-1216z"/>
            <glyph unicode="&#xe41;" horiz-adv-x="1071" d="M147 0h283v1216h-283v-1216zM642 0h282v1216h-282v-1216z"/>
            <glyph unicode="&#xe42;" horiz-adv-x="655"
                   d="M508 0v1285q0 287 -241 430q104 98 276 98q184 0 343 -79l46 228q-95 36 -186 55t-216 19q-188 0 -329 -75.5t-216 -195.5l4 -74q95 -41 155 -124q80 -110 80 -264v-1303h284z"/>
            <glyph unicode="&#xe43;" horiz-adv-x="655"
                   d="M508 0v1102q0 40 9 76t33 77.5t36.5 59.5t49.5 68q41 56 63.5 91.5t43.5 96t21 122.5q0 146 -97 241q-105 102 -272 102q-277 0 -443 -211l104 -170q71 81 133 119.5t147 38.5q74 0 111 -40t37 -101q0 -16 -3.5 -32.5t-12 -35.5t-15 -32.5t-22 -36t-23.5 -33.5t-28 -37.5 t-27 -36.5q-61 -83 -95 -155.5t-34 -154.5v-1118h284z"/>
            <glyph unicode="&#xe44;" horiz-adv-x="655" d="M508 0v1407q0 297 206 389v203h-714v-223h419q-195 -100 -195 -388v-1388h284z"/>
            <glyph unicode="&#xe45;" horiz-adv-x="1058" d="M918 -435v1208q0 220 -116.5 344t-337.5 124q-123 0 -241.5 -38.5t-214.5 -102.5l73 -201q176 116 360 116q195 0 195 -234v-1216h282z"/>
            <glyph unicode="&#xe46;" horiz-adv-x="1258"
                   d="M1118 -435v1316q0 159 -88 254.5t-251 105.5l-189 -131l-190 134q-134 -11 -222 -88q-100 -87 -100 -234q0 -160 98 -253q85 -81 215 -81q99 0 176 42l-37 190q-44 -17 -67 -18q-16 -1 -33 -1q-38 0 -68 33t-30 86q0 107 63 124l195 -128l176 126q69 -14 69 -126v-1351 h283z"/>
            <glyph unicode="&#xe47;"
                   d="M-215 1561h-176q-79 0 -98 65l-136 -2q-9 -41 -38.5 -67t-72.5 -26q-37 0 -63 25t-26 64q0 84 113 84h495v193h-502q-152 0 -239 -84q-82 -80 -82 -191q0 -128 78 -196.5t208 -68.5q73 0 123.5 33.5t77.5 88.5q25 -51 71 -81.5t100 -30.5h167v194z"/>
            <glyph unicode="&#xe48;" d="M-141 2260h-252v-356h252v356z"/>
            <glyph unicode="&#xe49;" d="M-346 2136v41q0 120 -138 120h-220v-202h126q16 1 23.5 -7t7.5 -25v-55q0 -48 30 -76t80 -28h413v200h-291q-16 -1 -23.5 7t-7.5 25z"/>
            <glyph unicode="&#xe4a;"
                   d="M-384 1904h127q123 0 204 89q79 85 79 199q0 69 -26 126h-215q35 -68 35 -118q0 -54 -13.5 -109t-40.5 -85q4 12 4 27v26q0 80 -51 137q-55 60 -140 64l-122 -100l-130 98q-93 -4 -157 -73q-54 -57 -54 -132q0 -88 43 -153h192q-11 22 -14.5 31t-7.5 30t-4 47q0 56 33 67 l104 -60l101 67q27 -4 43 -25q15 -21 14 -58.5t-18 -61.5z"/>
            <glyph unicode="&#xe4b;" d="M-375 2063l-7 -159h230l-7 159l194 -8v188l-194 -7l7 159h-230l7 -159l-194 7v-188z"/>
            <glyph unicode="&#xe4c;" d="M-29 2038h-238q-129 0 -196 -61t-67 -169v-115h259v76q0 28 15 43t41 15h186v211z"/>
            <glyph unicode="&#xe4d;"
                   d="M-286 1336q106 0 173 69q72 72 72 171q0 98 -72 172q-69 69 -173 69q-101 0 -172 -69q-72 -72 -72 -172q0 -101 72 -171q69 -69 172 -69zM-286 1491q-33 0 -58 25.5t-25 61.5t24.5 60.5t58.5 24.5q36 0 60.5 -24t24.5 -61t-24 -62t-61 -25z"/>
            <glyph unicode="&#xe4e;"
                   d="M-304 1398v143q-74 -28 -141 -28q-44 0 -70 19.5t-26 50.5q0 28 30 44t70 16q73 0 151 -25l45 101q-25 12 -39.5 20.5t-26.5 20.5t-12 24q0 14 7.5 23.5t17.5 9.5h178l-39 155h-177q-83 0 -122 -32.5t-39 -79.5q0 -52 45 -91q-142 21 -220 -42q-70 -57 -70 -157 q0 -111 73 -163t200 -52q92 0 165 43z"/>
            <glyph unicode="&#xe4f;" horiz-adv-x="1185"
                   d="M593 56q94 0 179 36.5t149 101.5q134 134 134 328q0 191 -134 327q-64 64 -149 99.5t-179 35.5q-193 0 -328 -135t-135 -327q0 -195 135 -328q64 -65 149 -101.5t179 -36.5zM593 154q-152 0 -259 107q-108 108 -108 261q0 149 108 257q109 109 259 109q151 0 260 -109 q106 -106 106 -257q0 -155 -106 -261q-107 -107 -260 -107zM593 254q109 0 187 78q80 78 80 190q0 109 -79 188q-78 78 -191 78q-110 0 -187 -77q-80 -80 -80 -193q0 -110 79 -186q80 -78 191 -78zM593 412q-45 0 -77 31.5t-32 74.5q0 44 31.5 75.5t74.5 31.5q44 0 75 -30 t31 -73q0 -46 -30 -78t-73 -32z"/>
            <glyph unicode="&#xe50;" horiz-adv-x="1410"
                   d="M87 526q0 -255 181 -407q173 -145 438 -145q264 0 437 145q181 153 181 407q0 126 -48 230t-133 176q-174 143 -437 143q-264 0 -438 -143q-86 -71 -133.5 -175t-47.5 -231zM365 526q0 152 98 245q94 91 241 91q149 0 245 -91q97 -94 97 -245q0 -152 -97 -247 q-94 -92 -245 -92q-149 0 -241 92q-98 95 -98 247z"/>
            <glyph unicode="&#xe51;" horiz-adv-x="1438"
                   d="M522 -245h64q336 0 544 176q223 187 223 516q0 288 -183 460q-180 168 -480 168q-267 0 -435 -135q-172 -140 -172 -373q0 -227 144 -351q132 -114 340 -114q135 0 236 61l-22 189q-86 -41 -214 -41q-93 0 -150 68.5t-57 189.5q0 134 92.5 213.5t243.5 79.5 q170 0 272 -105q107 -112 107 -314q0 -237 -146 -365q-127 -111 -324 -111h-58z"/>
            <glyph unicode="&#xe52;" horiz-adv-x="1657"
                   d="M1529 439v240q0 184 -78.5 277.5t-249.5 118.5l-198 -157l-218 157q-143 -29 -211 -121q-68 -93 -68 -200q0 -156 90.5 -247.5t246.5 -113.5l56 158q-61 21 -96 70.5t-35 105.5q0 46 20.5 81t49.5 45l165 -109l161 109q87 -30 87 -169v-245q0 -106 -48.5 -166t-127.5 -60 h-485q-81 0 -129.5 60.5t-48.5 165.5v777h-277v-777q0 -201 115 -316q120 -123 330 -123h503q210 0 330 123q116 118 116 316z"/>
            <glyph unicode="&#xe53;" horiz-adv-x="1477"
                   d="M864 391v317q0 73 28.5 114.5t84.5 41.5q94 0 94 -143v-721h277v719q0 167 -91 261q-95 95 -236 95q-105 0 -169.5 -40.5t-107.5 -116.5q-70 157 -240 157q-181 0 -296 -146q-117 -149 -117 -395q0 -262 116.5 -406.5t322.5 -144.5q101 0 178 65l-50 171 q-62 -28 -111 -28q-84 0 -131 94t-47 251q0 145 39 235q40 93 120 93q53 0 73 -39t20 -117v-317h243z"/>
            <glyph unicode="&#xe54;" horiz-adv-x="1356"
                   d="M1307 209h-167q-94 0 -140.5 37t-46.5 100q0 47 30 75t72 28h89l45 209h-190q-135 0 -215 -58q-92 -67 -92 -205q0 -94 50 -167q-55 -41 -143 -41q-100 0 -167 90.5t-67 236.5q0 321 310 321h261q179 0 276 76t97 226v79h-273v-79q0 -44 -26 -66.5t-101 -22.5h-236 q-265 0 -421 -132q-165 -141 -165 -404q0 -246 135 -394q129 -144 338 -144q179 0 273 104q48 -43 107 -60.5t152 -17.5h169z"/>
            <glyph unicode="&#xe55;" horiz-adv-x="1356"
                   d="M1307 209h-167q-94 0 -140.5 37t-46.5 100q0 47 30 75t72 28h89l45 209h-190q-135 0 -215 -58q-92 -67 -92 -205q0 -94 50 -167q-55 -41 -143 -41q-100 0 -167 90.5t-67 236.5q0 321 310 321h261q181 0 277 75.5t96 226.5v79h-273v-79q0 -44 -26 -66.5t-101 -22.5h-60 q0 9 1 14q1 4 1 13q0 99 -68.5 165.5t-167.5 66.5q-47 0 -90 -17q-87 -37 -124 -123q-33 -73 -8 -166q-147 -58 -226.5 -181t-79.5 -308q0 -246 135 -394q129 -144 338 -144q179 0 273 104q48 -43 107 -60.5t152 -17.5h169zM615 1001q-29 0 -50.5 22.5t-21.5 53.5 q0 32 21 53.5t51 21.5q32 0 53.5 -21t21.5 -54q0 -31 -21.5 -53.5t-53.5 -22.5z"/>
            <glyph unicode="&#xe56;" horiz-adv-x="1351"
                   d="M452 487l-193 138q-129 -106 -129 -265q0 -174 135 -276q146 -110 388 -110q299 0 466 174q147 153 147 390q0 238 -163 393q-152 144 -374 144q-117 0 -214 -42.5t-157 -110.5l-78 315h-280l170 -499h212q48 60 122.5 92t164.5 32q149 0 234 -86t85 -231 q0 -151 -86 -251q-92 -107 -247 -107q-123 0 -189 48.5t-66 122.5q0 64 52 129z"/>
            <glyph unicode="&#xe57;" horiz-adv-x="1807"
                   d="M788 651v74q0 73 16.5 106t59.5 33q87 0 87 -130v-734h317q204 0 307 99.5t103 275.5v841h-269v-853q0 -176 -148 -176h-41v532q0 165 -76 260.5t-206 95.5q-184 0 -248 -139q-49 139 -206 139q-175 0 -284 -146t-109 -395q0 -262 116.5 -406.5t322.5 -144.5 q101 0 178 65l-50 171q-62 -28 -111 -28q-84 0 -131 94t-47 251q0 155 33 235q37 93 108 93q49 0 63.5 -30.5t14.5 -108.5v-74h200z"/>
            <glyph unicode="&#xe58;" horiz-adv-x="1447"
                   d="M644 835h313q179 0 276 76t97 226v79h-273v-79q0 -44 -25.5 -66.5t-99.5 -22.5h-300q-229 0 -368 -122q-138 -119 -138 -311v-252q0 -177 103 -274t299 -102l230 180l255 -182q134 4 246 118q111 113 111 257q0 149 -84.5 241.5t-241.5 117.5l-83 -207q63 -9 103.5 -47 t40.5 -98q0 -49 -25.5 -85t-66.5 -54l-257 170l-242 -172q-110 9 -110 165v212q0 108 61.5 170t178.5 62z"/>
            <glyph unicode="&#xe59;" horiz-adv-x="1397"
                   d="M1174 0l-273 781q0 38 22.5 64.5t60.5 26.5q44 0 71 -24t43 -88h209l91 456h-240l-42 -255q-45 114 -161 114q-70 0 -113 -42t-45 -107q-37 73 -108.5 111t-170.5 38q-91 0 -170 -37t-136 -106q-125 -151 -125 -391q0 -262 126 -415q119 -147 303 -147q130 0 224 69 l-56 186q-82 -43 -152 -43q-67 0 -117 89t-50 263q0 144 44 231.5t119 87.5q48 0 74 -29.5t53 -98.5l259 -734h260z"/>
            <glyph unicode="&#xe5a;" horiz-adv-x="1759"
                   d="M1066 0v632q88 14 160.5 69.5t111.5 129.5v-831h282v1216h-278v-72q0 -123 -85 -208q-82 -82 -191 -87v367h-278v-72q0 -123 -89 -201q-84 -73 -200 -73q-72 0 -114 52.5t-42 160.5v133h-278v-133q0 -188 103 -310q105 -124 288 -124q108 0 195.5 50.5t131.5 131.5v-831 h283z"/>
            <glyph unicode="&#xe5b;" horiz-adv-x="2504"
                   d="M2484 400l-57 147q-79 -29 -138 -29q-101 0 -165 91t-69 263h-116l-91 -288l-120 338h-128l-104 -358l-141 404h-133q-6 -114 -42 -234t-97 -218q-67 -108 -163.5 -170t-217.5 -62q-158 0 -256 93q-103 95 -103 253q0 132 73 221q80 98 209 98q98 0 158 -72t68 -191h195 q-5 185 -111 308q-120 137 -307 137q-216 0 -361 -142q-141 -139 -141 -359q0 -235 151 -384q153 -155 405 -155q227 0 403 131q164 121 237 325l120 -334h114l118 377l126 -338h112l83 266q101 -158 273 -158q89 0 216 40z"/>
            <glyph unicode="&#x1e00;" horiz-adv-x="1365"
                   d="M497 1463l-456 -1463h291l115 402h443l123 -402h302l-460 1463h-358zM493 615l102 344q49 191 67 280h7l71 -280l107 -344h-354zM890 -321q0 91 -61 152t-152 61q-86 0 -148 -62q-63 -61 -63 -151q0 -88 63 -149q62 -62 148 -62q88 0 152 62q61 61 61 149zM773 -321 q0 -37 -28.5 -65t-67.5 -28q-37 0 -65 28t-28 65q0 39 28 67t65 28q40 0 68 -28t28 -67z"/>
            <glyph unicode="&#x1e01;" horiz-adv-x="1098"
                   d="M727 0h252q-15 76 -15 254v380q2 447 -438 447q-234 0 -385 -93l54 -180q127 76 281 76q206 0 206 -172v-18q-294 0 -454.5 -103t-160.5 -298q0 -133 85 -219q47 -49 119.5 -74.5t149.5 -23.5t153.5 37.5t127.5 102.5h6zM690 514v-141q0 -37 -6 -58q-19 -59 -73 -99 t-122 -40q-146 0 -146 147q-1 97 86 144.5t261 46.5zM736 -346q0 92 -60.5 153t-151.5 61q-87 0 -149 -62q-62 -64 -62 -152q0 -84 62 -148q59 -61 149 -61q89 0 150 61q62 62 62 148zM619 -346q0 -37 -28 -65t-67 -28q-37 0 -65.5 28t-28.5 65q0 39 28.5 67.5t65.5 28.5 q38 0 66.5 -28t28.5 -68z"/>
            <glyph unicode="&#x1e02;" horiz-adv-x="1247"
                   d="M634 1717q0 57 -36 95t-92 38q-57 0 -96 -38.5t-39 -94.5q0 -57 38 -95.5t95 -38.5q56 0 93 38.5t37 95.5zM1166 423q0 138 -82 233t-212 129v5q242 87 242 315q-1 180 -149 274.5t-422 94.5q-235 0 -394 -30v-1440q136 -19 331 -19q186 0 322 34t214 95.5t114 138 t36 170.5zM831 1075q0 -94 -74 -150.5t-204 -56.5h-126v387q51 13 146 13q258 0 258 -193zM870 435q0 -123 -93 -185q-50 -32 -129 -44t-131 -10t-90 9v462h124q144 -1 231.5 -61t87.5 -171z"/>
            <glyph unicode="&#x1e03;" horiz-adv-x="1253"
                   d="M740 1782q0 57 -35.5 94.5t-91.5 37.5q-58 0 -96.5 -38t-38.5 -94q0 -57 37.5 -96t94.5 -39q56 0 93 39t37 96zM1179 547q0 239 -120 386.5t-310 147.5q-222 0 -326 -161h-4v619h-280v-1237q0 -188 -9 -302h239l13 154h5q103 -178 321 -178q95 0 180 40t150 112 t103 180.5t38 238.5zM895 534q0 -156 -66.5 -245.5t-184.5 -89.5q-99 0 -161 70q-64 72 -64 168v176q0 103 65 174q68 75 163 75q115 0 181.5 -90.5t66.5 -237.5z"/>
            <glyph unicode="&#x1e04;" horiz-adv-x="1247"
                   d="M1166 423q0 138 -82 233t-212 129v5q242 87 242 315q-1 180 -149 274.5t-422 94.5q-235 0 -394 -30v-1440q136 -19 331 -19q186 0 322 34t214 95.5t114 138t36 170.5zM831 1075q0 -94 -74 -150.5t-204 -56.5h-126v387q51 13 146 13q258 0 258 -193zM870 435 q0 -123 -93 -185q-50 -32 -129 -44t-131 -10t-90 9v462h124q144 -1 231.5 -61t87.5 -171zM610 -257q0 57 -36 95t-92 38q-57 0 -95.5 -38t-38.5 -95q0 -56 38 -95t94 -39t93 38.5t37 95.5z"/>
            <glyph unicode="&#x1e05;" horiz-adv-x="1253"
                   d="M1179 547q0 239 -120 386.5t-310 147.5q-222 0 -326 -161h-4v619h-280v-1237q0 -188 -9 -302h239l13 154h5q103 -178 321 -178q95 0 180 40t150 112t103 180.5t38 238.5zM895 534q0 -156 -66.5 -245.5t-184.5 -89.5q-99 0 -161 70q-64 72 -64 168v176q0 103 65 174 q68 75 163 75q115 0 181.5 -90.5t66.5 -237.5zM785 -265q0 57 -35.5 95t-91.5 38q-57 0 -95.5 -38.5t-38.5 -94.5q0 -57 37.5 -96t93.5 -39t93 39t37 96z"/>
            <glyph unicode="&#x1e06;" horiz-adv-x="1247"
                   d="M1166 423q0 138 -82 233t-212 129v5q242 87 242 315q-1 180 -149 274.5t-422 94.5q-235 0 -394 -30v-1440q136 -19 331 -19q186 0 322 34t214 95.5t114 138t36 170.5zM831 1075q0 -94 -74 -150.5t-204 -56.5h-126v387q51 13 146 13q258 0 258 -193zM870 435 q0 -123 -93 -185q-50 -32 -129 -44t-131 -10t-90 9v462h124q144 -1 231.5 -61t87.5 -171zM247 -124v-149h519v149h-519z"/>
            <glyph unicode="&#x1e07;" horiz-adv-x="1253"
                   d="M1179 547q0 239 -120 386.5t-310 147.5q-222 0 -326 -161h-4v619h-280v-1237q0 -188 -9 -302h239l13 154h5q103 -178 321 -178q95 0 180 40t150 112t103 180.5t38 238.5zM895 534q0 -156 -66.5 -245.5t-184.5 -89.5q-99 0 -161 70q-64 72 -64 168v176q0 103 65 174 q68 75 163 75q115 0 181.5 -90.5t66.5 -237.5zM395 -132v-150h519v150h-519z"/>
            <glyph unicode="&#x1e08;" horiz-adv-x="1251"
                   d="M692 1593h192l262 321h-269zM1133 1198l61 223q-51 27 -127.5 44.5t-176 20t-200 -13.5t-205.5 -64t-185 -125q-224 -210 -224 -569q0 -300 156.5 -491.5t436.5 -233.5l-87 -165q167 -18 167 -85q0 -58 -80 -58q-59 0 -120 33l-39 -114q68 -39 167 -39q247 0 247 182 q0 62 -43.5 105.5t-109.5 51.5l45 79q246 1 369 62l-50 222q-120 -50 -277 -50q-230 0 -358.5 135.5t-128.5 378.5q0 255 139 393q63 63 149 96.5t172 36t164 -12t138 -42.5z"/>
            <glyph unicode="&#x1e09;" horiz-adv-x="957"
                   d="M495 1189h191l263 321h-270zM909 31l-39 207q-94 -39 -199 -39q-136 0 -223.5 91.5t-87.5 239.5q0 146 83 239t226 93q111 0 193 -39l45 213q-108 45 -249 45q-271 0 -430 -163q-154 -154 -154 -396q0 -217 113.5 -358.5t309.5 -174.5l-85 -167q168 -10 168 -83 q0 -58 -83 -58q-59 0 -118 33l-38 -112q62 -41 165 -41q250 0 250 185q0 60 -48 107q-47 40 -107 47l46 79q152 1 262 52z"/>
            <glyph unicode="&#x1e0a;" horiz-adv-x="1458"
                   d="M686 1717q0 57 -36 95t-92 38q-57 0 -96 -38.5t-39 -94.5t38 -95t94 -39q57 0 94 38.5t37 95.5zM1383 766q0 364 -231 549q-197 159 -583 159q-233 0 -420 -30v-1440q146 -19 355 -19q432 0 655.5 199t223.5 582zM1088 758q0 -271 -136 -411t-388 -138q-100 0 -134 6 v1026q70 14 167 14q237 0 364 -127.5t127 -369.5z"/>
            <glyph unicode="&#x1e0b;" horiz-adv-x="1247"
                   d="M727 1782q0 57 -36 94.5t-92 37.5q-57 0 -96 -38t-39 -94t38.5 -95.5t94.5 -39.5t93 39t37 96zM868 0h250q-8 142 -8 302v1237h-283v-588h-4q-78 130 -285 130q-190 0 -325 -147q-139 -154 -139 -416q0 -240 131 -392q60 -74 151.5 -113t183.5 -37.5t177.5 49 t133.5 136.5h4zM827 619v-163q0 -106 -54 -176q-64 -79 -168 -79q-115 0 -181 90t-66 237q0 152 67 244t185 92q80 0 142 -52q54 -48 71 -128q4 -20 4 -65z"/>
            <glyph unicode="&#x1e0c;" horiz-adv-x="1458"
                   d="M1383 766q0 364 -231 549q-197 159 -583 159q-233 0 -420 -30v-1440q146 -19 355 -19q432 0 655.5 199t223.5 582zM1088 758q0 -271 -136 -411t-388 -138q-100 0 -134 6v1026q70 14 167 14q237 0 364 -127.5t127 -369.5zM599 -257q0 57 -36 95t-92 38q-57 0 -96 -38 t-39 -95t38 -95.5t95 -38.5q56 0 93 38.5t37 95.5z"/>
            <glyph unicode="&#x1e0d;" horiz-adv-x="1247"
                   d="M868 0h250q-8 142 -8 302v1237h-283v-588h-4q-78 130 -285 130q-190 0 -325 -147q-139 -154 -139 -416q0 -240 131 -392q60 -74 151.5 -113t183.5 -37.5t177.5 49t133.5 136.5h4zM827 619v-163q0 -106 -54 -176q-64 -79 -168 -79q-115 0 -181 90t-66 237q0 152 67 244 t185 92q80 0 142 -52q54 -48 71 -128q4 -20 4 -65zM727 -265q0 57 -36 95t-92 38t-95.5 -38.5t-39.5 -94.5t38.5 -95.5t94.5 -39.5t93 39t37 96z"/>
            <glyph unicode="&#x1e0e;" horiz-adv-x="1458"
                   d="M1383 766q0 364 -231 549q-197 159 -583 159q-233 0 -420 -30v-1440q146 -19 355 -19q432 0 655.5 199t223.5 582zM1088 758q0 -271 -136 -411t-388 -138q-100 0 -134 6v1026q70 14 167 14q237 0 364 -127.5t127 -369.5zM319 -124v-149h519v149h-519z"/>
            <glyph unicode="&#x1e0f;" horiz-adv-x="1247"
                   d="M868 0h250q-8 142 -8 302v1237h-283v-588h-4q-78 130 -285 130q-190 0 -325 -147q-139 -154 -139 -416q0 -240 131 -392q60 -74 151.5 -113t183.5 -37.5t177.5 49t133.5 136.5h4zM827 619v-163q0 -106 -54 -176q-64 -79 -168 -79q-115 0 -181 90t-66 237q0 152 67 244 t185 92q80 0 142 -52q54 -48 71 -128q4 -20 4 -65zM336 -132v-150h519v150h-519z"/>
            <glyph unicode="&#x1e10;" horiz-adv-x="1458"
                   d="M1383 766q0 364 -231 549q-197 159 -583 159q-233 0 -420 -30v-1440q146 -19 355 -19q432 0 655.5 199t223.5 582zM1088 758q0 -271 -136 -411t-388 -138q-100 0 -134 6v1026q70 14 167 14q237 0 364 -127.5t127 -369.5zM829 -149l-265 -21q-38 -268 -132 -522l171 15 q126 206 226 528z"/>
            <glyph unicode="&#x1e11;" horiz-adv-x="1247"
                   d="M868 0h250q-8 142 -8 302v1237h-283v-588h-4q-78 130 -285 130q-190 0 -325 -147q-139 -154 -139 -416q0 -240 131 -392q60 -74 151.5 -113t183.5 -37.5t177.5 49t133.5 136.5h4zM827 619v-163q0 -106 -54 -176q-64 -79 -168 -79q-115 0 -181 90t-66 237q0 152 67 244 t185 92q80 0 142 -52q54 -48 71 -128q4 -20 4 -65zM829 -149l-265 -21q-38 -268 -132 -522l171 15q126 206 226 528z"/>
            <glyph unicode="&#x1e12;" horiz-adv-x="1458"
                   d="M1383 766q0 364 -231 549q-197 159 -583 159q-233 0 -420 -30v-1440q146 -19 355 -19q432 0 655.5 199t223.5 582zM1088 758q0 -271 -136 -411t-388 -138q-100 0 -134 6v1026q70 14 167 14q237 0 364 -127.5t127 -369.5zM454 -124l-209 -321h182l114 191h4l110 -191h188 l-213 321h-176z"/>
            <glyph unicode="&#x1e13;" horiz-adv-x="1247"
                   d="M868 0h250q-8 142 -8 302v1237h-283v-588h-4q-78 130 -285 130q-190 0 -325 -147q-139 -154 -139 -416q0 -240 131 -392q60 -74 151.5 -113t183.5 -37.5t177.5 49t133.5 136.5h4zM827 619v-163q0 -106 -54 -176q-64 -79 -168 -79q-115 0 -181 90t-66 237q0 152 67 244 t185 92q80 0 142 -52q54 -48 71 -128q4 -20 4 -65zM506 -132l-208 -322h182l113 191h4l111 -191h187l-213 322h-176z"/>
            <glyph unicode="&#x1e14;" horiz-adv-x="1108" d="M245 2152l263 -322h191l-185 322h-269zM330 1721v-149h519v149h-519zM430 232v410h536v230h-536v359h566v232h-847v-1463h880v232h-599z"/>
            <glyph unicode="&#x1e15;" horiz-adv-x="1108"
                   d="M211 1771l262 -321h192l-185 321h-269zM298 1342v-151h518v151h-518zM1040 569q0 107 -28 198.5t-82.5 162.5t-142 112t-199.5 41q-117 0 -215 -45t-162.5 -122.5t-100.5 -180.5t-36 -219q0 -247 144 -391t399 -144q210 0 367 65l-42 192q-129 -47 -284 -47 q-135 1 -221.5 67.5t-93.5 190.5h688q9 43 9 120zM777 644h-434q12 106 70.5 177.5t157.5 71.5q53 0 94 -21t65 -57t35.5 -79t11.5 -92z"/>
            <glyph unicode="&#x1e16;" horiz-adv-x="1108" d="M464 1830h191l263 322h-269zM330 1721v-149h519v149h-519zM430 232v410h536v230h-536v359h566v232h-847v-1463h880v232h-599z"/>
            <glyph unicode="&#x1e17;" horiz-adv-x="1108"
                   d="M432 1450h191l263 321h-269zM298 1342v-151h518v151h-518zM1040 569q0 107 -28 198.5t-82.5 162.5t-142 112t-199.5 41q-117 0 -215 -45t-162.5 -122.5t-100.5 -180.5t-36 -219q0 -247 144 -391t399 -144q210 0 367 65l-42 192q-129 -47 -284 -47q-135 1 -221.5 67.5 t-93.5 190.5h688q9 43 9 120zM777 644h-434q12 106 70.5 177.5t157.5 71.5q53 0 94 -21t65 -57t35.5 -79t11.5 -92z"/>
            <glyph unicode="&#x1e18;" horiz-adv-x="1108" d="M430 232v410h536v230h-536v359h566v232h-847v-1463h880v232h-599zM499 -108l-209 -322h183l113 192h4l112 -192h186l-213 322h-176z"/>
            <glyph unicode="&#x1e19;" horiz-adv-x="1108"
                   d="M1040 569q0 107 -28 198.5t-82.5 162.5t-142 112t-199.5 41q-117 0 -215 -45t-162.5 -122.5t-100.5 -180.5t-36 -219q0 -247 144 -391t399 -144q210 0 367 65l-42 192q-129 -47 -284 -47q-135 1 -221.5 67.5t-93.5 190.5h688q9 43 9 120zM777 644h-434q12 106 70.5 177.5 t157.5 71.5q53 0 94 -21t65 -57t35.5 -79t11.5 -92zM466 -128l-207 -321h182l112 190h5l111 -190h186l-213 321h-176z"/>
            <glyph unicode="&#x1e1a;" horiz-adv-x="1108"
                   d="M430 232v410h536v230h-536v359h566v232h-847v-1463h880v232h-599zM874 -108h-122q-3 -37 -11.5 -58t-19 -30t-31 -5.5t-39.5 12t-52 26.5q-85 45 -141 45q-75 0 -115.5 -63.5t-40.5 -176.5v-9h130q4 96 52 96q28 0 89 -35q81 -48 144 -48q157 0 157 236v10z"/>
            <glyph unicode="&#x1e1b;" horiz-adv-x="1108"
                   d="M1040 569q0 107 -28 198.5t-82.5 162.5t-142 112t-199.5 41q-117 0 -215 -45t-162.5 -122.5t-100.5 -180.5t-36 -219q0 -247 144 -391t399 -144q210 0 367 65l-42 192q-129 -47 -284 -47q-135 1 -221.5 67.5t-93.5 190.5h688q9 43 9 120zM777 644h-434q12 106 70.5 177.5 t157.5 71.5q53 0 94 -21t65 -57t35.5 -79t11.5 -92zM843 -128h-124q-7 -94 -57 -94q-24 0 -95 40q-86 45 -142 45q-74 0 -115 -63.5t-41 -176.5v-10h131q4 97 52 97q27 0 89 -35q79 -48 143 -48q159 0 159 236v9z"/>
            <glyph unicode="&#x1e1c;" horiz-adv-x="1108"
                   d="M586 1572q-134 0 -207 81q-62 77 -62 188h139q17 -134 130 -134q124 0 135 134h139q0 -125 -71.5 -197t-202.5 -72zM704 0l-62 -108q60 -9 107 -48q48 -46 48 -107q0 -184 -250 -184q-103 0 -165 41l39 110q40 -23 86 -31t80 6.5t34 51.5q0 71 -167 82l95 187h-400v1463 h847v-232h-566v-359h536v-230h-536v-410h599v-232h-325z"/>
            <glyph unicode="&#x1e1d;" horiz-adv-x="1108"
                   d="M827 1461h-139q-10 -135 -135 -135q-113 0 -130 135h-139q2 -113 64 -189q71 -81 205 -81q131 0 202.5 72.5t71.5 197.5zM1040 569q0 107 -28 198.5t-82.5 162.5t-142 112t-199.5 41q-117 0 -215 -45t-162.5 -122.5t-100.5 -180.5t-36 -219q0 -247 144 -391t399 -144 q210 0 367 65l-42 192q-129 -47 -284 -47q-135 1 -221.5 67.5t-93.5 190.5h688q9 43 9 120zM777 644h-434q12 106 70.5 177.5t157.5 71.5q53 0 94 -21t65 -57t35.5 -79t11.5 -92zM764 -282q0 59 -47 106q-46 39 -107 48l61 109h-155l-95 -188q167 -9 167 -81q0 -60 -80 -60 q-60 0 -119 33l-39 -110q61 -41 164 -41q250 0 250 184z"/>
            <glyph unicode="&#x1e1e;" horiz-adv-x="1093"
                   d="M704 1707q0 57 -36 94.5t-92 37.5q-58 0 -96.5 -38t-38.5 -94q0 -58 38 -96.5t94 -38.5q57 0 94 39t37 96zM149 1463v-1463h281v615h523v228h-523v388h562v232h-843z"/>
            <glyph unicode="&#x1e1f;" horiz-adv-x="696"
                   d="M518 1806q0 57 -35.5 95t-91.5 38q-57 0 -95.5 -38.5t-38.5 -94.5t38 -95t94 -39t92.5 38.5t36.5 95.5zM729 1320l18 217q-76 27 -169 27q-181 -2 -293.5 -119.5t-112.5 -342.5v-43h-143v-208h143v-851h280v851h223v208h-223v55q0 226 167 226q60 -2 110 -20z"/>
            <glyph unicode="&#x1e20;" horiz-adv-x="1423"
                   d="M621 1736v-149h519v149h-519zM795 814v-221h241v-355q-60 -23 -183 -23q-221 0 -349 137q-133 142 -133 379q0 246 143 383q65 62 158.5 95t188 35t183.5 -14t159 -47l61 228q-73 36 -188 54.5t-249.5 13.5t-277 -56.5t-247.5 -146.5q-226 -211 -226 -559 q-3 -342 204 -539q96 -92 230.5 -141t275.5 -53t273.5 17t249.5 64v749h-514z"/>
            <glyph unicode="&#x1e21;" horiz-adv-x="1228"
                   d="M273 1340v-151h520v151h-520zM845 922h-4q-92 159 -296 159q-193 0 -328 -147q-143 -161 -143 -410q-1 -227 123 -372.5t317 -145.5q199 0 296 148h4v-82q0 -308 -288 -308q-169 0 -302 80l-59 -215q139 -81 363 -81q262 0 408 129q156 137 156 475v597q0 171 8 310h-245 zM812 636v-176q0 -55 -13 -93q-47 -150 -200 -150q-109 0 -175 88t-66 227q0 154 67.5 244t175.5 90q96 0 153.5 -65t57.5 -165z"/>
            <glyph unicode="&#x1e22;" horiz-adv-x="1442"
                   d="M853 1707q0 57 -36 94.5t-92 37.5q-57 0 -96 -38t-39 -94q0 -58 38.5 -96.5t94.5 -38.5t93 39t37 96zM1011 1463v-582h-581v582h-281v-1463h281v636h581v-636h283v1463h-283z"/>
            <glyph unicode="&#x1e23;" horiz-adv-x="1228"
                   d="M749 1782q0 57 -36 94.5t-92 37.5q-57 0 -95.5 -38t-38.5 -94q0 -57 38 -96t94 -39t93 39t37 96zM1094 0v625q0 230 -110 352q-99 104 -253 104q-198 0 -308 -161h-4v619h-280v-1539h280v634q0 92 57.5 155.5t146.5 63.5q189 0 189 -258v-595h282z"/>
            <glyph unicode="&#x1e24;" horiz-adv-x="1442"
                   d="M1011 1463v-582h-581v582h-281v-1463h281v636h581v-636h283v1463h-283zM853 -241q0 57 -36 95t-92 38q-57 0 -96 -38t-39 -95t38.5 -95.5t94.5 -38.5t93 38.5t37 95.5z"/>
            <glyph unicode="&#x1e25;" horiz-adv-x="1228"
                   d="M1094 0v625q0 230 -110 352q-99 104 -253 104q-198 0 -308 -161h-4v619h-280v-1539h280v634q0 92 57.5 155.5t146.5 63.5q189 0 189 -258v-595h282zM749 -241q0 57 -36 95t-92 38q-57 0 -95.5 -38t-38.5 -95t38 -95.5t94 -38.5t93 38.5t37 95.5z"/>
            <glyph unicode="&#x1e26;" horiz-adv-x="1442"
                   d="M642 1707q0 56 -37 94t-91 38q-58 0 -97.5 -38t-39.5 -94q0 -57 39 -96t94 -39q57 0 94.5 38t37.5 97zM1066 1707q0 56 -37 94t-93 38q-57 0 -95 -38t-38 -94q0 -58 37.5 -96.5t93.5 -38.5q57 0 94.5 38t37.5 97zM1011 1463v-582h-581v582h-281v-1463h281v636h581v-636 h283v1463h-283z"/>
            <glyph unicode="&#x1e27;" horiz-adv-x="1228"
                   d="M538 1782q0 56 -37 94t-91 38q-58 0 -97.5 -38t-39.5 -94t39.5 -95.5t93.5 -39.5q56 0 94 38.5t38 96.5zM961 1782q0 56 -37 94t-93 38t-94 -38t-38 -94q0 -57 37 -96t93 -39q57 0 94.5 38.5t37.5 96.5zM1094 0v625q0 230 -110 352q-99 104 -253 104q-198 0 -308 -161h-4 v619h-280v-1539h280v634q0 92 57.5 155.5t146.5 63.5q189 0 189 -258v-595h282z"/>
            <glyph unicode="&#x1e28;" horiz-adv-x="1442"
                   d="M1294 1463v-1463h-283v636h-581v-636l-61 -108q61 -9 107 -48q48 -46 48 -107q0 -184 -251 -184q-103 0 -165 41l39 110q41 -23 87 -31t80 6.5t34 51.5q0 71 -168 82l96 187h-127v1463h281v-582h581v582h283z"/>
            <glyph unicode="&#x1e29;" horiz-adv-x="1228"
                   d="M984 977q110 -122 110 -352v-625h-282v595q0 258 -189 258q-89 0 -146.5 -63.5t-57.5 -155.5v-634l-61 -108q61 -9 106 -48q48 -46 48 -107q0 -184 -249 -184q-103 0 -165 41l39 110q40 -23 85.5 -31t79.5 6.5t34 51.5q0 72 -166 82l95 187h-126v1539h280v-619h4 q110 161 308 161q154 0 253 -104z"/>
            <glyph unicode="&#x1e2a;" horiz-adv-x="1442"
                   d="M1011 1463v-582h-581v582h-281v-1463h281v636h581v-636h283v1463h-283zM992 -108h-139q-11 -135 -134 -135q-115 0 -131 135h-139q0 -114 63 -190q72 -79 207 -79q130 0 201.5 72t71.5 197z"/>
            <glyph unicode="&#x1e2b;" horiz-adv-x="1228"
                   d="M1094 0v625q0 230 -110 352q-99 104 -253 104q-198 0 -308 -161h-4v619h-280v-1539h280v634q0 92 57.5 155.5t146.5 63.5q189 0 189 -258v-595h282zM888 -108h-139q-11 -135 -134 -135q-115 0 -131 135h-138q0 -113 62 -190q72 -79 207 -79q130 0 201.5 72t71.5 197z"/>
            <glyph unicode="&#x1e2c;" horiz-adv-x="578"
                   d="M149 1463v-1463h281v1463h-281zM576 -108h-124q-3 -37 -11 -58t-18.5 -30t-30.5 -5.5t-39.5 12t-52.5 26.5q-86 45 -141 45q-75 0 -116 -63.5t-41 -176.5v-9h130q4 96 52 96q28 0 89 -35q81 -48 144 -48q159 0 159 236v10z"/>
            <glyph unicode="&#x1e2d;" horiz-adv-x="557"
                   d="M443 1374q0 69 -46.5 114t-116.5 45q-71 0 -117.5 -44.5t-46.5 -114.5q0 -69 45 -113.5t115 -44.5q75 0 121 43t46 115zM139 1059v-1059h280v1059h-280zM564 -108h-123q-3 -37 -11 -58t-18.5 -30t-31 -5.5t-40 12t-52.5 26.5q-84 45 -141 45q-74 0 -114.5 -63.5 t-40.5 -176.5v-9h130q4 96 52 96q27 0 89 -35q79 -48 143 -48q158 0 158 236v10z"/>
            <glyph unicode="&#x1e2e;" horiz-adv-x="578"
                   d="M159 1947h191l263 321h-270zM211 1707q0 56 -37 94t-91 38q-59 0 -98 -38t-39 -94q0 -57 38.5 -96t93.5 -39q57 0 95 38t38 97zM634 1707q0 56 -37 94t-93 38q-57 0 -95 -38t-38 -94q0 -58 37 -96.5t93 -38.5q57 0 95 38t38 97zM149 1463v-1463h281v1463h-281z"/>
            </font>
</defs>
</svg>
