<?xml version="1.0" standalone="no"?>
<!DOCTYPE svg PUBLIC "-//W3C//DTD SVG 1.1//EN" "http://www.w3.org/Graphics/SVG/1.1/DTD/svg11.dtd" >
<svg xmlns="http://www.w3.org/2000/svg">
    <metadata></metadata>
    <defs>
        <font id="sukhumvit_setmedium" horiz-adv-x="0">
            <font-face units-per-em="2048" ascent="1638" descent="-410"/>
            <missing-glyph horiz-adv-x="523"/>
            <glyph unicode="fi" horiz-adv-x="1129"
                   d="M366 1060v53q0 309 261 309q128 0 222 -59l52 145q-95 70 -265 70q-218 0 -338 -121.5t-120 -336.5v-60h-147v-144h147v-916h190v916h416v-916h189v1060h-607z"/>
            <glyph unicode="fl" horiz-adv-x="1129"
                   d="M975 0v1508q-130 70 -316 70q-221 -1 -351 -121.5t-130 -350.5v-46h-147v-144h147v-916h190v916h243v144h-245v55q0 313 263 313q101 2 155 -27v-1401h191z"/>
            <glyph/>
            <glyph/>
            <glyph unicode="&#xd;" horiz-adv-x="426"/>
            <glyph unicode=" " horiz-adv-x="523"/>
            <glyph unicode="&#x09;" horiz-adv-x="523"/>
            <glyph unicode="&#xa0;" horiz-adv-x="523"/>
            <glyph unicode="!" horiz-adv-x="498" d="M175 423h149l31 1054h-211zM377 109q0 60 -35 99t-93 39q-56 0 -91 -39t-35 -99q0 -55 35.5 -92.5t88.5 -37.5q60 0 95 35.5t35 94.5z"/>
            <glyph unicode="&#x22;" horiz-adv-x="736" d="M147 991h116l36 523h-188zM473 991h117l35 523h-188z"/>
            <glyph unicode="#" horiz-adv-x="1073"
                   d="M820 1004l54 420h-129l-55 -420h-226l55 420h-126l-58 -420h-203v-128h186l-42 -317h-197v-130h178l-58 -429h132l54 431h224l-57 -431h132l56 431h205v128h-186l41 317h195v128h-175zM406 559l41 317h224l-42 -317h-223z"/>
            <glyph unicode="$" horiz-adv-x="1106"
                   d="M947 412q0 139 -79.5 232t-254.5 167q-129 52 -203 113q-63 57 -63 139q0 78 52 127q41 41 112.5 55.5t161.5 -3t173 -65.5l53 144q-123 73 -278 75v212h-136v-219q-152 -24 -240 -119t-88 -233q1 -129 87.5 -216.5t270.5 -163.5q244 -97 244 -260q0 -94 -72 -155.5 t-185 -61.5q-170 0 -309 94l-53 -147q138 -93 329 -94v-217h138v226q155 25 250 130q90 99 90 240z"/>
            <glyph unicode="%" horiz-adv-x="1713"
                   d="M377 -25h123l832 1476h-123zM730 1023q0 89 -19.5 164.5t-57.5 135t-101 93t-144 33.5q-82 0 -148 -36t-108 -98t-64.5 -141.5t-22.5 -169.5q0 -117 35.5 -212t112 -156t182.5 -61q108 0 185.5 62t113.5 161.5t36 224.5zM583 1014q0 -324 -182 -324q-62 0 -104.5 47.5 t-60 115.5t-17.5 151q0 120 36 205q47 123 144 123q184 0 184 -318zM1646 434q0 174 -70 289q-86 134 -252 134q-167 0 -264 -142q-78 -123 -78.5 -297t76.5 -295q90 -136 253 -136q169 0 260 142q75 121 75 305zM1499 423q0 -325 -182 -325q-61 0 -103.5 47.5t-60.5 117 t-18 151.5q0 122 36 207q47 122 144 122q184 0 184 -320z"/>
            <glyph unicode="&#x26;" horiz-adv-x="1307"
                   d="M1302 0l-242 261q151 181 209 546h-173q-43 -286 -138 -433q-51 58 -151 174q-93 109 -205 238l3 7q317 165 317 395q0 141 -92 228q-91 85 -230 85q-167 -1 -268.5 -105.5t-101.5 -258.5q0 -155 123 -309l-2 -6q-284 -162 -284 -431q0 -177 119 -290q86 -82 216 -111 t277 9.5t262 144.5l135 -144h226zM759 1179q0 -150 -242 -290q-109 142 -109 266q0 91 48.5 153t130.5 62q79 0 125.5 -54t46.5 -137zM846 255q-119 -134 -296 -134q-130 0 -216 83q-85 82 -85 214q1 178 190 301q95 -116 407 -464z"/>
            <glyph unicode="'" horiz-adv-x="408" d="M147 991h116l36 523h-188z"/>
            <glyph unicode="(" horiz-adv-x="617" d="M425 -261h147q-271 383 -271 886q0 525 271 895h-147q-285 -376 -285 -895q0 -516 285 -886z"/>
            <glyph unicode=")" horiz-adv-x="617" d="M477 629q0 520 -284 891h-149q272 -377 272 -889q0 -515 -272 -892h149q284 379 284 890z"/>
            <glyph unicode="*" horiz-adv-x="902"
                   d="M510 1150l207 276l-132 75l-131 -305h-5l-135 303l-132 -77l201 -265v-7l-318 42v-147l322 42v-6l-207 -266l125 -79l140 307h4l134 -305l136 77l-209 264v6l329 -40v147z"/>
            <glyph unicode="+" horiz-adv-x="1305" d="M723 651v515h-140v-515h-495v-132h495v-519h140v519h496v132h-496z"/>
            <glyph unicode="," horiz-adv-x="450" d="M379 274l-212 -21q-49 -297 -130 -523l134 15q115 199 208 529z"/>
            <glyph unicode="-" horiz-adv-x="667" d="M65 661v-140h537v140h-537z"/>
            <glyph unicode="." horiz-adv-x="450" d="M372 113q0 60 -35.5 100t-93.5 40q-56 0 -93 -41t-37 -99q0 -57 36 -95.5t92 -38.5q60 0 95.5 36.5t35.5 97.5z"/>
            <glyph unicode="/" horiz-adv-x="742" d="M0 -88h144l605 1589h-149z"/>
            <glyph unicode="0" horiz-adv-x="1106"
                   d="M1028 725q0 288 -87 473q-125 251 -376 251q-172 0 -286 -114t-168 -310q-34 -135 -34 -317q0 -287 94 -476q48 -98 126 -161.5t166.5 -81.5t177 -0.5t167 80.5t127.5 161q93 194 93 495zM835 717q0 -592 -285 -592q-162 0 -234 226q-48 143 -48 354q0 113 14.5 212.5 t45.5 187.5t88.5 140t135.5 52q142 1 212.5 -144t70.5 -436z"/>
            <glyph unicode="1" horiz-adv-x="1106" d="M533 1424l-312 -166l38 -145l247 134h4v-1247h184v1424h-161z"/>
            <glyph unicode="2" horiz-adv-x="1106"
                   d="M364 160v5l111 107q250 241 349 389q132 192 132 376q0 85 -27.5 159.5t-80.5 131t-135.5 89t-186.5 32.5q-224 0 -394 -143l61 -133q147 117 296 117q276 0 276 -278q0 -76 -25.5 -146.5t-92 -161.5t-157 -188.5t-245.5 -250.5l-149 -148v-117h895v160h-627z"/>
            <glyph unicode="3" horiz-adv-x="1106"
                   d="M964 403q0 140 -87.5 239.5t-223.5 126.5v5q259 94 259 335q0 143 -99 234q-72 69 -192.5 94t-251 -1t-227.5 -97l53 -138q128 92 276 92q118 0 182 -58.5t64 -155.5q-1 -111 -94 -176.5t-220 -65.5h-102v-145h105q159 0 260 -74t101 -210q2 -106 -68 -184 q-86 -92 -250 -92q-170 0 -307 85l-52 -144q94 -63 232 -85.5t280.5 7t232.5 110.5q129 119 129 298z"/>
            <glyph unicode="4" horiz-adv-x="1106" d="M863 537v887h-206l-624 -909v-124h649v-391h181v391h195v146h-195zM682 1238l8 -2q-8 -122 -8 -226v-473h-456l337 484q81 140 119 217z"/>
            <glyph unicode="5" horiz-adv-x="1106"
                   d="M960 462q0 96 -30.5 174t-79.5 128t-115.5 84t-135.5 48t-141 14q-61 0 -111 -7l54 362h532v159h-668l-92 -677q98 14 191 14q402 0 403 -318q2 -136 -94 -225t-236 -89q-166 0 -299 80l-48 -148q69 -41 162 -62.5t192 -20t198 35.5t171 99q147 138 147 349z"/>
            <glyph unicode="6" horiz-adv-x="1106"
                   d="M1035 477q0 207 -119 332q-57 62 -142 95t-174 32t-177 -42.5t-147 -119.5h-6q26 186 142 322q133 147 342 184q98 10 145 10l-2 157q-33 0 -62 -4q-13 -2 -40 -4.5t-34 -3.5q-141 -17 -263 -78t-217.5 -164t-150.5 -260.5t-55 -351.5q0 -276 133 -439t359 -163 q209 0 345 150q123 143 123 348zM841 464q0 -145 -75 -243t-197 -98q-147 -1 -223.5 112t-82.5 300q0 45 19 83q40 79 114.5 126t157.5 47q133 0 210 -87.5t77 -239.5z"/>
            <glyph unicode="7" horiz-adv-x="1106" d="M123 1424v-159h684l-608 -1265h198l609 1299v125h-883z"/>
            <glyph unicode="8" horiz-adv-x="1106"
                   d="M1025 391q0 253 -282 368v6q232 111 232 333q0 107 -55.5 188t-147.5 122t-205 41q-179 0 -299 -99q-134 -107 -134 -279q0 -215 223 -320l3 -6q-279 -125 -279 -385q0 -180 147 -287q133 -94 320 -94q131 0 238.5 48.5t173 143.5t65.5 220zM795 1081q0 -186 -210 -261 q-265 75 -265 265q0 103 67 164.5t174 61.5q108 0 171 -62.5t63 -167.5zM835 370q0 -117 -78.5 -185t-200.5 -68q-118 0 -199 73q-81 72 -81 191q0 226 253 301q306 -90 306 -312z"/>
            <glyph unicode="9" horiz-adv-x="1106"
                   d="M1030 849q0 274 -125.5 437t-339.5 163q-205 -1 -341 -147.5t-136 -356.5q0 -190 115 -313.5t297 -123.5q206 0 330 151h7q-18 -119 -68.5 -219t-129 -172.5t-190 -108t-242.5 -23.5v-155q47 -4 172 10q246 29 407 191q244 240 244 667zM837 872q0 -39 -17 -70 q-86 -149 -274 -149q-121 0 -194.5 82.5t-73.5 220.5q0 143 71 240q73 106 201 106q143 -1 215 -119t72 -311z"/>
            <glyph unicode=":" horiz-adv-x="450"
                   d="M370 887q0 60 -34.5 99t-92.5 39q-57 0 -93.5 -39t-36.5 -99q0 -58 36 -97t92 -39q59 0 94 38t35 98zM368 111q0 60 -34.5 99t-92.5 39q-57 0 -93.5 -39t-36.5 -99q0 -57 36 -94.5t92 -37.5q60 0 94.5 36t34.5 96z"/>
            <glyph unicode=";" horiz-adv-x="450"
                   d="M387 887q0 60 -35 99t-91 39q-57 0 -93 -39t-36 -99q0 -58 35.5 -97t89.5 -39q59 0 94.5 38t35.5 98zM379 274l-212 -21q-49 -297 -130 -523l134 15q115 199 208 529z"/>
            <glyph unicode="&#x3c;" horiz-adv-x="1305" d="M305 581v4l856 429v152l-1017 -524v-119l1017 -523v151z"/>
            <glyph unicode="=" horiz-adv-x="1305" d="M88 870v-132h1131v132h-1131zM88 441v-132h1131v132h-1131z"/>
            <glyph unicode="&#x3e;" horiz-adv-x="1305" d="M144 1166v-152l864 -429v-4l-864 -430v-151l1017 521v123z"/>
            <glyph unicode="?" horiz-adv-x="874"
                   d="M780 1181q0 141 -95.5 231.5t-266.5 90.5q-188 0 -309 -85l54 -138q86 65 214 65q100 0 152.5 -41.5t54 -110.5t-38 -157t-116.5 -181q-150 -188 -130 -382l6 -55h168l-2 55q-9 170 121 327q100 119 133 182q55 97 55 199zM513 111q0 60 -35.5 98t-92.5 38q-56 0 -92 -39 t-36 -97q0 -57 35 -94.5t89 -37.5q60 0 96 36.5t36 95.5z"/>
            <glyph unicode="@" horiz-adv-x="1592"
                   d="M1510 876q0 274 -174 448q-171 177 -451 177q-172 0 -320.5 -66.5t-251.5 -180t-162 -268.5t-59 -329q0 -200 86.5 -356.5t235 -241t333.5 -84.5q220 0 386 86l-35 94q-138 -78 -327 -78q-250 -1 -402 160t-152 432q0 328 193 534q89 97 208.5 148t235 52.5t222.5 -38 t175 -114.5q87 -94 119.5 -230t14 -257.5t-71.5 -204.5q-35 -54 -77 -82t-77 -26.5t-59 34t-24 90.5q0 51 13 122l77 401q-100 44 -231 44q-223 0 -370 -158q-147 -153 -147 -363q0 -121 69 -200q62 -74 164 -74q190 0 307 190h6q-4 -95 46 -144q42 -46 115 -46 q165 0 275 146.5t110 382.5zM1014 1010l-48 -251q-19 -113 -98.5 -205t-164.5 -92q-89 0 -122 79t-8 184t91 182q100 121 246 121q56 -2 104 -18z"/>
            <glyph unicode="A" horiz-adv-x="1313" d="M546 1477l-491 -1477h194l150 462h511l153 -462h202l-491 1477h-228zM579 1035l72 271h4q33 -135 75 -273l142 -422h-435z"/>
            <glyph unicode="B" horiz-adv-x="1169"
                   d="M1083 421q0 143 -87 241t-218 129v6q117 39 183.5 126.5t66.5 196.5q0 164 -123 260q-133 108 -399 108q-198 0 -341 -31v-1453q125 -15 291 -15q354 0 502 136q125 119 125 296zM835 1102q0 -112 -85 -180.5t-229 -68.5h-168v475q53 15 164 15q318 0 318 -241zM883 423 q0 -144 -101 -215.5t-274 -71.5q-109 0 -155 8v566h153q171 -1 274 -75t103 -212z"/>
            <glyph unicode="C" horiz-adv-x="1240"
                   d="M1127 1282l46 153q-121 64 -341 64q-221 0 -392 -96t-266 -272.5t-95 -405.5q0 -356 203 -556q196 -188 509 -188q242 0 380 65l-38 151q-124 -59 -303 -59q-258 0 -403 159q-149 160 -149 435q1 289 156 451q146 158 405 158q164 0 288 -59z"/>
            <glyph unicode="D" horiz-adv-x="1426"
                   d="M1348 774q0 341 -208 537q-196 177 -584 177q-197 0 -391 -31v-1453q125 -15 335 -15q420 0 634 205t214 580zM1148 767q0 -306 -156 -466.5t-455 -160.5q-138 0 -184 9v1170q86 17 214 17q291 0 439 -150q142 -148 142 -419z"/>
            <glyph unicode="E" horiz-adv-x="1056" d="M353 157v535h561v159h-561v468h594v158h-782v-1477h814v157h-626z"/>
            <glyph unicode="F" horiz-adv-x="1044" d="M165 1477v-1477h188v669h546v157h-546v493h592v158h-780z"/>
            <glyph unicode="G" horiz-adv-x="1384"
                   d="M784 776v-153h295v-443q-81 -38 -247 -38q-254 0 -404 159q-150 158 -150 437q1 278 157.5 436t421.5 158q185 0 316 -61l48 155q-137 67 -360 67q-235 0 -413 -97t-273.5 -270t-95.5 -398q0 -353 203 -550q94 -91 223 -139.5t263 -52.5t258.5 16t236.5 61v713h-479z"/>
            <glyph unicode="H" horiz-adv-x="1401" d="M1048 1477v-620h-695v620h-188v-1477h188v692h695v-692h190v1477h-190z"/>
            <glyph unicode="I" horiz-adv-x="518" d="M165 1477v-1477h188v1477h-188z"/>
            <glyph unicode="J" horiz-adv-x="795" d="M456 1477v-977q0 -196 -63.5 -279t-199.5 -83q-85 0 -158 27l-26 -156q85 -30 198 -30q439 0 439 506v992h-190z"/>
            <glyph unicode="K" horiz-adv-x="1167" d="M1146 1477h-232l-441 -553q-78 -104 -113 -159h-7v712h-188v-1477h188v563l138 160l473 -723h224l-563 849z"/>
            <glyph unicode="L" horiz-adv-x="1014" d="M353 160v1317h-188v-1477h805v160h-617z"/>
            <glyph unicode="M" horiz-adv-x="1730"
                   d="M1275 1477l-256 -712q-90 -246 -153 -497h-7q-61 248 -146 497l-246 712h-239l-103 -1477h180l40 633q20 330 27 649h5q68 -281 167 -572l234 -701h142l257 714q109 309 180 559h6q-4 -146 24 -634l35 -648h184l-90 1477h-241z"/>
            <glyph unicode="N" horiz-adv-x="1412"
                   d="M1071 1477v-614q0 -359 23 -610h-5q-106 230 -259 481l-460 743h-205v-1477h176v625q0 414 -15 613l7 2q93 -204 269 -495l456 -745h191v1477h-178z"/>
            <glyph unicode="O" horiz-adv-x="1472"
                   d="M1394 754q0 157 -44 293.5t-125.5 237t-204.5 158.5t-273 58q-205 0 -358.5 -104.5t-231.5 -278.5t-78 -390q0 -159 44.5 -296t126 -237.5t204 -158t271.5 -57.5q159 0 286.5 59t211 163.5t127.5 245.5t44 307zM1192 745q0 -122 -29.5 -231.5t-85 -195t-144.5 -136 t-199 -50.5q-86 0 -160.5 32.5t-128.5 89t-92.5 132.5t-57.5 164t-19 182q0 245 107 412q125 201 353 201q220 0 349 -197q107 -167 107 -403z"/>
            <glyph unicode="P" horiz-adv-x="1145"
                   d="M1060 1056q0 201 -135.5 316.5t-401.5 115.5q-201 0 -358 -29v-1459h188v594q46 -13 149 -13q290 -2 445 162q113 116 113 313zM870 1048q0 -150 -96 -233t-270 -83q-98 0 -151 15v577q64 15 176 15q159 0 250 -76t91 -215z"/>
            <glyph unicode="Q" horiz-adv-x="1472"
                   d="M1350 -213l57 158q-176 34 -423 92v9q191 68 300.5 251.5t109.5 456.5q0 218 -80 388t-227 264.5t-338 94.5q-298 0 -484 -213.5t-186 -562.5q0 -343 189 -550q176 -189 445 -196q34 -2 87 -23q271 -94 550 -169zM1194 745q0 -122 -29.5 -231.5t-85 -195t-144.5 -136 t-199 -50.5q-218 0 -349 194q-109 169 -109 404q0 244 107 414q131 201 358 201q221 0 344 -197q107 -167 107 -403z"/>
            <glyph unicode="R" horiz-adv-x="1160"
                   d="M914 0h197q-37 65 -112 403q-54 243 -217 300v7q121 42 197 136q79 100 79 241q0 189 -130 295t-407 106q-196 0 -356 -31v-1457h188v640h173q126 0 192 -65.5t99 -219.5q62 -293 97 -355zM868 1065q0 -128 -89 -204.5t-240 -76.5h-186v540q66 17 182 17q333 0 333 -276z "/>
            <glyph unicode="S" horiz-adv-x="1060"
                   d="M968 403q0 154 -88 255t-282 179q-153 61 -219 121q-68 66 -68 164q0 88 61 149q75 72 221.5 72.5t263.5 -70.5l53 155q-125 71 -318 71q-211 -1 -342 -112.5t-131 -286.5q0 -274 383 -418q147 -55 210.5 -123t63.5 -172q0 -115 -81.5 -183t-223.5 -68q-187 0 -333 94 l-48 -157q139 -92 368 -92q240 -1 375 116t135 306z"/>
            <glyph unicode="T" horiz-adv-x="1066" d="M0 1477v-160h439v-1317h190v1317h440v160h-1069z"/>
            <glyph unicode="U" horiz-adv-x="1391"
                   d="M1039 1477v-883q0 -462 -351 -462q-157 0 -246 117.5t-89 344.5v883h-190v-877q0 -313 136 -467t383 -154q256 0 400.5 158t144.5 472v868h-188z"/>
            <glyph unicode="V" horiz-adv-x="1202" d="M1006 1477l-243 -728q-119 -351 -165 -550h-4q-44 189 -155 552l-224 726h-206l476 -1477h207l515 1477h-201z"/>
            <glyph unicode="W" horiz-adv-x="1824"
                   d="M1612 1477l-190 -743q-83 -331 -113 -510h-5q-35 217 -103 508l-178 745h-193l-194 -743q-93 -362 -119 -515h-4q-50 271 -107 513l-172 745h-201l368 -1477h199l205 765q84 313 111 484h4q22 -180 96 -484l182 -765h198l410 1477h-194z"/>
            <glyph unicode="X" horiz-adv-x="1224"
                   d="M1161 1477h-216l-196 -346q-76 -135 -131 -250h-5q-32 65 -133 250l-193 346h-216l424 -728l-443 -749h218l175 326q56 109 113 216q10 20 20.5 39.5t15 27.5t4.5 9h4q100 -179 167 -290l184 -328h220l-452 759z"/>
            <glyph unicode="Y" horiz-adv-x="1163" d="M947 1477l-207 -403q-95 -182 -146 -309h-4q-58 131 -145 306l-202 406h-214l458 -850v-627h190v629l484 848h-214z"/>
            <glyph unicode="Z" horiz-adv-x="1182" d="M314 157l792 1204v116h-974v-158h731l-800 -1208v-111h1052v157h-801z"/>
            <glyph unicode="[" horiz-adv-x="617" d="M326 -125v1507h249v121h-397v-1748h397v120h-249z"/>
            <glyph unicode="\" horiz-adv-x="746" d="M4 1501l596 -1589h149l-598 1589h-147z"/>
            <glyph unicode="]" horiz-adv-x="617" d="M44 1503v-121h247v-1507h-247v-120h397v1748h-397z"/>
            <glyph unicode="^" horiz-adv-x="1305" d="M585 1424l-451 -1010h151l366 851h4l366 -851h152l-452 1010h-136z"/>
            <glyph unicode="_" horiz-adv-x="1095" d="M0 -165v-109h1096v109h-1096z"/>
            <glyph unicode="`" horiz-adv-x="656" d="M50 1503l266 -313h136l-191 313h-211z"/>
            <glyph unicode="a" horiz-adv-x="1037"
                   d="M734 0h173q-18 102 -18 253v400q1 430 -394 430q-201 0 -344 -90l44 -127q34 22 77 40t91 28.5t96 11.5t91.5 -13t77 -41.5t53.5 -77t20 -117.5v-22q-302 2 -463 -100t-161 -295q-1 -130 85.5 -215.5t232.5 -85.5q211 0 318 153h4zM703 541v-186q0 -35 -9 -62 q-23 -73 -90 -123.5t-159 -50.5q-80 0 -128.5 47.5t-48.5 136.5q-1 124 108 183.5t327 54.5z"/>
            <glyph unicode="b" horiz-adv-x="1221"
                   d="M1140 544q0 239 -123 389t-314 150q-245 0 -352 -191h-4v662h-190v-1282q0 -138 -8 -272h165l8 171h6q112 -192 345 -192q192 0 320 140q147 155 147 425zM949 537q0 -185 -84 -296.5t-229 -111.5q-121 0 -207 86q-82 86 -82 206v197q0 23 10 81q28 105 105.5 168.5 t177.5 63.5q141 1 225 -110t84 -284z"/>
            <glyph unicode="c" horiz-adv-x="959"
                   d="M859 881l42 147q-101 55 -259 55q-252 -1 -405.5 -157.5t-153.5 -406.5q0 -246 141 -392t378 -146q168 0 295 56l-31 145q-120 -50 -228 -50q-161 0 -261 108q-101 106 -101 289q0 176 94 282q99 120 272 120q122 0 217 -50z"/>
            <glyph unicode="d" horiz-adv-x="1211"
                   d="M892 0h171q-9 108 -9 272v1282h-191v-630h-4q-58 103 -177 140.5t-247 1.5t-214 -133q-138 -162 -138 -418q0 -238 126.5 -387t319.5 -149q247 0 349 201h5zM863 631v-190q0 -124 -77 -215q-54 -64 -135 -87.5t-163.5 4t-134.5 104.5q-79 107 -79 279q0 175 83 291 q86 116 228 116q103 0 176.5 -62t95.5 -158q6 -35 6 -82z"/>
            <glyph unicode="e" horiz-adv-x="1077"
                   d="M999 592q0 96 -25 182t-75 157t-134 112.5t-193 41.5q-221 0 -357 -163q-132 -162 -132 -407t137 -388q138 -144 374 -144q202 0 347 63l-34 136q-130 -53 -284 -53q-162 0 -258.5 94t-99.5 275h728q6 34 6 94zM815 636h-547q17 131 91 221t197 90q133 -1 197 -90 t62 -221z"/>
            <glyph unicode="f" horiz-adv-x="630"
                   d="M690 1401l27 146q-72 31 -165 31q-79 0 -145 -27t-118 -81.5t-81.5 -146t-29.5 -212.5v-51h-147v-144h147v-916h190v916h250v144h-252v57q0 305 201 305q71 0 123 -21z"/>
            <glyph unicode="g" horiz-adv-x="1202"
                   d="M876 903h-4q-95 180 -320 180q-95 0 -180 -40t-149.5 -111t-102 -178t-37.5 -233q0 -224 125.5 -370.5t317.5 -146.5q223 0 327 176h4v-119q-1 -366 -334 -366q-167 0 -304 84l-46 -149q129 -84 344 -84q127 0 220.5 30.5t164.5 99.5t107 188.5t36 288.5v614q0 142 9 293 h-169zM855 646v-199q-2 -63 -14 -100q-30 -92 -101 -145q-50 -38 -117.5 -50.5t-143 14t-126.5 97.5q-79 100 -79 270q0 183 86 291q86 109 223 109q200 0 263 -201q9 -28 9 -86z"/>
            <glyph unicode="h" horiz-adv-x="1194"
                   d="M1043 0v636q0 93 -19.5 169t-53.5 127t-80.5 85.5t-98 50t-109.5 15.5q-101 0 -190 -49.5t-139 -134.5h-4v655h-192v-1554h192v644q0 48 11 90q27 84 96.5 137t156.5 53q240 0 240 -309v-615h190z"/>
            <glyph unicode="i" horiz-adv-x="506" d="M374 1378q0 55 -33.5 89t-87.5 34t-89 -35t-35 -88q0 -52 34 -87t86 -35q56 0 90.5 34t34.5 88zM157 1060v-1060h192v1060h-192z"/>
            <glyph unicode="j" horiz-adv-x="525"
                   d="M399 1378q0 53 -34 88t-87 35q-52 0 -88.5 -35t-36.5 -88q0 -52 34 -87t87 -35q54 0 89.5 34t35.5 88zM182 1060v-895q0 -313 -73 -393q-63 -73 -203 -81l19 -151q207 1 320 121q127 126 127 431v968h-190z"/>
            <glyph unicode="k" horiz-adv-x="1010" d="M975 1060h-228l-306 -366q-24 -28 -44 -56q-26 -37 -46 -63h-4v979h-190v-1554h190v399l96 109l354 -508h233l-455 623z"/>
            <glyph unicode="l" horiz-adv-x="506" d="M157 1554v-1554h192v1554h-192z"/>
            <glyph unicode="m" horiz-adv-x="1796"
                   d="M1646 0v629q0 245 -119 364q-93 90 -225 90t-226 -73q-70 -49 -120 -136h-5q-33 95 -111.5 152t-182.5 57q-215 0 -326 -191h-7l-8 168h-167q8 -162 8 -286v-774h188v642q0 114 72 199.5t177 85.5q103 0 159 -77t56 -210v-640h186v657q0 110 69 190t170 80 q225 0 225 -325v-602h187z"/>
            <glyph unicode="n" horiz-adv-x="1194"
                   d="M1043 0v638q0 115 -30 202.5t-82 139.5t-116 77.5t-138 25.5q-118 -1 -209 -56t-135 -138h-5l-10 171h-169q8 -162 8 -286v-774h192v640q-1 114 74 199q73 88 190 88q240 0 240 -312v-615h190z"/>
            <glyph unicode="o" horiz-adv-x="1178"
                   d="M1096 539q0 233 -130 385q-138 159 -368 159q-156 0 -273.5 -72.5t-179.5 -199.5t-62 -290q0 -231 130 -385q138 -157 368 -157q157 0 274.5 71.5t179 198.5t61.5 290zM901 533q0 -154 -77 -276q-90 -136 -237 -136q-150 0 -236 134q-77 116 -77 274q0 164 75 278 q86 134 241 134q96 0 168.5 -58t107.5 -149.5t35 -200.5z"/>
            <glyph unicode="p" horiz-adv-x="1221"
                   d="M1140 546q0 238 -126 387q-61 74 -153.5 113t-188 37t-188.5 -53t-151 -147h-5l-8 177h-171q8 -186 8 -343v-1148h190v571h4q98 -161 318 -161q198 0 326 140q145 152 145 427zM947 537q0 -186 -83 -298t-228 -112q-127 0 -207 88q-82 90 -82 214v189q0 30 13 79 q25 104 104 169t178 65q139 1 222 -111t83 -283z"/>
            <glyph unicode="q" horiz-adv-x="1209"
                   d="M874 903h-4q-92 180 -318 180q-94 0 -178 -38t-149 -108.5t-103.5 -180t-38.5 -243.5q0 -237 124.5 -385.5t313.5 -148.5q235 0 338 181h4v-591h191v1198q0 154 9 293h-182zM863 633v-204q0 -47 -14 -92q-32 -98 -103.5 -153t-164.5 -55q-145 -1 -225 109t-80 285 q0 182 84 296q82 112 227 112q122 0 199 -87t77 -211z"/>
            <glyph unicode="r" horiz-adv-x="705" d="M675 899v180q-20 4 -52 4q-95 0 -175 -62t-115 -166h-7l-8 205h-169q8 -162 8 -326v-734h190v567q0 132 63 228q68 108 199 108q39 0 66 -4z"/>
            <glyph unicode="s" horiz-adv-x="851"
                   d="M767 295q0 211 -274 320q-107 42 -148 79q-50 41 -50 101q0 65 46 105q31 28 86.5 37t124.5 -5.5t130 -53.5l48 141q-107 64 -257 64q-158 0 -262 -90q-42 -38 -69 -87t-31.5 -108t17.5 -116t89 -113t174 -96q105 -39 148.5 -83t43.5 -112q0 -74 -49 -114.5t-120 -43.5 t-148.5 17t-136.5 58l-46 -145q121 -69 291 -69q184 0 288.5 84.5t104.5 229.5z"/>
            <glyph unicode="t" horiz-adv-x="713"
                   d="M387 1060v253l-188 -57v-196h-162v-144h162v-583q0 -192 74 -272q46 -49 121.5 -68t139 -13t114.5 24l-8 145q-45 -13 -109 -13q-144 0 -144 203v577h272v144h-272z"/>
            <glyph unicode="u" horiz-adv-x="1182"
                   d="M868 0h169q-9 180 -9 289v771h-191v-652q0 -134 -105 -218q-74 -56 -160 -56q-231 0 -231 337v589h-190v-623q0 -245 117 -366q92 -92 240 -92q234 0 343 190h6z"/>
            <glyph unicode="v" horiz-adv-x="1033" d="M813 1060l-202 -596q-61 -172 -85 -271h-7q-38 143 -82 271l-205 596h-203l394 -1060h182l407 1060h-199z"/>
            <glyph unicode="w" horiz-adv-x="1587"
                   d="M1367 1060l-148 -529q-55 -187 -82 -347h-4q-38 175 -92 347l-163 529h-159l-169 -539q-62 -196 -94 -337h-4q-34 171 -80 339l-138 537h-194l315 -1060h174l165 504q65 195 97 351h4q28 -151 92 -349l158 -506h174l337 1060h-189z"/>
            <glyph unicode="x" horiz-adv-x="996"
                   d="M962 1060h-208l-145 -225q-75 -122 -103 -176h-6q-65 115 -105 173l-148 228h-212l350 -519l-368 -541h211l149 239q43 71 67 109q27 41 43 75h4q63 -114 111 -184l152 -239h216l-363 548z"/>
            <glyph unicode="y" horiz-adv-x="1014"
                   d="M592 439l-66 -220h-7q-46 168 -65 215l-226 626h-207l382 -977q13 -36 13 -50q0 -15 -15 -44q-55 -123 -139.5 -199.5t-184.5 -109.5l50 -160q118 23 233 125q94 85 177 244q59 106 180 420l280 751h-202z"/>
            <glyph unicode="z" horiz-adv-x="920" d="M276 153v4q89 101 134 165l464 619v119h-793v-153h563v-4l-136 -167l-468 -625v-111h843v153h-607z"/>
            <glyph unicode="{" horiz-adv-x="617"
                   d="M563 -123h-40q-170 0 -170 186q0 63 15 163q15 90 15 161q3 200 -157 242v4q159 42 157 239q0 70 -15 161q-15 98 -15 161q-2 188 170 188h40v121h-44q-316 0 -316 -286q0 -66 16 -184q17 -119 17 -184q0 -163 -175 -163v-111q175 0 175 -163q0 -68 -17 -180 q-16 -115 -16 -180q0 -295 314 -295h46v120z"/>
            <glyph unicode="|" horiz-adv-x="516" d="M186 1644v-2192h145v2192h-145z"/>
            <glyph unicode="}" horiz-adv-x="617"
                   d="M556 575v111q-175 0 -175 163q0 76 16 184q17 115 17 184q0 286 -316 286h-43v-121h39q171 0 171 -188q0 -65 -16 -161q-8 -57 -17 -161q2 -197 159 -239v-4q-159 -45 -159 -242q11 -123 17 -161q16 -90 16 -163q0 -186 -171 -186h-39v-120h43q316 0 316 295 q0 68 -17 180q-16 97 -16 180q0 163 175 163z"/>
            <glyph unicode="~" horiz-adv-x="1305"
                   d="M1196 784h-129q-4 -184 -118 -184q-75 0 -270 92q-209 99 -309 99q-120 0 -192.5 -87t-68.5 -242h132q1 184 129 184q60 0 263 -96q206 -96 314 -96q120 0 189 84t60 246z"/>
            <glyph horiz-adv-x="1095"/>
            <glyph unicode="&#xa1;" horiz-adv-x="498"
                   d="M379 935q0 58 -34.5 97t-89.5 39q-59 0 -95.5 -39t-36.5 -97q0 -59 35 -97t91 -38q58 0 94 38t36 97zM175 621l-28 -1044h208l-31 1044h-149z"/>
            <glyph unicode="&#xa2;" horiz-adv-x="1106"
                   d="M949 253l-33 138q-116 -54 -243 -54q-150 0 -242 104q-94 107 -94 280q0 162 92 278q95 114 250 114q136 0 224 -55l42 147q-104 53 -232 53v214h-136v-219q-200 -32 -314 -179q-119 -149 -119 -359q0 -232 118 -365.5t315 -159.5v-219h136v219q141 7 236 63z"/>
            <glyph unicode="&#xa3;" horiz-adv-x="1106"
                   d="M372 157v6q109 95 142 203t19 280h291v138h-309q-26 136 -26 239q0 270 234 270q116 0 193 -44l42 145q-88 55 -235 55q-185 0 -298 -119q-116 -118 -116 -309q0 -82 24 -237h-201v-138h223q11 -77 11 -153q0 -120 -67.5 -224.5t-179.5 -159.5v-109h895v157h-642z"/>
            <glyph unicode="&#xa4;" horiz-adv-x="1106"
                   d="M991 1232l37 146q-91 71 -263 71q-211 0 -351 -138.5t-186 -386.5h-155l-25 -107h167q-6 -57 -6 -118v-32q0 -11 2 -31h-138l-25 -107h171q36 -265 171 -408q85 -89 208.5 -122.5t232 -14.5t179.5 73l-35 140q-103 -72 -221 -72q-293 0 -346 404h420l25 107h-454v67 q0 65 4 114h494l23 107h-506q64 375 366 375q105 0 211 -67z"/>
            <glyph unicode="&#xa5;" horiz-adv-x="1106"
                   d="M872 1424l-232 -445q-44 -80 -86 -203h-6q-47 115 -88 199l-221 449h-204l362 -663h-284v-108h336v-160h-336v-108h336v-385h180v385h337v108h-337v160h337v108h-280l383 663h-197z"/>
            <glyph unicode="&#xa6;" horiz-adv-x="516" d="M186 1479v-766h145v766h-145zM186 383v-766h145v766h-145z"/>
            <glyph unicode="&#xa7;" horiz-adv-x="1119"
                   d="M997 651q0 129 -87 208t-268 136q-65 22 -119 45q-32 14 -42 18.5t-37.5 21t-38.5 30.5t-22 39.5t-11 55.5q0 76 64 119q43 30 113.5 39.5t155 -6t152.5 -58.5l46 125q-128 71 -298 71q-171 0 -283 -84q-119 -86 -119 -228q0 -120 82 -181q-160 -109 -160 -259 q0 -65 22.5 -115t72.5 -90.5t116 -72t166 -66.5q149 -52 207 -102.5t58 -127.5q0 -82 -67.5 -128.5t-176.5 -46.5q-166 0 -287 85l-50 -123q128 -90 340 -90q165 0 283 77q129 90 129 247q0 118 -83 195q142 109 142 266zM839 625q0 -104 -83 -169q-56 32 -120 59l-128 48 q-228 83 -228 206q0 101 99 172q165 -79 267 -113q193 -72 193 -203z"/>
            <glyph unicode="&#xa8;" horiz-adv-x="656"
                   d="M236 1328q0 46 -29.5 77.5t-74.5 31.5q-44 0 -75.5 -31.5t-31.5 -77.5q0 -45 29.5 -77t74.5 -32q46 0 76.5 31.5t30.5 77.5zM633 1328q0 46 -29.5 77.5t-74.5 31.5q-46 0 -77 -31.5t-31 -77.5q0 -45 30 -77t75 -32q46 0 76.5 31.5t30.5 77.5z"/>
            <glyph unicode="&#xa9;" horiz-adv-x="1483"
                   d="M1405 745q0 277 -191 476q-187 199 -467 199q-185 0 -339 -90t-241.5 -245t-87.5 -340q0 -283 193 -482q126 -130 300 -176t347 1t295 177q191 200 191 480zM1297 745q0 -245 -153 -412q-159 -178 -397 -178t-398 171q-104 112 -140.5 262t0 300.5t138.5 266.5 q157 175 398 175q242 0 395 -173q157 -172 157 -412zM1050 403l-27 84q-86 -58 -223 -58q-142 0 -224.5 86.5t-82.5 222.5q0 140 80 223.5t224 83.5q124 0 215 -50l27 86q-67 59 -242 59q-167 0 -291 -110q-82 -74 -111.5 -183t-4 -216.5t96.5 -183.5q51 -53 128.5 -81.5 t156 -30t153 16t125.5 51.5z"/>
            <glyph unicode="&#xaa;" horiz-adv-x="746"
                   d="M529 583h128q-11 103 -11 168v240q0 83 -22 145t-58 95.5t-82.5 51t-96.5 17.5t-99.5 -10t-91 -28t-71.5 -39l35 -92q78 57 185 57q68 0 113.5 -37t45.5 -99v-22h-27q-192 0 -298 -65.5t-106 -184.5q0 -94 59.5 -151t162.5 -57q135 0 218 101h4zM508 933v-120 q0 -23 -21 -59q-54 -79 -148 -79q-53 0 -88.5 31t-35.5 83q-1 72 64 108t196 36h33z"/>
            <glyph unicode="&#xab;" horiz-adv-x="908" d="M502 953h-153l-288 -401l288 -401h155l-289 401zM859 953h-156l-285 -401l285 -401h156l-290 401z"/>
            <glyph unicode="&#xac;" horiz-adv-x="1305" d="M88 874v-131h993v-478h138v609h-1131z"/>
            <glyph unicode="&#xad;" horiz-adv-x="667" d="M65 661v-140h537v140h-537z"/>
            <glyph unicode="&#xae;" horiz-adv-x="1117"
                   d="M1048 1006q0 206 -141 346q-142 145 -344 145q-135 0 -248.5 -66t-178.5 -178.5t-65 -246.5q0 -135 63.5 -248.5t176.5 -180.5t250 -67q205 0 346 143t141 353zM958 1004q0 -173 -112 -291q-114 -128 -283 -128q-171 0 -285 128q-111 119 -111 291q0 111 51 206.5 t142 152.5t201 57q166 0 281.5 -121.5t115.5 -294.5zM686 719h92q-20 35 -35 136q-15 117 -92 134v4q108 29 108 132q0 78 -53 117.5t-169 39.5q-65 0 -156 -15v-548h88v237h60q101 0 117 -97q21 -120 40 -140zM667 1115q0 -94 -136 -94h-62v188q13 3 31 3h33 q134 -2 134 -97z"/>
            <glyph unicode="&#xaf;" horiz-adv-x="656" d="M86 1396v-116h489v116h-489z"/>
            <glyph unicode="&#xb0;" horiz-adv-x="690"
                   d="M642 1219q0 124 -82 203q-86 81 -205 81q-123 0 -208 -85q-84 -88 -84 -211q0 -120 81 -201q82 -79 207 -79q117 0 205 83q86 86 86 209zM526 1214q0 -79 -48.5 -132.5t-124.5 -53.5q-72 0 -120.5 52.5t-48.5 128.5q0 79 47 135.5t120 56.5q78 0 126.5 -52.5t48.5 -134.5 z"/>
            <glyph unicode="&#xb1;" horiz-adv-x="1305" d="M723 826v425h-140v-425h-495v-132h495v-437h140v437h496v132h-496zM88 132v-132h1131v132h-1131z"/>
            <glyph unicode="&#xb2;" horiz-adv-x="757"
                   d="M309 703v5l68 63q163 149 225 238.5t62 193.5q-1 105 -76 175.5t-211 70.5q-159 0 -266 -92l46 -99q89 68 182 68q163 0 163 -153q0 -74 -71 -171q-58 -80 -201 -213l-136 -128v-78h583v120h-368z"/>
            <glyph unicode="&#xb3;" horiz-adv-x="736"
                   d="M667 828q0 84 -55.5 142t-147.5 71v4q79 28 121.5 75.5t45.5 96.5t-14 93.5t-50 74.5q-68 64 -208.5 63.5t-239.5 -68.5l36 -102q80 58 182 58q138 0 138 -109q1 -63 -60 -101.5t-139 -38.5h-57v-98h57q94 0 158 -38q72 -44 72 -119q0 -58 -46 -100q-48 -48 -144 -48 q-108 0 -199 56l-40 -109q88 -59 247 -59q155 -1 249 72.5t94 183.5z"/>
            <glyph unicode="&#xb4;" horiz-adv-x="656" d="M224 1190h133l266 313h-209z"/>
            <glyph unicode="&#xb5;" horiz-adv-x="1182"
                   d="M868 0h169q-9 180 -9 289v771h-191v-677q1 -91 -78 -169t-182 -78q-236 0 -236 322v602h-190v-1491h177l-10 525h6q68 -111 215 -111q208 0 312 188h6z"/>
            <glyph unicode="&#xb6;" horiz-adv-x="1104"
                   d="M922 -105v1569q-91 17 -253 17q-326 0 -476 -155q-121 -132 -120 -331q2 -94 38 -173.5t94 -131.5t130.5 -80.5t147.5 -28.5h15v-686h135v1455h153v-1455h136z"/>
            <glyph unicode="&#xb7;" horiz-adv-x="450" d="M355 598q0 60 -35.5 99t-93.5 39q-57 0 -93.5 -39t-36.5 -99q0 -58 36 -97t92 -39q58 0 94.5 38.5t36.5 97.5z"/>
            <glyph unicode="&#xb8;" horiz-adv-x="656"
                   d="M498 -259q0 58 -44 100.5t-107 51.5l69 113h-117l-102 -181q169 -18 169 -93q0 -36 -21 -52q-15 -12 -45 -16.5t-70.5 3t-74.5 28.5l-32 -94q64 -38 149 -38q226 0 226 178z"/>
            <glyph unicode="&#xb9;" horiz-adv-x="694" d="M335 1437l-203 -96l23 -114l159 77h4v-721h151v854h-134z"/>
            <glyph unicode="&#xba;" horiz-adv-x="770"
                   d="M730 938q0 156 -92 256q-93 101 -247 101q-156 0 -252.5 -105.5t-96.5 -262.5q0 -154 94.5 -254.5t246.5 -100.5q154 0 250 103q97 109 97 263zM585 933q0 -107 -54.5 -180.5t-143.5 -73.5q-86 0 -141.5 77t-55.5 173q0 100 46 173q57 84 149 84q98 0 152 -82 q48 -68 48 -171z"/>
            <glyph unicode="&#xbb;" horiz-adv-x="908" d="M50 953l289 -401l-289 -401h153l288 401l-288 401h-153zM406 953l288 -401l-288 -401h153l287 401l-287 401h-153z"/>
            <glyph unicode="&#xbc;" horiz-adv-x="1643"
                   d="M299 -21h122l826 1470h-122zM299 1437l-207 -96l27 -114l157 77h2v-721h153v854h-132zM1435 333v533h-157l-417 -555v-85h429v-226h145v226h129v107h-129zM1293 728h6q-9 -95 -9 -138v-257h-274v2l205 272q52 82 72 121z"/>
            <glyph unicode="&#xbd;" horiz-adv-x="1643"
                   d="M255 -21h122l826 1470h-122zM265 1437l-204 -96l25 -114l157 77h4v-721h152v854h-134zM1168 121v4l66 63q88 86 127 123q52 50 76 86q83 118 83 224q0 105 -75 175t-211 70q-154 0 -264 -90l44 -101q89 68 182 68q165 0 165 -151q0 -83 -73 -174q-61 -81 -201 -211 l-136 -126v-81h586v121h-369z"/>
            <glyph unicode="&#xbe;" horiz-adv-x="1643"
                   d="M655 828q0 83 -56.5 141.5t-144.5 71.5v4q167 59 167 197q0 94 -72 150.5t-196 56.5q-138 0 -248 -71l39 -100q85 58 180 58q138 0 138 -104q0 -76 -67 -112q-57 -33 -130 -33h-56v-98h56q98 0 164 -41t66 -116q0 -58 -46 -100q-48 -48 -144 -48q-111 0 -202 56l-38 -109 q89 -59 246 -59q156 0 250 73t94 183zM377 -21h123l824 1470h-121zM1457 333v533h-158l-416 -555v-85h432v-226h142v226h132v107h-132zM1317 728h4q-6 -80 -6 -138v-257h-276l-2 2l207 272q45 67 73 121z"/>
            <glyph unicode="&#xbf;" horiz-adv-x="874"
                   d="M640 933q0 60 -35.5 99t-91.5 39q-59 0 -95.5 -38.5t-36.5 -99.5q0 -58 36.5 -97t92.5 -39t93 39t37 97zM789 -368l-51 140q-86 -67 -217 -67q-205 0 -205 188q0 112 151 300q135 169 135 338v22q0 8 -2 22l-6 54h-169l2 -54v-25q1 -164 -120 -303q-101 -120 -132 -182 q-56 -97 -56 -197q0 -141 96 -231.5t268 -90.5q182 0 306 86z"/>
            <glyph unicode="&#xc0;" horiz-adv-x="1313"
                   d="M331 1806l280 -248h154l-206 248h-228zM546 1477l-491 -1477h194l150 462h511l153 -462h202l-491 1477h-228zM579 1035l72 271h4l45 -167q16 -68 30 -106l142 -422h-435z"/>
            <glyph unicode="&#xc1;" horiz-adv-x="1313"
                   d="M559 1556h154l282 257h-230zM546 1477l-491 -1477h194l150 462h511l153 -462h202l-491 1477h-228zM579 1035l72 271h4q33 -135 75 -273l142 -422h-435z"/>
            <glyph unicode="&#xc2;" horiz-adv-x="1313"
                   d="M598 1813l-219 -257h154l134 162h4l136 -162h155l-224 257h-140zM546 1477l-491 -1477h194l150 462h511l153 -462h202l-491 1477h-228zM579 1035l72 271h4l45 -167q16 -68 30 -106l142 -422h-435z"/>
            <glyph unicode="&#xc3;" horiz-adv-x="1313"
                   d="M929 1788h-97q-6 -90 -63 -90q-35 0 -102 40q-77 44 -132 44q-70 0 -107 -57.5t-37 -158.5h98q4 38 13.5 60t21 31.5t32.5 5.5t41 -13t54 -28q73 -42 131 -42q76 0 111.5 51t35.5 157zM546 1477l-491 -1477h194l150 462h511l153 -462h202l-491 1477h-228zM579 1035 l72 271h4l45 -167q16 -68 30 -106l142 -422h-435z"/>
            <glyph unicode="&#xc4;" horiz-adv-x="1313"
                   d="M572 1690q0 46 -30 77.5t-75 31.5q-44 0 -74.5 -31.5t-30.5 -77.5q0 -47 28.5 -78.5t73.5 -31.5q49 0 78.5 30.5t29.5 79.5zM968 1690q0 46 -29 77.5t-73 31.5q-46 0 -76.5 -31.5t-30.5 -77.5t29 -78t73 -32q48 0 77.5 30.5t29.5 79.5zM546 1477l-491 -1477h194l150 462 h511l153 -462h202l-491 1477h-228zM579 1035l72 271h4q33 -135 75 -273l142 -422h-435z"/>
            <glyph unicode="&#xc5;" horiz-adv-x="1313"
                   d="M1269 0l-483 1447q92 66 92 175q0 92 -61 153t-153 61q-89 0 -149 -62q-63 -63 -63 -152q0 -106 87 -171l-482 -1451h196l148 462h511l153 -462h204zM776 1622q0 -44 -33 -77t-79 -33q-43 0 -76.5 33t-33.5 77q0 45 33.5 78t76.5 33q46 0 79 -32.5t33 -78.5zM437 611 l150 454q38 115 61 241h5q30 -114 51 -184q18 -62 24 -79l146 -432h-437z"/>
            <glyph unicode="&#xc6;" horiz-adv-x="1691"
                   d="M1030 688h517v158h-539l-55 473h611v158h-905l-659 -1477h195l230 519h441l63 -519h695v157h-530zM487 673l186 431q33 78 92 237h9l26 -243l46 -425h-359z"/>
            <glyph unicode="&#xc7;" horiz-adv-x="1255"
                   d="M1127 1282l46 153q-122 64 -341 64q-334 0 -545 -213q-101 -104 -154 -251t-54.5 -295t42 -291t126.5 -242q159 -186 430 -218l-92 -164q169 -18 169 -93q0 -42 -37 -58t-84.5 -8.5t-86.5 29.5l-33 -94q65 -38 151 -38q223 0 223 174q0 61 -43 104t-108 52l55 88 q244 1 382 65l-40 151q-124 -59 -303 -59q-258 0 -403 159q-149 160 -149 435q1 289 156 451q146 158 405 158q164 0 288 -59z"/>
            <glyph unicode="&#xc8;" horiz-adv-x="1056" d="M259 1813l280 -255h153l-205 255h-228zM353 157v535h561v159h-561v468h594v158h-782v-1477h814v157h-626z"/>
            <glyph unicode="&#xc9;" horiz-adv-x="1056" d="M449 1556h151l283 257h-228zM353 157v535h561v159h-561v468h594v158h-782v-1477h814v157h-626z"/>
            <glyph unicode="&#xca;" horiz-adv-x="1056" d="M485 1813l-220 -257h151l136 162h4l134 -162h159l-226 257h-138zM353 157v535h561v159h-561v468h594v158h-782v-1477h814v157h-626z"/>
            <glyph unicode="&#xcb;" horiz-adv-x="1056"
                   d="M467 1690q0 46 -29 77.5t-74 31.5q-46 0 -76.5 -31.5t-30.5 -77.5t29.5 -78t73.5 -32q48 0 77.5 30.5t29.5 79.5zM866 1690q0 46 -30 77.5t-75 31.5t-75.5 -31.5t-30.5 -77.5t29.5 -78t74.5 -32q46 0 76.5 31t30.5 79zM353 157v535h561v159h-561v468h594v158h-782v-1477 h814v157h-626z"/>
            <glyph unicode="&#xcc;" horiz-adv-x="518" d="M-63 1813l282 -255h151l-203 255h-230zM165 1477v-1477h188v1477h-188z"/>
            <glyph unicode="&#xcd;" horiz-adv-x="518" d="M149 1556h152l282 257h-228zM165 1477v-1477h188v1477h-188z"/>
            <glyph unicode="&#xce;" horiz-adv-x="518" d="M186 1813l-219 -257h152l136 162h4l136 -162h155l-224 257h-140zM165 1477v-1477h188v1477h-188z"/>
            <glyph unicode="&#xcf;" horiz-adv-x="518"
                   d="M165 1690q0 46 -30 77.5t-74 31.5q-45 0 -75 -31.5t-30 -77.5t28.5 -78t72.5 -32q48 0 78 30.5t30 79.5zM563 1690q0 46 -30 77.5t-75 31.5t-75 -31.5t-30 -77.5t29 -78t74 -32q46 0 76.5 31t30.5 79zM165 1477v-1477h188v1477h-188z"/>
            <glyph unicode="&#xd0;" horiz-adv-x="1439"
                   d="M1359 774q0 348 -209 539q-193 180 -581 180q-197 0 -394 -31v-636h-177v-151h177v-675q134 -13 335 -13q421 0 638 208q211 202 211 579zM1159 771q0 -313 -154 -473t-457 -160q-140 0 -184 9v528h385v151h-385v498q99 17 215 17q289 0 437 -151q143 -149 143 -419z"/>
            <glyph unicode="&#xd1;" horiz-adv-x="1412"
                   d="M997 1788h-96q-12 -90 -64 -90q-36 0 -103 40q-77 44 -134 44q-64 0 -103 -52t-39 -143v-21h98q4 38 13.5 60.5t21 31.5t32.5 5.5t41.5 -13t54.5 -28.5q75 -42 132 -42q73 -1 109.5 51.5t36.5 156.5zM1071 1477v-614q0 -354 23 -610h-5q-99 219 -259 481l-460 743h-205 v-1477h176v625q0 414 -15 613l7 2q93 -204 269 -495l456 -745h191v1477h-178z"/>
            <glyph unicode="&#xd2;" horiz-adv-x="1472"
                   d="M408 1813l282 -255h151l-205 255h-228zM1394 754q0 157 -44 293.5t-125.5 237t-204.5 158.5t-273 58q-205 0 -358.5 -104.5t-231.5 -278.5t-78 -390q0 -159 44.5 -296t126 -237.5t204 -158t271.5 -57.5q159 0 286.5 59t211 163.5t127.5 245.5t44 307zM1192 745 q0 -122 -29.5 -231.5t-85 -195t-144.5 -136t-199 -50.5q-86 0 -160.5 32.5t-128.5 89t-92.5 132.5t-57.5 164t-19 182q0 167 52 304t158.5 223t249.5 86q220 0 349 -197q107 -167 107 -403z"/>
            <glyph unicode="&#xd3;" horiz-adv-x="1472"
                   d="M646 1556h154l281 257h-228zM1394 754q0 157 -44 293.5t-125.5 237t-204.5 158.5t-273 58q-205 0 -358.5 -104.5t-231.5 -278.5t-78 -390q0 -159 44.5 -296t126 -237.5t204 -158t271.5 -57.5q159 0 286.5 59t211 163.5t127.5 245.5t44 307zM1192 745q0 -122 -29.5 -231.5 t-85 -195t-144.5 -136t-199 -50.5q-86 0 -160.5 32.5t-128.5 89t-92.5 132.5t-57.5 164t-19 182q0 245 107 412q125 201 353 201q220 0 349 -197q107 -167 107 -403z"/>
            <glyph unicode="&#xd4;" horiz-adv-x="1472"
                   d="M667 1813l-222 -257h153l134 162h4l136 -162h158l-225 257h-138zM1394 754q0 157 -44 293.5t-125.5 237t-204.5 158.5t-273 58q-205 0 -358.5 -104.5t-231.5 -278.5t-78 -390q0 -159 44.5 -296t126 -237.5t204 -158t271.5 -57.5q159 0 286.5 59t211 163.5t127.5 245.5 t44 307zM1192 745q0 -122 -29.5 -231.5t-85 -195t-144.5 -136t-199 -50.5q-86 0 -160.5 32.5t-128.5 89t-92.5 132.5t-57.5 164t-19 182q0 245 107 412q125 201 353 201q220 0 349 -197q107 -167 107 -403z"/>
            <glyph unicode="&#xd5;" horiz-adv-x="1472"
                   d="M1008 1788h-98q-8 -90 -61 -90q-39 0 -109 42t-129 42q-67 0 -107 -59t-37 -157h100q5 38 14 60t20 31.5t32 5.5t40.5 -13t54.5 -28q76 -42 133 -42q76 -1 112.5 51.5t34.5 156.5zM1394 754q0 157 -44 293.5t-125.5 237t-204.5 158.5t-273 58q-205 0 -358.5 -104.5 t-231.5 -278.5t-78 -390q0 -159 44.5 -296t126 -237.5t204 -158t271.5 -57.5q159 0 286.5 59t211 163.5t127.5 245.5t44 307zM1192 745q0 -122 -29.5 -231.5t-85 -195t-144.5 -136t-199 -50.5q-86 0 -160.5 32.5t-128.5 89t-92.5 132.5t-57.5 164t-19 182q0 245 107 412 q125 201 353 201q220 0 349 -197q107 -167 107 -403z"/>
            <glyph unicode="&#xd6;" horiz-adv-x="1472"
                   d="M642 1690q0 46 -29 77.5t-74 31.5t-76.5 -31.5t-31.5 -77.5t30.5 -78t75.5 -32q46 0 75.5 30.5t29.5 79.5zM1041 1690q0 46 -30.5 77.5t-75.5 31.5q-43 0 -74 -32t-31 -77q0 -46 29 -78t74 -32q49 0 78.5 30.5t29.5 79.5zM1394 754q0 219 -80.5 388.5t-228 264 t-338.5 94.5q-194 0 -346 -96.5t-237 -273t-85 -403.5q0 -335 179.5 -542t466.5 -207h3q285 0 470 194q196 214 196 581zM1192 745q0 -175 -54 -313t-159 -219t-245 -81h-2q-210 0 -337 184q-119 167 -119 416q1 172 54.5 310t159 220.5t246.5 82.5q215 0 345 -190 q111 -169 111 -410z"/>
            <glyph unicode="&#xd7;" horiz-adv-x="1305" d="M653 673l-471 479l-94 -96l471 -479l-471 -481l94 -96l471 480l469 -480l97 96l-472 481l472 479l-94 96z"/>
            <glyph unicode="&#xd8;" horiz-adv-x="1472"
                   d="M1394 751q0 337 -185 546l132 189l-114 76l-125 -175q-153 114 -359 114q-191 0 -342 -96.5t-236.5 -272.5t-85.5 -400q0 -340 191 -548l-134 -190l107 -84l131 184q155 -115 364 -115q139 0 259 52t208 148.5t138.5 243.5t50.5 328zM379 349l-5 -2q-102 187 -102 393 q0 244 119 419q62 90 146.5 138t169 50.5t163 -24t138.5 -79.5zM1201 745q0 -266 -120 -431q-131 -185 -345 -185q-160 0 -267 105l627 895l6 -2q99 -169 99 -382z"/>
            <glyph unicode="&#xd9;" horiz-adv-x="1391"
                   d="M385 1813l284 -255h151l-207 255h-228zM1039 1477v-883q0 -462 -351 -462q-164 0 -249.5 118.5t-85.5 343.5v883h-190v-877q0 -320 148 -481q132 -140 371 -140q266 0 405.5 159.5t139.5 470.5v868h-188z"/>
            <glyph unicode="&#xda;" horiz-adv-x="1391"
                   d="M594 1556h153l283 257h-230zM1039 1477v-883q0 -462 -351 -462q-157 0 -246 117.5t-89 344.5v883h-190v-877q0 -313 136 -467t383 -154q256 0 400.5 158t144.5 472v868h-188z"/>
            <glyph unicode="&#xdb;" horiz-adv-x="1391"
                   d="M638 1813l-220 -257h151l136 162h5l133 -162h159l-226 257h-138zM1039 1477v-883q0 -462 -351 -462q-164 0 -249.5 118.5t-85.5 343.5v883h-190v-877q0 -320 148 -481q132 -140 371 -140q266 0 405.5 159.5t139.5 470.5v868h-188z"/>
            <glyph unicode="&#xdc;" horiz-adv-x="1391"
                   d="M607 1690q0 46 -29.5 77.5t-73.5 31.5q-46 0 -76.5 -31.5t-30.5 -77.5t29.5 -78t73.5 -32q48 0 77.5 30.5t29.5 79.5zM1004 1690q0 46 -29 77.5t-74 31.5q-46 0 -77 -31.5t-31 -77.5t30 -78t74 -32q48 0 77.5 30.5t29.5 79.5zM1039 1477v-883q0 -462 -351 -462 q-157 0 -246 117.5t-89 344.5v883h-190v-877q0 -313 136 -467t383 -154q256 0 400.5 158t144.5 472v868h-188z"/>
            <glyph unicode="&#xdd;" horiz-adv-x="1163"
                   d="M504 1556h151l283 257h-230zM947 1477l-207 -403q-95 -182 -146 -309h-4q-58 131 -145 306l-202 406h-214l458 -850v-627h190v629l484 848h-214z"/>
            <glyph unicode="&#xde;" horiz-adv-x="1143"
                   d="M1058 797q0 184 -128.5 295t-375.5 111q-126 0 -203 -15v289h-186v-1477h186v345q67 -12 162 -12q247 0 396 121.5t149 342.5zM870 778q0 -138 -94.5 -215.5t-265.5 -77.5q-100 0 -159 13v539q77 17 186 17q333 0 333 -276z"/>
            <glyph unicode="&#xdf;" horiz-adv-x="1182"
                   d="M1094 324q0 99 -39 168t-137 167q-109 116 -109 194q0 110 155 175q36 54 48.5 130.5t-14 167.5t-99.5 155q-72 64 -178.5 86.5t-217.5 -3.5t-189 -98q-157 -142 -157 -475v-991h192v997q-1 429 258 429q102 0 162.5 -63t60.5 -173q0 -48 -17 -96q-126 -62 -169.5 -153 t-6 -194.5t148.5 -211.5q119 -117 119 -226q0 -81 -57 -132.5t-156 -51.5q-96 0 -182 42l-33 -146q91 -42 228 -42q176 0 284 95q105 94 105 250z"/>
            <glyph unicode="&#xe0;" horiz-adv-x="1037"
                   d="M203 1503l266 -313h133l-190 313h-209zM734 0h173q-18 110 -18 253v400q1 430 -394 430q-201 0 -344 -90l44 -127q34 22 77 40t91 28.5t96 11.5t91.5 -13t77 -41.5t53.5 -77t20 -117.5v-22h-9q-299 0 -457 -101q-75 -48 -115.5 -119.5t-43.5 -142.5t18.5 -135.5 t62.5 -105.5q89 -92 238 -92q211 0 318 153h4zM703 541v-186q0 -57 -25 -101q-30 -55 -88 -95t-145 -40q-80 0 -128.5 47.5t-48.5 136.5q0 238 403 238h32z"/>
            <glyph unicode="&#xe1;" horiz-adv-x="1037"
                   d="M408 1190h133l266 313h-209zM734 0h173q-18 102 -18 253v400q1 430 -394 430q-201 0 -344 -90l44 -127q34 22 77 40t91 28.5t96 11.5t91.5 -13t77 -41.5t53.5 -77t20 -117.5v-22q-302 2 -463 -100t-161 -295q-1 -130 85.5 -215.5t232.5 -85.5q211 0 318 153h4zM703 541 v-186q0 -35 -9 -62q-23 -73 -90 -123.5t-159 -50.5q-80 0 -128.5 47.5t-48.5 136.5q-1 124 108 183.5t327 54.5z"/>
            <glyph unicode="&#xe2;" horiz-adv-x="1037"
                   d="M445 1503l-202 -313h138l125 206h4l126 -206h142l-206 313h-127zM734 0h173q-18 110 -18 253v400q1 430 -394 430q-201 0 -344 -90l44 -127q34 22 77 40t91 28.5t96 11.5t91.5 -13t77 -41.5t53.5 -77t20 -117.5v-22h-9q-299 0 -457 -101q-75 -48 -115.5 -119.5 t-43.5 -142.5t18.5 -135.5t62.5 -105.5q89 -92 238 -92q211 0 318 153h4zM703 541v-186q0 -57 -25 -101q-30 -55 -88 -95t-145 -40q-80 0 -128.5 47.5t-48.5 136.5q0 238 403 238h32z"/>
            <glyph unicode="&#xe3;" horiz-adv-x="1037"
                   d="M778 1451h-94q-8 -92 -57 -92q-28 0 -98 37q-89 48 -138 48q-69 0 -106.5 -58.5t-37.5 -156.5h100q10 97 56 97q26 0 97 -38q80 -46 133 -46q145 1 145 200v9zM734 0h173q-18 110 -18 253v400q1 430 -394 430q-201 0 -344 -90l44 -127q34 22 77 40t91 28.5t96 11.5 t91.5 -13t77 -41.5t53.5 -77t20 -117.5v-22h-9q-299 0 -457 -101q-75 -48 -115.5 -119.5t-43.5 -142.5t18.5 -135.5t62.5 -105.5q89 -92 238 -92q211 0 318 153h4zM703 541v-186q0 -57 -25 -101q-30 -55 -88 -95t-145 -40q-80 0 -128.5 47.5t-48.5 136.5q0 238 403 238h32z "/>
            <glyph unicode="&#xe4;" horiz-adv-x="1037"
                   d="M427 1328q0 46 -29.5 77.5t-73.5 31.5q-46 0 -77.5 -31.5t-31.5 -77.5q0 -45 30.5 -77t74.5 -32q46 0 76.5 31.5t30.5 77.5zM824 1328q0 46 -30 77.5t-75 31.5t-76.5 -31.5t-31.5 -77.5q0 -45 30.5 -77t75.5 -32q46 0 76.5 31.5t30.5 77.5zM734 0h173q-18 102 -18 253 v400q1 430 -394 430q-201 0 -344 -90l44 -127q34 22 77 40t91 28.5t96 11.5t91.5 -13t77 -41.5t53.5 -77t20 -117.5v-22q-302 2 -463 -100t-161 -295q-1 -130 85.5 -215.5t232.5 -85.5q211 0 318 153h4zM703 541v-186q0 -35 -9 -62q-23 -73 -90 -123.5t-159 -50.5 q-80 0 -128.5 47.5t-48.5 136.5q-1 124 108 183.5t327 54.5z"/>
            <glyph unicode="&#xe5;" horiz-adv-x="1037"
                   d="M728 1378q0 88 -61.5 149.5t-149.5 61.5t-149 -61.5t-61 -149.5q0 -87 61 -146q63 -61 149 -61q90 0 149 61q62 64 62 146zM627 1378q0 -44 -32.5 -76.5t-77.5 -32.5t-77 32t-32 77q0 46 32 79.5t77 33.5t77.5 -33.5t32.5 -79.5zM734 0h173q-18 110 -18 253v400 q1 430 -394 430q-201 0 -344 -90l44 -127q34 22 77 40t91 28.5t96 11.5t91.5 -13t77 -41.5t53.5 -77t20 -117.5v-22h-9q-301 0 -458 -101t-157 -294q-1 -130 87 -215.5t231 -85.5q211 0 318 153h4zM703 541v-186q0 -43 -9 -62q-23 -73 -90 -123.5t-159 -50.5 q-80 0 -128.5 47.5t-48.5 136.5q0 238 403 238h32z"/>
            <glyph unicode="&#xe6;" horiz-adv-x="1662"
                   d="M1585 600q0 71 -14.5 139.5t-47 131.5t-78.5 110t-115 75.5t-151 28.5q-249 0 -362 -222h-4q-74 222 -338 222q-179 0 -324 -94l44 -125q116 77 267 77q138 0 199 -94q42 -61 42 -141v-44q-303 0 -464.5 -99t-161.5 -285q0 -120 83 -209q90 -90 243 -90q282 0 386 230h6 q43 -112 151 -171q103 -60 274 -59t312 69l-35 136q-124 -59 -280 -59q-154 0 -244 96.5t-90 271.5v18h695q7 32 7 87zM1401 648h-518q4 111 70 198q51 67 128.5 91.5t152.5 -1t118 -95.5q49 -73 49 -168v-25zM708 535v-161q0 -111 -74.5 -182t-188.5 -71q-79 0 -129.5 47 t-50.5 127q0 240 410 240h33z"/>
            <glyph unicode="&#xe7;" horiz-adv-x="959"
                   d="M859 881l42 147q-54 29 -133.5 43.5t-172 11t-190 -43.5t-169.5 -115q-98 -98 -134 -243.5t-8.5 -285.5t105.5 -240q117 -142 311 -168l-92 -162q168 -18 172 -93q0 -43 -38.5 -59.5t-87.5 -8.5t-85 31l-32 -94q64 -38 146 -38q228 0 228 178q0 58 -44.5 100.5 t-109.5 51.5l56 88q158 1 278 56l-35 145q-120 -50 -228 -50q-161 0 -261 108q-101 106 -101 289q0 176 94 282q99 120 272 120q120 0 217 -50z"/>
            <glyph unicode="&#xe8;" horiz-adv-x="1077"
                   d="M285 1503l265 -313h136l-191 313h-210zM999 592q0 96 -25 182t-75 157t-134 112.5t-193 41.5q-221 0 -357 -163q-132 -162 -132 -407t137 -388q138 -144 374 -144q200 0 347 63l-34 136q-130 -53 -284 -53q-166 0 -259.5 96t-98.5 273h728q6 34 6 94zM815 636h-547 q17 131 91 221t197 90q133 -1 196 -88.5t63 -222.5z"/>
            <glyph unicode="&#xe9;" horiz-adv-x="1077"
                   d="M469 1190h133l266 313h-209zM999 592q0 96 -25 182t-75 157t-134 112.5t-193 41.5q-221 0 -357 -163q-132 -162 -132 -407t137 -388q138 -144 374 -144q202 0 347 63l-34 136q-130 -53 -284 -53q-162 0 -258.5 94t-99.5 275h728q6 34 6 94zM815 636h-547q17 131 91 221 t197 90q133 -1 197 -90t62 -221z"/>
            <glyph unicode="&#xea;" horiz-adv-x="1077"
                   d="M502 1503l-201 -313h138l124 206h4l125 -206h143l-206 313h-127zM999 592q0 96 -25 182t-75 157t-134 112.5t-193 41.5q-221 0 -357 -163q-132 -162 -132 -407t137 -388q138 -144 374 -144q200 0 347 63l-34 136q-130 -53 -284 -53q-166 0 -259.5 96t-98.5 273h728 q6 34 6 94zM815 636h-547q17 131 91 221t197 90q133 -1 196 -88.5t63 -222.5z"/>
            <glyph unicode="&#xeb;" horiz-adv-x="1077"
                   d="M487 1328q0 46 -30.5 77.5t-75.5 31.5q-44 0 -75.5 -31.5t-31.5 -77.5q0 -45 30 -77t75 -32q46 0 77 31.5t31 77.5zM883 1328q0 46 -30 77.5t-75 31.5q-46 0 -76.5 -31.5t-30.5 -77.5q0 -45 30 -77t75 -32q46 0 76.5 31.5t30.5 77.5zM999 592q0 96 -25 182t-75 157 t-134 112.5t-193 41.5q-221 0 -357 -163q-132 -162 -132 -407t137 -388q138 -144 374 -144q200 0 347 63l-34 136q-130 -53 -284 -53q-166 0 -259.5 96t-98.5 273h728q6 34 6 94zM815 636h-547q17 131 91 221t197 90q133 -1 196 -88.5t63 -222.5z"/>
            <glyph unicode="&#xec;" horiz-adv-x="506" d="M-59 1503l266 -313h132l-190 313h-208zM157 1060v-1060h192v1060h-192z"/>
            <glyph unicode="&#xed;" horiz-adv-x="506" d="M157 1190h134l265 313h-207zM157 1060v-1060h192v1060h-192z"/>
            <glyph unicode="&#xee;" horiz-adv-x="506" d="M188 1503l-203 -313h140l124 206h6l124 -206h142l-205 313h-128zM157 1060v-1060h192v1060h-192z"/>
            <glyph unicode="&#xef;" horiz-adv-x="506"
                   d="M160 1328q0 46 -29 77.5t-74 31.5t-75 -31.5t-30 -77.5q0 -45 29 -77t74 -32t75 31.5t30 77.5zM556 1328q0 46 -29 77.5t-73 31.5q-46 0 -76.5 -31.5t-30.5 -77.5q0 -45 30 -77t72 -32q48 0 77.5 31t29.5 78zM157 1060v-1060h192v1060h-192z"/>
            <glyph unicode="&#xf0;" horiz-adv-x="1163"
                   d="M1079 552q0 240 -92.5 429.5t-273.5 344.5l230 109l-48 95l-274 -132q-152 112 -301 178l-86 -119q131 -65 224 -133l-247 -119l42 -94l303 142q158 -123 249 -276l-5 -7q-98 90 -231 90q-201 0 -339 -144q-144 -156 -144 -399q0 -245 138 -392q90 -95 220.5 -129.5 t259 -3t216.5 118.5q159 155 159 441zM881 531q0 -109 -33 -200t-104 -150.5t-167 -59.5q-92 0 -162 58t-104.5 148t-34.5 194q0 107 34 199t105 151.5t166 59.5q146 0 223 -100t77 -300z"/>
            <glyph unicode="&#xf1;" horiz-adv-x="1194"
                   d="M866 1451h-97q-5 -92 -54 -92q-32 0 -102 37q-89 48 -138 48q-66 0 -103 -59t-37 -156h99q7 97 57 97q25 0 96 -38q82 -46 134 -46q145 1 145 200v9zM1043 0v638q0 115 -30 202.5t-82 139.5t-116 77.5t-138 25.5q-118 -1 -209 -56t-135 -138h-5l-10 171h-169 q8 -162 8 -286v-774h192v640q-1 117 74 199q73 88 190 88q240 0 240 -312v-615h190z"/>
            <glyph unicode="&#xf2;" horiz-adv-x="1178"
                   d="M303 1503l264 -313h136l-190 313h-210zM1096 539q0 115 -35 214.5t-98 172.5t-157.5 115t-207.5 42q-156 0 -273.5 -72.5t-179.5 -199.5t-62 -290q0 -231 130 -385q138 -157 368 -157q157 0 274.5 71.5t179 198.5t61.5 290zM901 533q0 -152 -77 -276q-90 -136 -237 -136 q-150 0 -236 134q-77 116 -77 274q0 112 35.5 204t109 150t171.5 58q96 0 168.5 -58t107.5 -149.5t35 -200.5z"/>
            <glyph unicode="&#xf3;" horiz-adv-x="1178"
                   d="M480 1190h133l265 313h-207zM1096 539q0 233 -130 385q-138 159 -368 159q-156 0 -273.5 -72.5t-179.5 -199.5t-62 -290q0 -231 130 -385q138 -157 368 -157q157 0 274.5 71.5t179 198.5t61.5 290zM901 533q0 -154 -77 -276q-90 -136 -237 -136q-150 0 -236 134 q-77 116 -77 274q0 164 75 278q86 134 241 134q96 0 168.5 -58t107.5 -149.5t35 -200.5z"/>
            <glyph unicode="&#xf4;" horiz-adv-x="1178"
                   d="M523 1503l-201 -313h138l125 206h5l125 -206h144l-208 313h-128zM1096 539q0 233 -130 385q-138 159 -368 159q-156 0 -273.5 -72.5t-179.5 -199.5t-62 -290q0 -231 130 -385q138 -157 368 -157q157 0 274.5 71.5t179 198.5t61.5 290zM901 533q0 -154 -77 -276 q-90 -136 -237 -136q-150 0 -236 134q-77 116 -77 274q0 164 75 278q86 134 241 134q96 0 168.5 -58t107.5 -149.5t35 -200.5z"/>
            <glyph unicode="&#xf5;" horiz-adv-x="1178"
                   d="M855 1451h-94q-8 -92 -58 -92q-28 0 -98 37q-89 48 -138 48q-68 0 -106.5 -59.5t-36.5 -155.5h99q10 97 57 97q26 0 97 -38q80 -46 133 -46q150 0 145 209zM1096 539q0 233 -130 385q-138 159 -368 159q-156 0 -273.5 -72.5t-179.5 -199.5t-62 -290q0 -231 130 -385 q138 -157 368 -157q157 0 274.5 71.5t179 198.5t61.5 290zM901 533q0 -154 -77 -276q-90 -136 -237 -136q-150 0 -236 134q-77 116 -77 274q0 164 75 278q86 134 241 134q96 0 168.5 -58t107.5 -149.5t35 -200.5z"/>
            <glyph unicode="&#xf6;" horiz-adv-x="1178"
                   d="M498 1328q0 46 -29.5 77.5t-73.5 31.5q-46 0 -78 -31.5t-32 -77.5q0 -45 31 -77t75 -32q46 0 76.5 31.5t30.5 77.5zM895 1328q0 46 -30.5 77.5t-75.5 31.5q-46 0 -76.5 -31.5t-30.5 -77.5q0 -45 29.5 -77t74.5 -32q46 0 77.5 31.5t31.5 77.5zM1096 539q0 233 -130 385 q-138 159 -368 159q-156 0 -273.5 -72.5t-179.5 -199.5t-62 -290q0 -231 130 -385q138 -157 368 -157q157 0 274.5 71.5t179 198.5t61.5 290zM901 533q0 -154 -77 -276q-90 -136 -237 -136q-150 0 -236 134q-77 116 -77 274q0 164 75 278q86 134 241 134q96 0 168.5 -58 t107.5 -149.5t35 -200.5z"/>
            <glyph unicode="&#xf7;" horiz-adv-x="1305"
                   d="M769 968q0 53 -32 87t-82 34q-53 0 -84.5 -33.5t-31.5 -87.5q0 -51 31 -85t81 -34q59 -1 88.5 28.5t29.5 90.5zM86 651v-132h1131v132h-1131zM767 199q0 52 -32 87.5t-82 35.5q-52 0 -84 -35t-32 -88q0 -51 30.5 -84.5t80.5 -33.5q119 -2 119 118z"/>
            <glyph unicode="&#xf8;" horiz-adv-x="1178"
                   d="M1096 537q0 253 -155 408l92 136l-88 59l-90 -130q-116 73 -261 73h-2q-223 -1 -366 -154t-143 -406q0 -257 158 -410l-90 -128l81 -66l94 131q113 -71 264 -71q102 0 193.5 37t161 106.5t110.5 176.5t41 238zM349 263l-4 2q-75 108 -75 264q0 82 21 155.5t60.5 131 t101 91.5t137.5 34q110 -1 181 -65zM912 531q0 -179 -90.5 -294.5t-234.5 -115.5q-106 0 -173 61l421 607h4q73 -109 73 -258z"/>
            <glyph unicode="&#xf9;" horiz-adv-x="1182"
                   d="M311 1503l264 -313h135l-191 313h-208zM868 0h169q-9 180 -9 289v771h-191v-652q0 -134 -105 -218q-77 -56 -160 -56q-231 0 -231 337v589h-190v-623q0 -220 93 -339t264 -119q234 0 343 190h6z"/>
            <glyph unicode="&#xfa;" horiz-adv-x="1182"
                   d="M502 1190h134l265 313h-209zM868 0h169q-9 180 -9 289v771h-191v-652q0 -134 -105 -218q-74 -56 -160 -56q-231 0 -231 337v589h-190v-623q0 -245 117 -366q92 -92 240 -92q234 0 343 190h6z"/>
            <glyph unicode="&#xfb;" horiz-adv-x="1182"
                   d="M529 1503l-205 -313h138l125 206h5l125 -206h144l-208 313h-124zM868 0h169q-9 180 -9 289v771h-191v-652q0 -134 -105 -218q-77 -56 -160 -56q-231 0 -231 337v589h-190v-623q0 -220 93 -339t264 -119q234 0 343 190h6z"/>
            <glyph unicode="&#xfc;" horiz-adv-x="1182"
                   d="M506 1328q0 46 -29.5 77.5t-73.5 31.5q-46 0 -78 -31.5t-32 -77.5q0 -45 31 -77t75 -32q46 0 76.5 31.5t30.5 77.5zM903 1328q0 46 -30.5 77.5t-75.5 31.5q-43 0 -75 -32t-32 -77t30 -77t75 -32q46 0 77 31.5t31 77.5zM868 0h169q-9 180 -9 289v771h-191v-652 q0 -134 -105 -218q-74 -56 -160 -56q-231 0 -231 337v589h-190v-623q0 -245 117 -366q92 -92 240 -92q234 0 343 190h6z"/>
            <glyph unicode="&#xfd;" horiz-adv-x="1014"
                   d="M429 1190h134l265 313h-207zM592 439l-66 -220h-7q-46 168 -65 215l-226 626h-207l382 -977q13 -36 13 -50q0 -15 -15 -44q-55 -123 -139.5 -199.5t-184.5 -109.5l50 -160q118 23 233 125q94 85 177 244q59 106 180 420l280 751h-202z"/>
            <glyph unicode="&#xfe;" horiz-adv-x="1221"
                   d="M1140 544q0 242 -126 391q-63 77 -138.5 112.5t-174.5 35.5q-237 0 -350 -186h-4v569h-190v-1897h190v571h4q105 -161 318 -161q98 0 183 37t149.5 106.5t101.5 178.5t37 243zM947 539q0 -191 -83 -301.5t-224 -110.5q-94 0 -169 51t-105 142q-19 41 -19 96v202 q0 52 21 105q33 94 108.5 151t167.5 57q140 0 222 -114q81 -107 81 -278z"/>
            <glyph unicode="&#xff;" horiz-adv-x="1014"
                   d="M439 1328q0 46 -30 77.5t-74 31.5q-46 0 -77.5 -31.5t-31.5 -77.5q0 -45 30.5 -77t74.5 -32q47 0 77.5 31.5t30.5 77.5zM835 1328q0 46 -30 77.5t-75 31.5q-44 0 -75.5 -31.5t-31.5 -77.5q0 -45 30.5 -77t74.5 -32q46 0 76.5 31.5t30.5 77.5zM795 1060l-203 -621 q-23 -67 -40 -129q-7 -25 -26 -91h-7q-46 168 -65 215l-226 626h-207l382 -977q13 -36 13 -50q0 -15 -15 -44q-55 -122 -141 -199.5t-183 -109.5l50 -160q118 24 233 125q94 85 177 244q89 175 180 420l280 751h-202z"/>
            <glyph unicode="&#x100;" horiz-adv-x="1313"
                   d="M406 1606h523v121h-523v-121zM546 1477l-491 -1477h194l150 462h511l153 -462h202l-491 1477h-228zM579 1035l72 271h4q33 -135 75 -273l142 -422h-435z"/>
            <glyph unicode="&#x101;" horiz-adv-x="1037"
                   d="M274 1284h491v125h-491v-125zM734 0h173q-18 102 -18 253v400q1 430 -394 430q-201 0 -344 -90l44 -127q34 22 77 40t91 28.5t96 11.5t91.5 -13t77 -41.5t53.5 -77t20 -117.5v-22q-302 2 -463 -100t-161 -295q-1 -130 85.5 -215.5t232.5 -85.5q211 0 318 153h4zM703 541 v-186q0 -35 -9 -62q-23 -73 -90 -123.5t-159 -50.5q-80 0 -128.5 47.5t-48.5 136.5q-1 124 108 183.5t327 54.5z"/>
            <glyph unicode="&#x102;" horiz-adv-x="1313"
                   d="M498 1790h-115q4 -105 70.5 -168.5t199.5 -63.5t200 64.5t71 167.5h-109q-20 -107 -160 -107q-73 0 -110 31t-47 76zM546 1477l-491 -1477h194l150 462h511l153 -462h202l-491 1477h-228zM579 1035l72 271h4l45 -167q16 -68 30 -106l142 -422h-435z"/>
            <glyph unicode="&#x103;" horiz-adv-x="1037"
                   d="M782 1488h-109q-5 -57 -35 -95.5t-71 -47.5t-83 0.5t-75.5 47.5t-42.5 95h-109q2 -112 68.5 -185.5t193.5 -73.5q120 0 190.5 70t72.5 189zM734 0h173q-18 110 -18 253v400q1 430 -394 430q-201 0 -344 -90l44 -127q34 22 77 40t91 28.5t96 11.5t91.5 -13t77 -41.5 t53.5 -77t20 -117.5v-22h-9q-299 0 -457 -101q-75 -48 -115.5 -119.5t-43.5 -142.5t18.5 -135.5t62.5 -105.5q89 -92 238 -92q211 0 318 153h4zM703 541v-186q0 -57 -25 -101q-30 -55 -88 -95t-145 -40q-80 0 -128.5 47.5t-48.5 136.5q0 238 403 238h32z"/>
            <glyph unicode="&#x104;" horiz-adv-x="1313"
                   d="M546 1477l-491 -1477h194l150 462h511l150 -453q-57 -66 -83 -116q-46 -85 -46 -154q0 -91 55 -139.5t149 -48.5q115 0 176 50l-29 98q-42 -21 -99 -21q-51 0 -81.5 31t-30.5 82q0 50 46 118q30 46 71 87l77 4l-491 1477h-228zM579 1035l72 271h4q33 -135 75 -273 l142 -422h-435z"/>
            <glyph unicode="&#x105;" horiz-adv-x="1037"
                   d="M855 0h52q-18 102 -18 253v400q1 430 -394 430q-201 0 -344 -90l44 -127q34 22 77 40t91 28.5t96 11.5t91.5 -13t77 -41.5t53.5 -77t20 -117.5v-22q-302 2 -463 -100t-161 -295q-1 -130 85.5 -215.5t232.5 -85.5q211 0 318 153h4l15 -126q-10 -17 -30 -53 q-14 -24 -34 -65q-39 -83 -39 -153q0 -90 54 -138.5t141 -48.5q111 0 180 53l-31 100q-42 -21 -101 -21q-47 0 -76 28.5t-29 80.5q0 96 88 211zM703 541v-186q0 -35 -9 -62q-23 -73 -90 -123.5t-159 -50.5q-80 0 -128.5 47.5t-48.5 136.5q-1 124 108 183.5t327 54.5z"/>
            <glyph unicode="&#x106;" horiz-adv-x="1240"
                   d="M659 1560h156l281 257h-233zM1127 1282l46 153q-121 64 -341 64q-221 0 -392 -96t-266 -272.5t-95 -405.5q0 -356 203 -556q196 -188 509 -188q242 0 380 65l-38 151q-124 -59 -303 -59q-258 0 -403 159q-149 160 -149 435q1 289 156 451q146 158 405 158q164 0 288 -59z "/>
            <glyph unicode="&#x107;" horiz-adv-x="959"
                   d="M454 1190h133l266 313h-209zM859 881l42 147q-101 55 -259 55q-252 -1 -405.5 -157.5t-153.5 -406.5q0 -246 141 -392t378 -146q168 0 295 56l-31 145q-120 -50 -228 -50q-161 0 -261 108q-101 106 -101 289q0 176 94 282q99 120 272 120q122 0 217 -50z"/>
            <glyph unicode="&#x108;" horiz-adv-x="1240"
                   d="M690 1922l-201 -314h138l124 207h5l125 -207h142l-206 314h-127zM1127 1282l46 153q-121 64 -341 64q-221 0 -392 -96t-266 -272.5t-95 -405.5q0 -356 203 -556q196 -188 509 -188q242 0 380 65l-38 151q-124 -59 -303 -59q-258 0 -403 159q-149 160 -149 435 q1 289 156 451q146 158 405 158q164 0 288 -59z"/>
            <glyph unicode="&#x109;" horiz-adv-x="959"
                   d="M513 1505l-202 -313h138l126 206h4l124 -206h143l-206 313h-127zM859 881l42 147q-101 55 -259 55q-252 -1 -405.5 -157.5t-153.5 -406.5q0 -246 141 -392t378 -146q168 0 295 56l-31 145q-120 -50 -228 -50q-161 0 -261 108q-101 106 -101 289q0 176 94 282 q99 120 272 120q122 0 217 -50z"/>
            <glyph unicode="&#x10a;" horiz-adv-x="1240"
                   d="M929 1718q0 46 -29.5 78t-73.5 32q-46 0 -77.5 -32t-31.5 -78q0 -44 31 -77t76 -33t75 32t30 78zM1127 1282l46 153q-121 64 -341 64q-221 0 -392 -96t-266 -272.5t-95 -405.5q0 -356 203 -556q196 -188 509 -188q242 0 380 65l-38 151q-124 -59 -303 -59 q-258 0 -403 159q-149 160 -149 435q1 289 156 451q146 158 405 158q164 0 288 -59z"/>
            <glyph unicode="&#x10b;" horiz-adv-x="959"
                   d="M710 1302q0 46 -29.5 77.5t-73.5 31.5q-46 0 -77.5 -31.5t-31.5 -77.5q0 -45 31 -77.5t76 -32.5t75 32t30 78zM859 881l42 147q-101 55 -259 55q-252 -1 -405.5 -157.5t-153.5 -406.5q0 -246 141 -392t378 -146q168 0 295 56l-31 145q-120 -50 -228 -50q-161 0 -261 108 q-101 106 -101 289q0 176 94 282q99 120 272 120q122 0 217 -50z"/>
            <glyph unicode="&#x10c;" horiz-adv-x="1240"
                   d="M1071 1813h-157l-138 -152h-5l-140 152h-162l230 -251h147zM1127 1282l46 153q-121 64 -341 64q-221 0 -392 -96t-266 -272.5t-95 -405.5q0 -356 203 -556q196 -188 509 -188q242 0 380 65l-38 151q-124 -59 -303 -59q-258 0 -403 159q-149 160 -149 435q1 289 156 451 q146 158 405 158q164 0 288 -59z"/>
            <glyph unicode="&#x10d;" horiz-adv-x="959"
                   d="M569 1295h-4l-128 208h-146l211 -313h131l206 313h-142zM859 881l42 147q-101 55 -259 55q-252 -1 -405.5 -157.5t-153.5 -406.5q0 -246 141 -392t378 -146q168 0 295 56l-31 145q-120 -50 -228 -50q-161 0 -261 108q-101 106 -101 289q0 176 94 282q99 120 272 120 q122 0 217 -50z"/>
            <glyph unicode="&#x10e;" horiz-adv-x="1426"
                   d="M953 1813h-158l-138 -152h-4l-140 152h-162l230 -251h147zM1348 774q0 341 -208 537q-196 177 -584 177q-197 0 -391 -31v-1453q125 -15 335 -15q420 0 634 205t214 580zM1148 767q0 -306 -156 -466.5t-455 -160.5q-138 0 -184 9v1170q86 17 214 17q291 0 439 -150 q142 -148 142 -419z"/>
            <glyph unicode="&#x10f;" horiz-adv-x="1281"
                   d="M1155 1207l81 -63q47 30 85 83q61 84 61 189q0 52 -23 97t-55 63l-138 -31q30 -27 50 -65t20 -77q0 -101 -81 -196zM892 0h171q-9 108 -9 272v1282h-191v-630h-4q-58 103 -177 140.5t-247 1.5t-214 -133q-138 -162 -138 -418q0 -238 126.5 -387t319.5 -149q247 0 349 201 h5zM863 631v-190q0 -124 -77 -215q-54 -64 -135 -87.5t-163.5 4t-134.5 104.5q-79 107 -79 279q0 175 83 291q86 116 228 116q103 0 176.5 -62t95.5 -158q6 -35 6 -82z"/>
            <glyph unicode="&#x110;" horiz-adv-x="1502"
                   d="M1348 774q0 341 -208 537q-196 177 -584 177q-197 0 -391 -31v-631h-169v-153h169v-669q125 -15 335 -15q420 0 634 205t214 580zM1148 767q0 -306 -156 -466.5t-455 -160.5q-138 0 -184 9v524h410v153h-410v493q86 17 214 17q291 0 439 -150q142 -148 142 -419z"/>
            <glyph unicode="&#x111;" horiz-adv-x="1211"
                   d="M892 0h171q-9 108 -9 272v937h167v121h-167v224h-191v-224h-390v-121h390v-285h-4q-58 103 -177 140.5t-247 1.5t-214 -133q-138 -162 -138 -418q0 -238 126.5 -387t319.5 -149q247 0 349 201h5zM863 631v-190q0 -124 -77 -215q-54 -64 -135 -87.5t-163.5 4t-134.5 104.5 q-79 107 -79 279q0 175 83 291q86 116 228 116q103 0 176.5 -62t95.5 -158q6 -35 6 -82z"/>
            <glyph unicode="&#x112;" horiz-adv-x="1056" d="M295 1606h525v121h-525v-121zM353 157v535h561v159h-561v468h594v158h-782v-1477h814v157h-626z"/>
            <glyph unicode="&#x113;" horiz-adv-x="1077"
                   d="M318 1284h491v125h-491v-125zM999 592q0 96 -25 182t-75 157t-134 112.5t-193 41.5q-221 0 -357 -163q-132 -162 -132 -407t137 -388q138 -144 374 -144q202 0 347 63l-34 136q-130 -53 -284 -53q-162 0 -258.5 94t-99.5 275h728q6 34 6 94zM815 636h-547q17 131 91 221 t197 90q133 -1 197 -90t62 -221z"/>
            <glyph unicode="&#x114;" horiz-adv-x="1056"
                   d="M835 1845h-110q-11 -149 -156 -149q-125 0 -151 149h-109q1 -102 61 -177q69 -81 202 -81q120 0 190 69t73 189zM353 157v535h561v159h-561v468h594v158h-782v-1477h814v157h-626z"/>
            <glyph unicode="&#x115;" horiz-adv-x="1077"
                   d="M839 1455h-109q-11 -149 -155 -149q-128 0 -152 149h-109q2 -105 60 -177q69 -82 203 -82q120 0 190 69.5t72 189.5zM999 592q0 96 -25 182t-75 157t-134 112.5t-193 41.5q-221 0 -357 -163q-132 -162 -132 -407t137 -388q138 -144 374 -144q202 0 347 63l-34 136 q-130 -53 -284 -53q-162 0 -258.5 94t-99.5 275h728q6 34 6 94zM815 636h-547q17 131 91 221t197 90q133 -1 197 -90t62 -221z"/>
            <glyph unicode="&#x116;" horiz-adv-x="1056"
                   d="M548 1580h2q45 0 75 33.5t30 78.5t-29.5 77t-73.5 32q-47 0 -79 -32t-32 -77t31.5 -78.5t75.5 -33.5zM353 157v535h561v159h-561v468h594v158h-782v-1477h814v157h-626z"/>
            <glyph unicode="&#x117;" horiz-adv-x="1077"
                   d="M677 1328q0 46 -29.5 77.5t-72.5 31.5q-46 0 -78.5 -31.5t-32.5 -77.5q0 -45 31.5 -77t76.5 -32t75 31.5t30 77.5zM999 592q0 96 -25 182t-75 157t-134 112.5t-193 41.5q-221 0 -357 -163q-132 -162 -132 -407t137 -388q138 -144 374 -144q202 0 347 63l-34 136 q-130 -53 -284 -53q-162 0 -258.5 94t-99.5 275h728q6 34 6 94zM815 636h-547q17 131 91 221t197 90q133 -1 197 -90t62 -221z"/>
            <glyph unicode="&#x118;" horiz-adv-x="1056"
                   d="M353 157v535h561v159h-561v468h594v158h-782v-1477h626q-66 -41 -117 -112q-59 -82 -59 -162q0 -85 53.5 -131.5t148.5 -46.5q98 0 174 46l-29 103q-48 -17 -96 -17q-46 0 -73.5 22.5t-27.5 65.5q0 61 57 124q59 64 127 106l30 2v157h-626z"/>
            <glyph unicode="&#x119;" horiz-adv-x="1077"
                   d="M999 592q0 96 -25 182t-75 157t-134 112.5t-193 41.5q-221 0 -357 -163q-132 -162 -132 -407t137 -388q138 -144 374 -144h24q8 0 26 2v-2q-80 -62 -121 -109q-69 -78 -69 -150q0 -83 52 -128t145 -45q102 0 175 52l-31 98q-52 -21 -103 -21q-38 0 -64 23.5t-26 68.5 q0 26 15 51q29 54 90 104q70 59 125 82q73 21 109 37l-34 136q-130 -53 -284 -53q-162 0 -258.5 94t-99.5 275h728q6 34 6 94zM815 636h-547q17 131 91 221t197 90q133 -1 197 -90t62 -221z"/>
            <glyph unicode="&#x11a;" horiz-adv-x="1056" d="M855 1813h-158l-138 -152h-5l-140 152h-161l230 -251h146zM353 157v535h561v159h-561v468h594v158h-782v-1477h814v157h-626z"/>
            <glyph unicode="&#x11b;" horiz-adv-x="1077"
                   d="M550 1295h-4l-130 208h-144l211 -313h130l207 313h-143zM999 592q0 96 -25 182t-75 157t-134 112.5t-193 41.5q-221 0 -357 -163q-132 -162 -132 -407t137 -388q138 -144 374 -144q202 0 347 63l-34 136q-130 -53 -284 -53q-162 0 -258.5 94t-99.5 275h728q6 34 6 94z M815 636h-547q17 131 91 221t197 90q133 -1 197 -90t62 -221z"/>
            <glyph unicode="&#x11c;" horiz-adv-x="1384"
                   d="M736 1915l-201 -313h138l124 206h5l125 -206h142l-206 313h-127zM784 776v-153h295v-443q-81 -38 -247 -38q-254 0 -404 159q-150 158 -150 437q1 278 157.5 436t421.5 158q185 0 316 -61l48 155q-137 67 -360 67q-235 0 -413 -97t-273.5 -270t-95.5 -398 q0 -353 203 -550q94 -91 223 -139.5t263 -52.5t258.5 16t236.5 61v713h-479z"/>
            <glyph unicode="&#x11d;" horiz-adv-x="1202"
                   d="M502 1505l-201 -313h138l124 206h4l125 -206h143l-206 313h-127zM876 903h-4q-95 180 -320 180q-95 0 -180 -40t-149.5 -111t-102 -178t-37.5 -233q0 -224 125.5 -370.5t317.5 -146.5q223 0 327 176h4v-119q-1 -366 -334 -366q-167 0 -304 84l-46 -149q129 -84 344 -84 q127 0 220.5 30.5t164.5 99.5t107 188.5t36 288.5v614q0 142 9 293h-169zM855 646v-199q-2 -63 -14 -100q-30 -92 -101 -145q-50 -38 -117.5 -50.5t-143 14t-126.5 97.5q-79 100 -79 270q0 183 86 291q86 109 223 109q200 0 263 -201q9 -28 9 -86z"/>
            <glyph unicode="&#x11e;" horiz-adv-x="1384"
                   d="M1100 1813h-116q-18 -119 -158 -119q-126 0 -155 119h-115q6 -105 74.5 -169t197.5 -64q121 0 195.5 64t76.5 169zM784 776v-153h295v-443q-81 -38 -247 -38q-254 0 -404 159q-150 158 -150 437q1 278 157.5 436t421.5 158q185 0 316 -61l48 155q-137 67 -360 67 q-235 0 -413 -97t-273.5 -270t-95.5 -398q0 -353 203 -550q94 -91 223 -139.5t263 -52.5t258.5 16t236.5 61v713h-479z"/>
            <glyph unicode="&#x11f;" horiz-adv-x="1202"
                   d="M849 1488h-111q-3 -48 -25 -82.5t-53 -50t-68 -15.5t-69.5 16t-58 50.5t-33.5 81.5h-109q4 -117 70 -188t193 -71q119 0 190 70.5t74 188.5zM876 903h-4q-95 180 -320 180q-95 0 -180 -40t-149.5 -111t-102 -178t-37.5 -233q0 -224 125.5 -370.5t317.5 -146.5 q223 0 327 176h4v-119q-1 -366 -334 -366q-167 0 -304 84l-46 -149q129 -84 344 -84q127 0 220.5 30.5t164.5 99.5t107 188.5t36 288.5v614q0 142 9 293h-169zM855 646v-199q-2 -63 -14 -100q-30 -92 -101 -145q-50 -38 -117.5 -50.5t-143 14t-126.5 97.5q-79 100 -79 270 q0 183 86 291q86 109 223 109q200 0 263 -201q9 -28 9 -86z"/>
            <glyph unicode="&#x120;" horiz-adv-x="1384"
                   d="M958 1711q0 46 -29.5 78t-73.5 32q-46 0 -78 -32t-32 -78q0 -44 31.5 -76.5t76.5 -32.5t75 31.5t30 77.5zM784 776v-153h295v-443q-81 -38 -247 -38q-254 0 -404 159q-150 158 -150 437q1 278 157.5 436t421.5 158q185 0 316 -61l48 155q-137 67 -360 67q-235 0 -413 -97 t-273.5 -270t-95.5 -398q0 -353 203 -550q94 -91 223 -139.5t263 -52.5t258.5 16t236.5 61v713h-479z"/>
            <glyph unicode="&#x121;" horiz-adv-x="1202"
                   d="M675 1302q0 46 -29.5 77.5t-73.5 31.5q-46 0 -78 -31.5t-32 -77.5q0 -45 31 -77.5t76 -32.5t75.5 32t30.5 78zM876 903h-4q-95 180 -320 180q-95 0 -180 -40t-149.5 -111t-102 -178t-37.5 -233q0 -224 125.5 -370.5t317.5 -146.5q223 0 327 176h4v-119q-1 -366 -334 -366 q-167 0 -304 84l-46 -149q129 -84 344 -84q127 0 220.5 30.5t164.5 99.5t107 188.5t36 288.5v614q0 142 9 293h-169zM855 646v-199q-2 -63 -14 -100q-30 -92 -101 -145q-50 -38 -117.5 -50.5t-143 14t-126.5 97.5q-79 100 -79 270q0 183 86 291q86 109 223 109 q200 0 263 -201q9 -28 9 -86z"/>
            <glyph unicode="&#x122;" horiz-adv-x="1384"
                   d="M784 776v-153h295v-443q-81 -38 -247 -38q-254 0 -404 159q-150 158 -150 437q1 278 157.5 436t421.5 158q185 0 316 -61l48 155q-137 67 -360 67q-235 0 -413 -97t-273.5 -270t-95.5 -398q0 -353 203 -550q94 -91 223 -139.5t263 -52.5t258.5 16t236.5 61v713h-479z M618 -397l37 -90q113 5 192 62q91 65 91 176q0 51 -25.5 93.5t-61.5 65.5l-143 -31q32 -25 53 -60.5t21 -71.5q0 -61 -46 -96t-118 -48z"/>
            <glyph unicode="&#x123;" horiz-adv-x="1202"
                   d="M769 1472l-37 82q-111 -5 -191 -57q-92 -61 -92 -169q0 -47 26 -89.5t62 -65.5l136 28q-77 60 -77 129q0 62 48 96.5t125 45.5zM876 903h-4q-95 180 -320 180q-95 0 -180 -40t-149.5 -111t-102 -178t-37.5 -233q0 -224 125.5 -370.5t317.5 -146.5q223 0 327 176h4v-119 q-1 -366 -334 -366q-167 0 -304 84l-46 -149q129 -84 344 -84q127 0 220.5 30.5t164.5 99.5t107 188.5t36 288.5v614q0 142 9 293h-169zM855 646v-199q-2 -63 -14 -100q-30 -92 -101 -145q-50 -38 -117.5 -50.5t-143 14t-126.5 97.5q-79 100 -79 270q0 183 86 291 q86 109 223 109q200 0 263 -201q9 -28 9 -86z"/>
            <glyph unicode="&#x124;" horiz-adv-x="1401" d="M636 1900l-202 -313h138l125 205h4l125 -205h142l-205 313h-127zM1048 1477v-620h-695v620h-188v-1477h188v692h695v-692h190v1477h-190z"/>
            <glyph unicode="&#x125;" horiz-adv-x="1194"
                   d="M535 1976l-202 -313h138l125 206h4l125 -206h143l-207 313h-126zM1043 0v636q0 93 -19.5 169t-53.5 127t-80.5 85.5t-98 50t-109.5 15.5q-101 0 -190 -49.5t-139 -134.5h-4v655h-192v-1554h192v644q0 48 11 90q27 84 96.5 137t156.5 53q240 0 240 -309v-615h190z"/>
            <glyph unicode="&#x126;" horiz-adv-x="1737"
                   d="M1403 1227v250h-191v-250h-695v250h-189v-250h-163v-153h163v-1074h189v692h695v-692h191v1074h168v153h-168zM517 1074h695v-217h-695v217z"/>
            <glyph unicode="&#x127;" horiz-adv-x="1434"
                   d="M590 1350v204h-191v-204h-265v-154h265v-1196h191v644q0 51 10 90q30 85 99 137.5t156 52.5q239 0 239 -309v-615h190v636q0 116 -29.5 204t-81 140t-115 77.5t-136.5 25.5q-100 0 -189 -49.5t-139 -134.5h-4v297h293v154h-293z"/>
            <glyph unicode="&#x128;" horiz-adv-x="518"
                   d="M529 1788h-98q-11 -90 -63 -90q-36 0 -103 40q-77 44 -133 44q-66 0 -104.5 -52t-38.5 -143v-21h99q4 38 12.5 60.5t20 31.5t32.5 5.5t41.5 -13t54.5 -28.5q75 -42 132 -42q74 -1 111 51.5t37 156.5zM165 1477v-1477h188v1477h-188z"/>
            <glyph unicode="&#x129;" horiz-adv-x="506"
                   d="M519 1451h-94q-8 -92 -57 -92q-28 0 -98 37q-88 48 -138 48q-69 0 -106 -58.5t-37 -156.5h99q6 97 56 97q26 0 97 -38q80 -46 133 -46q145 1 145 200v9zM157 1060v-1060h192v1060h-192z"/>
            <glyph unicode="&#x12a;" horiz-adv-x="518" d="M-2 1606h523v121h-523v-121zM165 1477v-1477h188v1477h-188z"/>
            <glyph unicode="&#x12b;" horiz-adv-x="506" d="M9 1284h491v125h-491v-125zM157 1060v-1060h192v1060h-192z"/>
            <glyph unicode="&#x12c;" horiz-adv-x="518" d="M523 1845h-109q-11 -149 -155 -149q-126 0 -152 149h-109q2 -112 69 -185t194 -73q120 0 190 69t72 189zM165 1477v-1477h188v1477h-188z"/>
            <glyph unicode="&#x12d;" horiz-adv-x="506"
                   d="M517 1431h-109q-11 -149 -155 -149q-128 0 -152 149h-110q3 -105 61 -178q69 -80 203 -80q119 0 189.5 69.5t72.5 188.5zM157 1060v-1060h192v1060h-192z"/>
            <glyph unicode="&#x12e;" horiz-adv-x="518"
                   d="M165 1477v-1477q-40 -53 -68 -116q-38 -85 -38 -154q0 -91 55 -139.5t149 -48.5q107 0 176 50l-31 99q-36 -19 -99 -19q-50 0 -81 29t-31 84q0 66 64 173l28 42h64v1477h-188z"/>
            <glyph unicode="&#x12f;" horiz-adv-x="506"
                   d="M374 1378q0 55 -33.5 89t-87.5 34t-89 -35t-35 -88q0 -52 34 -87t86 -35q56 0 90.5 34t34.5 88zM157 1060v-1060q-44 -61 -67 -116q-35 -82 -35 -154q0 -91 54 -139.5t148 -48.5q107 0 174 50l-28 99q-43 -19 -100 -19q-50 0 -81.5 29t-31.5 84q0 51 36 121q24 46 59 94 h64v1060h-192z"/>
            <glyph unicode="&#x130;" horiz-adv-x="518"
                   d="M366 1690q0 46 -29.5 77.5t-73.5 31.5q-46 0 -78 -31.5t-32 -77.5q0 -45 31.5 -77.5t76.5 -32.5t75 32t30 78zM165 1477v-1477h188v1477h-188z"/>
            <glyph unicode="&#x131;" horiz-adv-x="506" d="M157 1060v-1060h192v1060h-192z"/>
            <glyph unicode="&#x132;" horiz-adv-x="1313"
                   d="M165 1477v-1477h188v1477h-188zM975 1477v-977q1 -196 -62.5 -279t-199.5 -83q-85 0 -159 27l-25 -156q85 -30 196 -30q441 0 441 506v992h-191z"/>
            <glyph unicode="&#x133;" horiz-adv-x="1031"
                   d="M374 1378q0 55 -33.5 89t-87.5 34t-89 -35t-35 -88q0 -52 34 -87t86 -35q56 0 90.5 34t34.5 88zM905 1378q0 53 -34 88t-87 35q-52 0 -88.5 -35t-36.5 -88q0 -52 34.5 -87t86.5 -35q55 0 90 34t35 88zM157 1060v-1060h192v1060h-192zM688 1060v-895q0 -313 -73 -393 q-63 -73 -203 -81l19 -151q207 1 320 121q127 126 127 431v968h-190z"/>
            <glyph unicode="&#x134;" horiz-adv-x="795"
                   d="M483 1900l-203 -313h138l126 205h4l125 -205h142l-206 313h-126zM456 1477v-977q0 -196 -63.5 -279t-199.5 -83q-85 0 -158 27l-26 -156q85 -30 198 -30q439 0 439 506v992h-190z"/>
            <glyph unicode="&#x135;" horiz-adv-x="525"
                   d="M207 1483l-203 -312h138l126 205h4l125 -205h142l-206 312h-126zM182 1060v-895q0 -313 -73 -393q-63 -73 -203 -81l19 -151q207 1 320 121q127 126 127 431v968h-190z"/>
            <glyph unicode="&#x136;" horiz-adv-x="1167"
                   d="M1146 1477h-232l-441 -553q-78 -104 -113 -159h-7v712h-188v-1477h188v563l138 160l473 -723h224l-563 849zM425 -393l37 -90q112 7 191 62q90 64 90 176q0 51 -25.5 93.5t-62.5 65.5l-140 -31q32 -25 53.5 -60t21.5 -70q0 -62 -47 -97.5t-118 -48.5z"/>
            <glyph unicode="&#x137;" horiz-adv-x="1010"
                   d="M975 1060h-228l-306 -366q-24 -28 -44 -56q-26 -37 -46 -63h-4v979h-190v-1554h190v399l96 109l354 -508h233l-455 623zM341 -397l38 -90q113 5 191 62q89 65 89 176q0 49 -25.5 93t-61.5 66l-141 -31q33 -25 54 -60t21 -72q0 -60 -47 -95.5t-118 -48.5z"/>
            <glyph unicode="&#x138;" horiz-adv-x="1010" d="M975 1060h-228l-306 -366q-24 -28 -44 -56q-26 -37 -46 -63h-4v485h-190v-1060h190v399l96 109l354 -508h233l-455 623z"/>
            <glyph unicode="&#x139;" horiz-adv-x="1014" d="M184 1556h153l284 257h-230zM353 160v1317h-188v-1477h805v160h-617z"/>
            <glyph unicode="&#x13a;" horiz-adv-x="506" d="M138 1619h155l279 257h-231zM157 1554v-1554h192v1554h-192z"/>
            <glyph unicode="&#x13b;" horiz-adv-x="1014"
                   d="M353 160v1317h-188v-1477h805v160h-617zM366 -397l37 -90q109 5 192 62q91 63 91 176q0 51 -26 93.5t-62 65.5l-142 -31q33 -25 54 -60t21 -72q0 -60 -47 -95.5t-118 -48.5z"/>
            <glyph unicode="&#x13c;" horiz-adv-x="506"
                   d="M157 1554v-1554h192v1554h-192zM73 -397l36 -90q113 5 191 62q91 67 91 176q0 49 -26 92.5t-62 66.5l-140 -31q32 -25 52.5 -60t20.5 -72q0 -61 -46 -96t-117 -48z"/>
            <glyph unicode="&#x13d;" horiz-adv-x="1014"
                   d="M523 1194l38 -90q113 5 191 62q89 65 89 175q0 52 -25 94.5t-62 65.5l-141 -31q32 -24 53.5 -60t21.5 -71q0 -61 -47 -96.5t-118 -48.5zM353 160v1317h-188v-1477h805v160h-617z"/>
            <glyph unicode="&#x13e;" horiz-adv-x="540"
                   d="M439 1207l84 -63q52 41 83 84q58 80 58 183q0 54 -23 100.5t-54 64.5l-138 -31q29 -26 48.5 -64.5t19.5 -77.5q0 -98 -78 -196zM157 1554v-1554h192v1554h-192z"/>
            <glyph unicode="&#x13f;" horiz-adv-x="1014"
                   d="M353 160v1317h-188v-1477h805v160h-617zM897 887q0 60 -35 99t-93 39q-56 0 -92.5 -39.5t-36.5 -98.5q0 -58 35.5 -97t91.5 -39q59 0 94.5 38t35.5 98z"/>
            <glyph unicode="&#x140;" horiz-adv-x="945" d="M157 1554v-1554h192v1554h-192zM809 887q0 60 -35 99t-92 39t-93.5 -39t-36.5 -99q0 -58 35.5 -97t91.5 -39q59 0 94.5 38t35.5 98z"/>
            <glyph unicode="&#x141;" horiz-adv-x="1025" d="M364 160v559l289 212v150l-289 -213v609h-191v-741l-182 -134v-148l182 136v-590h806v160h-615z"/>
            <glyph unicode="&#x142;" horiz-adv-x="523" d="M357 931v623h-190v-770l-150 -129v-151l150 129v-633h190v778l153 136v153z"/>
            <glyph unicode="&#x143;" horiz-adv-x="1412"
                   d="M602 1560h157l280 257h-232zM1071 1477v-614q0 -359 23 -610h-5q-106 230 -259 481l-460 743h-205v-1477h176v625q0 414 -15 613l7 2q93 -204 269 -495l456 -745h191v1477h-178z"/>
            <glyph unicode="&#x144;" horiz-adv-x="1194"
                   d="M487 1190h134l264 313h-208zM1043 0v638q0 115 -30 202.5t-82 139.5t-116 77.5t-138 25.5q-118 -1 -209 -56t-135 -138h-5l-10 171h-169q8 -162 8 -286v-774h192v640q-1 114 74 199q73 88 190 88q240 0 240 -312v-615h190z"/>
            <glyph unicode="&#x145;" horiz-adv-x="1412"
                   d="M1071 1477v-614q0 -359 23 -610h-5q-106 230 -259 481l-460 743h-205v-1477h176v625q0 414 -15 613l7 2q93 -204 269 -495l456 -745h191v1477h-178zM529 -397l36 -90q113 5 192 62q92 66 92 176q0 51 -26 93.5t-62 65.5l-143 -31q32 -25 53 -60.5t21 -71.5q0 -61 -46 -96 t-117 -48z"/>
            <glyph unicode="&#x146;" horiz-adv-x="1194"
                   d="M1043 0v638q0 115 -30 202.5t-82 139.5t-116 77.5t-138 25.5q-118 -1 -209 -56t-135 -138h-5l-10 171h-169q8 -162 8 -286v-774h192v640q-1 114 74 199q73 88 190 88q240 0 240 -312v-615h190zM441 -397l36 -90q112 5 192 62q90 66 90 176q0 49 -26 92.5t-62 66.5 l-140 -31q32 -25 53 -60.5t21 -71.5q0 -61 -46.5 -96t-117.5 -48z"/>
            <glyph unicode="&#x147;" horiz-adv-x="1412"
                   d="M1019 1813h-158l-138 -152h-4l-140 152h-163l230 -251h147zM1071 1477v-614q0 -359 23 -610h-5q-106 230 -259 481l-460 743h-205v-1477h176v625q0 414 -15 613l7 2q93 -204 269 -495l456 -745h191v1477h-178z"/>
            <glyph unicode="&#x148;" horiz-adv-x="1194"
                   d="M642 1295h-4l-130 208h-144l211 -313h130l207 313h-143zM1043 0v638q0 115 -30 202.5t-82 139.5t-116 77.5t-138 25.5q-118 -1 -209 -56t-135 -138h-5l-10 171h-169q8 -162 8 -286v-774h192v640q-1 114 74 199q73 88 190 88q240 0 240 -312v-615h190z"/>
            <glyph unicode="&#x149;" horiz-adv-x="1412"
                   d="M399 1514l-198 -19q-37 -266 -128 -513l122 15q116 195 204 517zM1249 0v638q0 115 -30 202.5t-82 139.5t-116.5 77.5t-137.5 25.5q-117 -1 -208 -56t-136 -138h-4l-12 171h-168q9 -130 9 -286v-774h190v640q0 115 75 199q73 88 191 88q238 0 238 -312v-615h191z"/>
            <glyph unicode="&#x14a;" horiz-adv-x="1412"
                   d="M1071 1477v-614q0 -359 23 -610h-5q-106 230 -259 481l-460 743h-205v-1477h176v625q0 414 -15 613l7 2q93 -204 269 -495l450 -736q-16 -175 -65 -237q-64 -73 -205 -81l20 -151q207 1 320 121q108 108 127 339v1477h-178z"/>
            <glyph unicode="&#x14b;" horiz-adv-x="1194"
                   d="M1043 0v638q0 115 -30 202.5t-82 139.5t-116 77.5t-138 25.5q-118 -1 -209 -56t-135 -138h-5l-10 171h-169q8 -162 8 -286v-774h192v640q-1 114 74 199q73 88 190 88q240 0 240 -312v-450q0 -313 -73 -393q-63 -73 -203 -81l19 -151q205 1 320 121q107 106 127 339z"/>
            <glyph unicode="&#x14c;" horiz-adv-x="1472"
                   d="M473 1606h524v121h-524v-121zM1394 754q0 157 -44 293.5t-125.5 237t-204.5 158.5t-273 58q-205 0 -358.5 -104.5t-231.5 -278.5t-78 -390q0 -159 44.5 -296t126 -237.5t204 -158t271.5 -57.5q159 0 286.5 59t211 163.5t127.5 245.5t44 307zM1192 745 q0 -122 -29.5 -231.5t-85 -195t-144.5 -136t-199 -50.5q-86 0 -160.5 32.5t-128.5 89t-92.5 132.5t-57.5 164t-19 182q0 245 107 412q125 201 353 201q220 0 349 -197q107 -167 107 -403z"/>
            <glyph unicode="&#x14d;" horiz-adv-x="1178"
                   d="M345 1284h490v125h-490v-125zM1096 539q0 233 -130 385q-138 159 -368 159q-156 0 -273.5 -72.5t-179.5 -199.5t-62 -290q0 -231 130 -385q138 -157 368 -157q157 0 274.5 71.5t179 198.5t61.5 290zM901 533q0 -154 -77 -276q-90 -136 -237 -136q-150 0 -236 134 q-77 116 -77 274q0 164 75 278q86 134 241 134q96 0 168.5 -58t107.5 -149.5t35 -200.5z"/>
            <glyph unicode="&#x14e;" horiz-adv-x="1472"
                   d="M999 1869h-110q-10 -148 -155 -148q-126 0 -151 148h-110q3 -113 69.5 -186t193.5 -73q120 0 190.5 70t72.5 189zM1394 754q0 157 -44 293.5t-125.5 237t-204.5 158.5t-273 58q-205 0 -358.5 -104.5t-231.5 -278.5t-78 -390q0 -159 44.5 -296t126 -237.5t204 -158 t271.5 -57.5q159 0 286.5 59t211 163.5t127.5 245.5t44 307zM1192 745q0 -122 -29.5 -231.5t-85 -195t-144.5 -136t-199 -50.5q-86 0 -160.5 32.5t-128.5 89t-92.5 132.5t-57.5 164t-19 182q0 245 107 412q125 201 353 201q220 0 349 -197q107 -167 107 -403z"/>
            <glyph unicode="&#x14f;" horiz-adv-x="1178"
                   d="M853 1453h-110q-11 -149 -156 -149q-126 0 -150 149h-111q1 -103 61 -178q69 -81 203 -81q120 0 190.5 69.5t72.5 189.5zM1096 539q0 233 -130 385q-138 159 -368 159q-156 0 -273.5 -72.5t-179.5 -199.5t-62 -290q0 -231 130 -385q138 -157 368 -157q157 0 274.5 71.5 t179 198.5t61.5 290zM901 533q0 -154 -77 -276q-90 -136 -237 -136q-150 0 -236 134q-77 116 -77 274q0 164 75 278q86 134 241 134q96 0 168.5 -58t107.5 -149.5t35 -200.5z"/>
            <glyph unicode="&#x150;" horiz-adv-x="1472"
                   d="M506 1573h140l243 246h-205zM828 1573h138l246 246h-208zM1394 754q0 157 -44 293.5t-125.5 237t-204.5 158.5t-273 58q-205 0 -358.5 -104.5t-231.5 -278.5t-78 -390q0 -159 44.5 -296t126 -237.5t204 -158t271.5 -57.5q159 0 286.5 59t211 163.5t127.5 245.5t44 307z M1192 745q0 -122 -29.5 -231.5t-85 -195t-144.5 -136t-199 -50.5q-86 0 -160.5 32.5t-128.5 89t-92.5 132.5t-57.5 164t-19 182q0 245 107 412q125 201 353 201q220 0 349 -197q107 -167 107 -403z"/>
            <glyph unicode="&#x151;" horiz-adv-x="1178"
                   d="M339 1203h117l241 298h-184zM651 1203h118l239 298h-184zM1096 539q0 233 -130 385q-138 159 -368 159q-156 0 -273.5 -72.5t-179.5 -199.5t-62 -290q0 -231 130 -385q138 -157 368 -157q157 0 274.5 71.5t179 198.5t61.5 290zM901 533q0 -154 -77 -276 q-90 -136 -237 -136q-150 0 -236 134q-77 116 -77 274q0 164 75 278q86 134 241 134q96 0 168.5 -58t107.5 -149.5t35 -200.5z"/>
            <glyph unicode="&#x152;" horiz-adv-x="1917"
                   d="M1212 157v535h559v157h-559v470h594v158h-691q-32 0 -67 4l-95 7q-103 13 -160 13q-322 -1 -518 -210.5t-196 -562.5q0 -162 48.5 -299.5t137.5 -237.5t221.5 -156t293.5 -56q42 0 161 11q107 10 157 10h740v157h-626zM1021 1315v-1155q-69 -28 -206 -28 q-250 -1 -394 161q-143 170 -143 443q0 282 140 443q141 166 377 166q123 1 226 -30z"/>
            <glyph unicode="&#x153;" horiz-adv-x="1853"
                   d="M1775 592q0 182 -85 318q-44 69 -116.5 114t-156 55.5t-166.5 -7.5t-156.5 -79.5t-117.5 -157.5h-4q-49 117 -153 183.5t-239 66.5q-218 -1 -358 -154t-140 -405q0 -246 135.5 -395.5t348.5 -149.5q150 5 233 56q115 71 168 191h7q44 -94 120.5 -153t160 -79t174 -17.5 t164.5 22t129 49.5l-36 136q-144 -59 -278 -59q-157 0 -250.5 99t-93.5 276h706q4 31 4 90zM1589 638h-526q9 118 72 203q48 69 128 94t158 -0.5t120 -95.5q48 -75 48 -186v-15zM887 533q0 -111 -32.5 -202t-103 -149.5t-168.5 -58.5q-147 0 -232 136q-75 114 -75 272 q0 109 33.5 201t104.5 151.5t167 59.5q99 0 170 -59t103.5 -150t32.5 -201z"/>
            <glyph unicode="&#x154;" horiz-adv-x="1160"
                   d="M454 1560h155l280 257h-232zM914 0h197q-37 65 -112 403q-54 243 -217 300v7q121 42 197 136q79 100 79 241q0 189 -130 295t-407 106q-196 0 -356 -31v-1457h188v640h173q126 0 192 -65.5t99 -219.5q62 -293 97 -355zM868 1065q0 -128 -89 -204.5t-240 -76.5h-186v540 q66 17 182 17q333 0 333 -276z"/>
            <glyph unicode="&#x155;" horiz-adv-x="705"
                   d="M270 1190h133l266 313h-209zM675 899v180q-20 4 -52 4q-95 0 -175 -62t-115 -166h-7l-8 205h-169q8 -162 8 -326v-734h190v567q0 132 63 228q68 108 199 108q39 0 66 -4z"/>
            <glyph unicode="&#x156;" horiz-adv-x="1160"
                   d="M914 0h197q-37 65 -112 403q-54 243 -217 300v7q121 42 197 136q79 100 79 241q0 189 -130 295t-407 106q-196 0 -356 -31v-1457h188v640h173q126 0 192 -65.5t99 -219.5q62 -293 97 -355zM868 1065q0 -128 -89 -204.5t-240 -76.5h-186v540q66 17 182 17q333 0 333 -276z M429 -397l38 -90q111 5 192 62q90 63 90 176q0 51 -26 93.5t-62 65.5l-142 -31q33 -25 54 -60t21 -72q0 -60 -47 -95.5t-118 -48.5z"/>
            <glyph unicode="&#x157;" horiz-adv-x="705"
                   d="M675 899v180q-20 4 -52 4q-95 0 -175 -62t-115 -166h-7l-8 205h-169q8 -162 8 -326v-734h190v567q0 132 63 228q68 108 199 108q39 0 66 -4zM92 -397l37 -90q111 5 191 62q90 65 90 176q0 49 -26 92.5t-62 66.5l-140 -31q33 -25 54 -60t21 -72q0 -60 -47 -95.5 t-118 -48.5z"/>
            <glyph unicode="&#x158;" horiz-adv-x="1160"
                   d="M859 1813h-158l-138 -152h-4l-141 152h-161l230 -251h146zM914 0h197q-37 65 -112 403q-54 243 -217 300v7q121 42 197 136q79 100 79 241q0 189 -130 295t-407 106q-196 0 -356 -31v-1457h188v640h173q126 0 192 -65.5t99 -219.5q62 -293 97 -355zM868 1065 q0 -128 -89 -204.5t-240 -76.5h-186v540q66 17 182 17q333 0 333 -276z"/>
            <glyph unicode="&#x159;" horiz-adv-x="705"
                   d="M395 1295h-4l-130 208h-144l209 -313h132l206 313h-143zM675 899v180q-20 4 -52 4q-95 0 -175 -62t-115 -166h-7l-8 205h-169q8 -162 8 -326v-734h190v567q0 132 63 228q68 108 199 108q39 0 66 -4z"/>
            <glyph unicode="&#x15a;" horiz-adv-x="1060"
                   d="M449 1560h156l280 257h-232zM968 403q0 154 -88 255t-282 179q-153 61 -219 121q-68 66 -68 164q0 88 61 149q75 72 221.5 72.5t263.5 -70.5l53 155q-125 71 -318 71q-211 -1 -342 -112.5t-131 -286.5q0 -274 383 -418q147 -55 210.5 -123t63.5 -172q0 -115 -81.5 -183 t-223.5 -68q-187 0 -333 94l-48 -157q139 -92 368 -92q240 -1 375 116t135 306z"/>
            <glyph unicode="&#x15b;" horiz-adv-x="851"
                   d="M331 1190h133l266 313h-209zM767 295q0 211 -274 320q-107 42 -148 79q-50 41 -50 101q0 65 46 105q31 28 86.5 37t124.5 -5.5t130 -53.5l48 141q-107 64 -257 64q-158 0 -262 -90q-42 -38 -69 -87t-31.5 -108t17.5 -116t89 -113t174 -96q105 -39 148.5 -83t43.5 -112 q0 -74 -49 -114.5t-120 -43.5t-148.5 17t-136.5 58l-46 -145q121 -69 291 -69q184 0 288.5 84.5t104.5 229.5z"/>
            <glyph unicode="&#x15c;" horiz-adv-x="1060"
                   d="M462 1922l-201 -314h138l124 207h6l124 -207h142l-205 314h-128zM968 403q0 154 -88 255t-282 179q-153 61 -219 121q-68 66 -68 164q0 88 61 149q75 72 221.5 72.5t263.5 -70.5l53 155q-125 71 -318 71q-211 -1 -342 -112.5t-131 -286.5q0 -274 383 -418 q147 -55 210.5 -123t63.5 -172q0 -115 -81.5 -183t-223.5 -68q-187 0 -333 94l-48 -157q139 -92 368 -92q240 -1 375 116t135 306z"/>
            <glyph unicode="&#x15d;" horiz-adv-x="851"
                   d="M360 1505l-203 -313h138l126 206h4l125 -206h142l-205 313h-127zM767 295q0 211 -274 320q-107 42 -148 79q-50 41 -50 101q0 65 46 105q31 28 86.5 37t124.5 -5.5t130 -53.5l48 141q-107 64 -257 64q-158 0 -262 -90q-42 -38 -69 -87t-31.5 -108t17.5 -116t89 -113 t174 -96q105 -39 148.5 -83t43.5 -112q0 -74 -49 -114.5t-120 -43.5t-148.5 17t-136.5 58l-46 -145q121 -69 291 -69q184 0 288.5 84.5t104.5 229.5z"/>
            <glyph unicode="&#x15e;" horiz-adv-x="1060"
                   d="M717 -259q0 58 -44.5 100.5t-107.5 51.5l66 107q65 15 122.5 45t107 77.5t78.5 120t29 160.5q0 154 -88 255t-282 179q-153 61 -219 121q-68 66 -68 164q0 88 61 149q75 72 221.5 72.5t263.5 -70.5l53 155q-125 71 -318 71q-211 -1 -342 -112.5t-131 -286.5 q0 -274 383 -418q147 -55 210.5 -123t63.5 -172q0 -115 -81.5 -183t-223.5 -68q-187 0 -333 94l-48 -157q139 -92 368 -92h22q8 0 22 2l-86 -158q164 -15 169 -93q3 -43 -35 -59.5t-88 -8.5t-88 31l-33 -94q65 -38 150 -38q226 0 226 178z"/>
            <glyph unicode="&#x15f;" horiz-adv-x="851"
                   d="M767 295q0 211 -274 320q-107 42 -148 79q-50 41 -50 101q0 65 46 105q31 28 86.5 37t124.5 -5.5t130 -53.5l48 141q-107 64 -257 64q-158 0 -262 -90q-42 -38 -69 -87t-31.5 -108t17.5 -116t89 -113t174 -96q105 -39 148.5 -83t43.5 -112q0 -74 -49 -114.5t-120 -43.5 t-148.5 17t-136.5 58l-46 -145q121 -69 291 -69h11l-86 -156q166 -18 170 -93q0 -43 -38.5 -59.5t-87 -8.5t-84.5 31l-33 -94q64 -38 146 -38q228 0 228 178q0 59 -44 101t-109 51l63 103q88 19 151 69q106 88 106 230z"/>
            <glyph unicode="&#x160;" horiz-adv-x="1060"
                   d="M561 1652h-5l-138 161h-155l224 -257h140l219 257h-152zM968 403q0 154 -88 255t-282 179q-153 61 -219 121q-68 66 -68 164q0 88 61 149q75 72 221.5 72.5t263.5 -70.5l53 155q-125 71 -318 71q-211 -1 -342 -112.5t-131 -286.5q0 -274 383 -418q147 -55 210.5 -123 t63.5 -172q0 -115 -81.5 -183t-223.5 -68q-187 0 -333 94l-48 -157q139 -92 368 -92q240 -1 375 116t135 306z"/>
            <glyph unicode="&#x161;" horiz-adv-x="851"
                   d="M439 1295h-5l-127 208h-144l207 -313h134l204 313h-141zM767 295q0 211 -274 320q-107 42 -148 79q-50 41 -50 101q0 65 46 105q31 28 86.5 37t124.5 -5.5t130 -53.5l48 141q-107 64 -257 64q-158 0 -262 -90q-42 -38 -69 -87t-31.5 -108t17.5 -116t89 -113t174 -96 q105 -39 148.5 -83t43.5 -112q0 -74 -49 -114.5t-120 -43.5t-148.5 17t-136.5 58l-46 -145q121 -69 291 -69q184 0 288.5 84.5t104.5 229.5z"/>
            <glyph unicode="&#x162;" horiz-adv-x="1066"
                   d="M598 0l-65 -107q63 -9 107 -51.5t44 -100.5q0 -178 -226 -178q-85 0 -149 38l32 94q34 -21 74.5 -28.5t70.5 -3t45 16.5q21 16 21 52q0 75 -169 93l99 175h-43v1317h-439v160h1069v-160h-440v-1317h-31z"/>
            <glyph unicode="&#x163;" horiz-adv-x="713"
                   d="M387 916v-577q0 -203 144 -203q64 0 109 13l8 -145q-43 -16 -104 -22l-55 -89q63 -9 107 -51.5t44 -100.5q0 -178 -226 -178q-85 0 -149 38l34 94q34 -21 74 -28.5t70 -3t45 16.5q20 17 20 52q0 75 -169 93l90 160q-100 15 -156 76q-74 80 -74 272v583h-162v144h162v196 l188 57v-253h272v-144h-272z"/>
            <glyph unicode="&#x164;" horiz-adv-x="1066" d="M832 1813h-155l-138 -152h-4l-142 152h-161l230 -251h145zM0 1477v-160h439v-1317h190v1317h440v160h-1069z"/>
            <glyph unicode="&#x165;" horiz-adv-x="751"
                   d="M548 1263l57 -77q58 24 107 75q68 72 68 170q0 49 -23 91t-54 61l-138 -29q66 -59 66 -130q0 -101 -83 -161zM387 1060v253l-188 -57v-196h-162v-144h162v-583q0 -192 74 -272q46 -49 121.5 -68t139 -13t114.5 24l-8 145q-45 -13 -109 -13q-144 0 -144 203v577h272v144 h-272z"/>
            <glyph unicode="&#x166;" horiz-adv-x="1066" d="M629 918v399h440v160h-1069v-160h439v-399h-284v-153h284v-765h190v765h276v153h-276z"/>
            <glyph unicode="&#x167;" horiz-adv-x="713"
                   d="M387 728v188h272v144h-272v253l-188 -57v-196h-162v-144h162v-188h-162v-153h162v-242q0 -192 74 -272q46 -49 121.5 -68t139 -13t114.5 24l-8 145q-45 -13 -109 -13q-144 0 -144 203v236h272v153h-272z"/>
            <glyph unicode="&#x168;" horiz-adv-x="1391"
                   d="M962 1788h-96q-10 -90 -64 -90q-36 0 -103 40q-77 44 -134 44q-64 0 -103 -52t-39 -143v-21h98q5 38 14 60t21 31.5t33 5.5t41 -13t54 -28q75 -42 131 -42q73 -1 110 51.5t37 156.5zM1039 1477v-883q0 -462 -351 -462q-164 0 -249.5 118.5t-85.5 343.5v883h-190v-877 q0 -320 148 -481q132 -140 371 -140q266 0 405.5 159.5t139.5 470.5v868h-188z"/>
            <glyph unicode="&#x169;" horiz-adv-x="1182"
                   d="M855 1451h-94q-8 -92 -58 -92q-28 0 -98 37q-89 48 -138 48q-68 0 -105.5 -58.5t-37.5 -156.5h99q7 97 57 97q26 0 97 -38q80 -46 133 -46q145 1 145 200v9zM868 0h169q-9 180 -9 289v771h-191v-652q0 -134 -105 -218q-77 -56 -160 -56q-231 0 -231 337v589h-190v-623 q0 -220 93 -339t264 -119q234 0 343 190h6z"/>
            <glyph unicode="&#x16a;" horiz-adv-x="1391"
                   d="M434 1606h524v121h-524v-121zM1039 1477v-883q0 -462 -351 -462q-157 0 -246 117.5t-89 344.5v883h-190v-877q0 -313 136 -467t383 -154q256 0 400.5 158t144.5 472v868h-188z"/>
            <glyph unicode="&#x16b;" horiz-adv-x="1182"
                   d="M339 1284h491v125h-491v-125zM868 0h169q-9 180 -9 289v771h-191v-652q0 -134 -105 -218q-74 -56 -160 -56q-231 0 -231 337v589h-190v-623q0 -245 117 -366q92 -92 240 -92q234 0 343 190h6z"/>
            <glyph unicode="&#x16c;" horiz-adv-x="1391"
                   d="M958 1845h-109q-12 -149 -157 -149q-125 0 -151 149h-110q3 -112 70 -185t193 -73q121 0 191.5 69.5t72.5 188.5zM1039 1477v-883q0 -462 -351 -462q-157 0 -246 117.5t-89 344.5v883h-190v-877q0 -313 136 -467t383 -154q256 0 400.5 158t144.5 472v868h-188z"/>
            <glyph unicode="&#x16d;" horiz-adv-x="1182"
                   d="M857 1431h-110q-11 -149 -155 -149q-127 0 -151 149h-110q3 -113 69.5 -185.5t193.5 -72.5q120 0 190.5 69t72.5 189zM868 0h169q-9 180 -9 289v771h-191v-652q0 -134 -105 -218q-74 -56 -160 -56q-231 0 -231 337v589h-190v-623q0 -245 117 -366q92 -92 240 -92 q234 0 343 190h6z"/>
            <glyph unicode="&#x16e;" horiz-adv-x="1391"
                   d="M487 1733q0 -92 60 -152.5t152 -60.5t152.5 60.5t60.5 152.5t-60.5 152.5t-152.5 60.5t-152 -60.5t-60 -152.5zM699 1845q46 0 79 -34t33 -80q0 -45 -33 -77t-79 -32t-79 32t-33 77q0 46 33 80t79 34zM1039 1477v-883q0 -462 -351 -462q-157 0 -246 117.5t-89 344.5v883 h-190v-877q0 -313 136 -467t383 -154q256 0 400.5 158t144.5 472v868h-188z"/>
            <glyph unicode="&#x16f;" horiz-adv-x="1182"
                   d="M800 1378q0 88 -61.5 149.5t-148.5 61.5q-88 0 -149.5 -61.5t-61.5 -149.5q0 -86 63 -146q63 -61 154 -61q82 0 143 61t61 146zM699 1378q0 -45 -32 -77t-77 -32q-46 0 -78 32.5t-32 76.5q0 46 32.5 79.5t77.5 33.5t77 -33.5t32 -79.5zM868 0h169q-9 180 -9 289v771h-191 v-652q0 -134 -105 -218q-74 -56 -160 -56q-231 0 -231 337v589h-190v-623q0 -245 117 -366q92 -92 240 -92q234 0 343 190h6z"/>
            <glyph unicode="&#x170;" horiz-adv-x="1391"
                   d="M441 1566h140l243 247h-209zM763 1566h138l245 247h-208zM1039 1477v-883q0 -462 -351 -462q-157 0 -246 117.5t-89 344.5v883h-190v-877q0 -313 136 -467t383 -154q256 0 400.5 158t144.5 472v868h-188z"/>
            <glyph unicode="&#x171;" horiz-adv-x="1182"
                   d="M355 1203h116l242 298h-184zM667 1203h117l239 298h-184zM868 0h169q-9 180 -9 289v771h-191v-652q0 -134 -105 -218q-74 -56 -160 -56q-231 0 -231 337v589h-190v-623q0 -245 117 -366q92 -92 240 -92q234 0 343 190h6z"/>
            <glyph unicode="&#x172;" horiz-adv-x="1391"
                   d="M1039 1477v-883q0 -462 -351 -462q-157 0 -246 117.5t-89 344.5v883h-190v-877q0 -313 136 -467t383 -154l12 2q-37 -45 -59.5 -76.5t-44 -81.5t-21.5 -95q0 -83 52.5 -129t145.5 -46q45 0 94 14t84 38l-29 100q-48 -23 -101 -23q-43 0 -70.5 25t-27.5 69q0 85 88 176 q12 15 22 24l22 22q134 33 222 127q156 162 156 484v868h-188z"/>
            <glyph unicode="&#x173;" horiz-adv-x="1182"
                   d="M993 4l44 -4q-9 180 -9 289v771h-191v-652q0 -134 -105 -218q-74 -56 -160 -56q-231 0 -231 337v589h-190v-623q0 -245 117 -366q92 -92 240 -92q234 0 343 190h6l11 -163q-36 -51 -67 -115q-38 -79 -38 -154q0 -91 54.5 -140t148.5 -49q108 0 176 51l-31 98 q-40 -19 -99 -19q-49 0 -80 30t-31 83q0 64 63 172z"/>
            <glyph unicode="&#x174;" horiz-adv-x="1824"
                   d="M853 1900l-202 -313h138l125 205h4l125 -205h143l-207 313h-126zM1612 1477l-190 -743q-83 -331 -113 -510h-5q-35 217 -103 508l-178 745h-193l-194 -743q-93 -362 -119 -515h-4q-50 271 -107 513l-172 745h-201l368 -1477h199l205 765q84 313 111 484h4 q22 -180 96 -484l182 -765h198l410 1477h-194z"/>
            <glyph unicode="&#x175;" horiz-adv-x="1587"
                   d="M732 1483l-201 -312h138l124 205h4l125 -205h143l-206 312h-127zM1367 1060l-148 -529q-55 -187 -82 -347h-4q-38 175 -92 347l-163 529h-159l-169 -539q-62 -196 -94 -337h-4q-34 171 -80 339l-138 537h-194l315 -1060h174l165 504q65 195 97 351h4q28 -151 92 -349 l158 -506h174l337 1060h-189z"/>
            <glyph unicode="&#x176;" horiz-adv-x="1163"
                   d="M529 1900l-203 -313h138l126 205h4l125 -205h142l-206 313h-126zM947 1477l-207 -403q-95 -182 -146 -309h-4q-58 131 -145 306l-202 406h-214l458 -850v-627h190v629l484 848h-214z"/>
            <glyph unicode="&#x177;" horiz-adv-x="1014"
                   d="M443 1483l-202 -312h138l125 205h4l125 -205h143l-207 312h-126zM592 439l-66 -220h-7q-46 168 -65 215l-226 626h-207l382 -977q13 -36 13 -50q0 -15 -15 -44q-55 -123 -139.5 -199.5t-184.5 -109.5l50 -160q118 23 233 125q94 85 177 244q59 106 180 420l280 751h-202z "/>
            <glyph unicode="&#x178;" horiz-adv-x="1163"
                   d="M495 1690q0 46 -29 77.5t-73 31.5q-46 0 -77 -31.5t-31 -77.5t29 -78t73 -32q50 0 79 30.5t29 79.5zM895 1690q0 46 -30.5 77.5t-75.5 31.5t-75 -31.5t-30 -77.5t28 -78t72 -32q48 0 79.5 31t31.5 79zM947 1477l-207 -403q-103 -203 -146 -309h-4q-58 131 -145 306 l-202 406h-214l458 -850v-627h190v629l484 848h-214z"/>
            <glyph unicode="&#x179;" horiz-adv-x="1182" d="M502 1560h155l281 257h-233zM314 157l792 1204v116h-974v-158h731l-800 -1208v-111h1052v157h-801z"/>
            <glyph unicode="&#x17a;" horiz-adv-x="920" d="M374 1190h134l266 313h-209zM276 153v4q89 101 134 165l464 619v119h-793v-153h563v-4l-136 -167l-468 -625v-111h843v153h-607z"/>
            <glyph unicode="&#x17b;" horiz-adv-x="1182"
                   d="M607 1578h2q45 0 76.5 33.5t31.5 78.5q0 43 -31 76t-75 33q-47 0 -79 -32.5t-32 -76.5q0 -45 31.5 -78.5t75.5 -33.5zM314 157l792 1204v116h-974v-158h731l-800 -1208v-111h1052v157h-801z"/>
            <glyph unicode="&#x17c;" horiz-adv-x="920"
                   d="M596 1328q0 46 -29.5 77.5t-73.5 31.5q-46 0 -78 -31.5t-32 -77.5q0 -45 31.5 -77t76.5 -32t75 31.5t30 77.5zM276 153v4q89 101 134 165l464 619v119h-793v-153h563v-4l-136 -167l-468 -625v-111h843v153h-607z"/>
            <glyph unicode="&#x17d;" horiz-adv-x="1182" d="M623 1652h-5l-138 161h-156l224 -257h140l219 257h-151zM314 157l792 1204v116h-974v-158h731l-800 -1208v-111h1052v157h-801z"/>
            <glyph unicode="&#x17e;" horiz-adv-x="920"
                   d="M491 1295h-4l-127 208h-145l208 -313h131l207 313h-140zM276 153v4q89 101 134 165l464 619v119h-793v-153h563v-4l-136 -167l-468 -625v-111h843v153h-607z"/>
            <glyph unicode="&#x17f;" horiz-adv-x="630"
                   d="M690 1401l27 146q-72 31 -165 31q-79 0 -145 -27t-118 -81.5t-81.5 -146t-29.5 -212.5v-51h-147v-144h147v-916h188v1117q0 305 201 305q71 0 123 -21z"/>
            <glyph unicode="&#x18e;" horiz-adv-x="1056" d="M791 1319v-535h-561v-157h561v-470h-594v-157h782v1477h-814v-158h626z"/>
            <glyph unicode="&#x192;" horiz-adv-x="1106"
                   d="M993 1278l35 138q-59 33 -154 33q-353 0 -407 -467l-13 -101h-215v-141h198l-50 -431q-19 -180 -68 -261t-144 -81q-59 0 -120 24l-34 -135q65 -38 167 -38q180 0 272 132q81 114 105 339l56 451h276v141h-259l13 114q34 304 227 304q63 0 115 -21z"/>
            <glyph unicode="&#x1a0;" horiz-adv-x="1472"
                   d="M747 1501q-205 0 -358.5 -104.5t-231.5 -278.5t-78 -390q0 -159 44.5 -296t126 -237.5t204 -158t271.5 -57.5q159 0 286.5 59t211 163.5t127.5 245.5t44 307t-47 298.5t-126 222.5q113 -9 171.5 44.5t58.5 150.5q0 91 -40 180l-146 -28q34 -70 34 -141q0 -49 -22.5 -72.5 t-75.5 -23.5q-27 0 -58 9q-49 14 -129 48q-19 8 -56 22q-109 37 -211 37zM1192 745q0 -122 -29.5 -231.5t-85 -195t-144.5 -136t-199 -50.5q-86 0 -160.5 32.5t-128.5 89t-92.5 132.5t-57.5 164t-19 182q0 167 52 304t158.5 223t249.5 86q220 0 349 -197q107 -167 107 -403z "/>
            <glyph unicode="&#x1a1;" horiz-adv-x="1184"
                   d="M598 1083q-156 0 -273.5 -72.5t-179.5 -199.5t-62 -290q0 -231 130 -385q138 -157 368 -157q157 0 274.5 71.5t179 198.5t61.5 290q0 213 -112 350q100 -4 152 47t52 145q0 88 -38 159l-144 -26q35 -65 35 -129q0 -88 -88 -88q-47 0 -96 20q-58 24 -90 35q-87 31 -169 31 zM901 533q0 -152 -77 -276q-90 -136 -237 -136q-150 0 -236 134q-77 116 -77 274q0 112 35.5 204t109 150t171.5 58q96 0 168.5 -58t107.5 -149.5t35 -200.5z"/>
            <glyph unicode="&#x1af;" horiz-adv-x="1454"
                   d="M1227 609v752q230 0 230 188q0 86 -37 165l-145 -27q36 -61 36 -127q0 -45 -23 -64t-79 -19h-170v-883q0 -462 -351 -462q-164 0 -249.5 118.5t-85.5 343.5v883h-190v-877q0 -320 148 -481q132 -140 371 -140q266 0 405.5 159.5t139.5 470.5z"/>
            <glyph unicode="&#x1b0;" horiz-adv-x="1182"
                   d="M1028 289v664q95 0 152.5 48.5t57.5 138.5q0 84 -40 157l-144 -24q37 -64 37 -127q0 -43 -23.5 -64.5t-78.5 -21.5h-152v-652q0 -134 -105 -218q-77 -56 -160 -56q-231 0 -231 337v589h-190v-623q0 -220 93 -339t264 -119q234 0 343 190h6l11 -169h169q-9 180 -9 289z "/>
            <glyph unicode="&#x1c0;" horiz-adv-x="516" d="M186 1477v-1477h145v1477h-145z"/>
            <glyph unicode="&#x1c1;" horiz-adv-x="1033" d="M186 1477v-1477h145v1477h-145zM703 1477v-1477h146v1477h-146z"/>
            <glyph unicode="&#x1c3;" horiz-adv-x="498" d="M175 423h149l31 1054h-211zM377 109q0 60 -35 99t-93 39q-56 0 -91 -39t-35 -99q0 -55 35.5 -92.5t88.5 -37.5q60 0 95 35.5t35 94.5z"/>
            <glyph unicode="&#x1c4;" horiz-adv-x="2609"
                   d="M2020 1692h-4l-130 208h-144l211 -313h131l206 313h-143zM1348 774q0 341 -208 537q-196 177 -584 177q-197 0 -391 -31v-1453q125 -15 335 -15q420 0 634 205t214 580zM1740 157l793 1204v116h-975v-158h732l-799 -1208v-111h1051v157h-802zM1148 767 q0 -306 -156 -466.5t-455 -160.5q-138 0 -184 9v1170q86 17 214 17q291 0 439 -150q142 -148 142 -419z"/>
            <glyph unicode="&#x1c5;" horiz-adv-x="2346"
                   d="M1348 774q0 341 -208 537q-196 177 -584 177q-197 0 -391 -31v-1453q125 -15 335 -15q420 0 634 205t214 580zM1891 1278h-5l-129 208h-145l211 -313h132l205 313h-142zM1148 767q0 -306 -156 -466.5t-455 -160.5q-138 0 -184 9v1170q86 17 214 17q291 0 439 -150 q142 -148 142 -419zM1702 153v4q83 92 134 165l464 619v119h-792v-153h562v-4l-135 -167l-469 -625v-111h844v153h-608z"/>
            <glyph unicode="&#x1c6;" horiz-adv-x="2131"
                   d="M892 0h171q-9 108 -9 272v1282h-191v-630h-4q-58 103 -177 140.5t-247 1.5t-214 -133q-138 -162 -138 -418q0 -238 126.5 -387t319.5 -149q247 0 349 201h5zM1677 1278h-5l-129 208h-145l210 -313h132l206 313h-142zM1488 153v4q89 101 134 165l464 619v119h-793v-153 h563v-4l-135 -167l-470 -625v-111h844v153h-607zM863 631v-190q0 -124 -77 -215q-54 -64 -135 -87.5t-163.5 4t-134.5 104.5q-79 107 -79 279q0 175 83 291q86 116 228 116q103 0 176.5 -62t95.5 -158q6 -35 6 -82z"/>
            <glyph unicode="&#x1c7;" horiz-adv-x="1809"
                   d="M353 160v1317h-188v-1477h805v160h-617zM1470 1477v-977q1 -197 -62 -279.5t-201 -82.5q-85 0 -157 27l-27 -156q87 -30 198 -30q440 0 440 506v992h-191z"/>
            <glyph unicode="&#x1c8;" horiz-adv-x="1539"
                   d="M1413 1378q0 53 -34 88t-86 35q-53 0 -89 -35t-36 -88q0 -52 34 -87t86 -35q55 0 90 34t35 88zM353 160v1317h-188v-1477h805v160h-617zM1196 1060v-895q1 -311 -71 -393q-64 -73 -205 -81l21 -151q206 2 319 121q127 126 127 431v968h-191z"/>
            <glyph unicode="&#x1c9;" horiz-adv-x="1031"
                   d="M157 1554v-1554h192v1554h-192zM905 1378q0 53 -34 88t-87 35q-52 0 -88.5 -35t-36.5 -88q0 -52 34.5 -87t86.5 -35q55 0 90 34t35 88zM688 1060v-895q0 -313 -73 -393q-63 -73 -203 -81l19 -151q207 1 320 121q127 126 127 431v968h-190z"/>
            <glyph unicode="&#x1ca;" horiz-adv-x="2208"
                   d="M1071 1477v-614q0 -359 23 -610h-5q-106 230 -259 481l-460 743h-205v-1477h176v625q0 414 -15 613l7 2q93 -204 269 -495l456 -745h191v1477h-178zM1869 1477v-977q0 -197 -63 -279.5t-200 -82.5q-84 0 -157 27l-27 -156q86 -30 197 -30q441 0 441 506v992h-191z"/>
            <glyph unicode="&#x1cb;" horiz-adv-x="1938"
                   d="M1813 1378q0 53 -34.5 88t-86.5 35q-54 0 -90 -35t-36 -88q0 -52 34.5 -87t86.5 -35q55 0 90.5 34t35.5 88zM1071 1477v-614q0 -359 23 -610h-5q-106 230 -259 481l-460 743h-205v-1477h176v625q0 414 -15 613l7 2q93 -204 269 -495l456 -745h191v1477h-178zM1595 1060 v-895q0 -312 -72 -393q-65 -74 -204 -81l20 -151q206 2 319 121q128 126 128 431v968h-191z"/>
            <glyph unicode="&#x1cc;" horiz-adv-x="1719"
                   d="M1593 1378q0 53 -34 88t-87 35q-52 0 -88 -35t-36 -88q0 -52 34 -87t86 -35q55 0 90 34t35 88zM1043 0v638q0 115 -30 202.5t-82 139.5t-116 77.5t-138 25.5q-118 -1 -209 -56t-135 -138h-5l-10 171h-169q8 -162 8 -286v-774h192v640q-1 114 74 199q73 88 190 88 q240 0 240 -312v-615h190zM1376 1060v-895q2 -312 -72 -393q-64 -74 -204 -81l20 -151q207 1 320 121q126 126 126 431v968h-190z"/>
            <glyph unicode="&#x1cd;" horiz-adv-x="1313"
                   d="M664 1692h-5l-128 208h-146l211 -313h132l205 313h-142zM546 1477l-491 -1477h194l150 462h511l153 -462h202l-491 1477h-228zM579 1035l72 271h4q33 -135 75 -273l142 -422h-435z"/>
            <glyph unicode="&#x1ce;" horiz-adv-x="1037"
                   d="M495 1297h-4l-129 208h-145l210 -313h132l206 313h-142zM734 0h173q-18 102 -18 253v400q1 430 -394 430q-201 0 -344 -90l44 -127q34 22 77 40t91 28.5t96 11.5t91.5 -13t77 -41.5t53.5 -77t20 -117.5v-22q-302 2 -463 -100t-161 -295q-1 -130 85.5 -215.5t232.5 -85.5 q211 0 318 153h4zM703 541v-186q0 -35 -9 -62q-23 -73 -90 -123.5t-159 -50.5q-80 0 -128.5 47.5t-48.5 136.5q-1 124 108 183.5t327 54.5z"/>
            <glyph unicode="&#x1cf;" horiz-adv-x="518" d="M265 1692h-4l-129 208h-145l210 -313h131l207 313h-142zM165 1477v-1477h188v1477h-188z"/>
            <glyph unicode="&#x1d0;" horiz-adv-x="506" d="M259 1278h-4l-130 208h-144l209 -313h132l207 313h-144zM157 1060v-1060h192v1060h-192z"/>
            <glyph unicode="&#x1d1;" horiz-adv-x="1472"
                   d="M740 1716h-4l-129 208h-145l211 -314h132l205 314h-142zM1394 754q0 157 -44 293.5t-125.5 237t-204.5 158.5t-273 58q-205 0 -358.5 -104.5t-231.5 -278.5t-78 -390q0 -159 44.5 -296t126 -237.5t204 -158t271.5 -57.5q159 0 286.5 59t211 163.5t127.5 245.5t44 307z M1192 745q0 -122 -29.5 -231.5t-85 -195t-144.5 -136t-199 -50.5q-86 0 -160.5 32.5t-128.5 89t-92.5 132.5t-57.5 164t-19 182q0 245 107 412q125 201 353 201q220 0 349 -197q107 -167 107 -403z"/>
            <glyph unicode="&#x1d2;" horiz-adv-x="1178"
                   d="M594 1297h-4l-130 208h-144l210 -313h131l206 313h-142zM1096 539q0 233 -130 385q-138 159 -368 159q-156 0 -273.5 -72.5t-179.5 -199.5t-62 -290q0 -231 130 -385q138 -157 368 -157q157 0 274.5 71.5t179 198.5t61.5 290zM901 533q0 -154 -77 -276 q-90 -136 -237 -136q-150 0 -236 134q-77 116 -77 274q0 164 75 278q86 134 241 134q96 0 168.5 -58t107.5 -149.5t35 -200.5z"/>
            <glyph unicode="&#x1d3;" horiz-adv-x="1391"
                   d="M699 1692h-5l-129 208h-144l210 -313h132l205 313h-142zM1039 1477v-883q0 -462 -351 -462q-157 0 -246 117.5t-89 344.5v883h-190v-877q0 -313 136 -467t383 -154q256 0 400.5 158t144.5 472v868h-188z"/>
            <glyph unicode="&#x1d4;" horiz-adv-x="1182"
                   d="M598 1278h-4l-130 208h-144l211 -313h130l207 313h-143zM868 0h169q-9 180 -9 289v771h-191v-652q0 -134 -105 -218q-74 -56 -160 -56q-231 0 -231 337v589h-190v-623q0 -245 117 -366q92 -92 240 -92q234 0 343 190h6z"/>
            <glyph unicode="&#x1d5;" horiz-adv-x="1391"
                   d="M452 2031v-116h489v116h-489zM602 1696q0 46 -29.5 78t-74.5 32q-44 0 -75.5 -32t-31.5 -78q0 -45 29.5 -77t74.5 -32q46 0 76.5 31.5t30.5 77.5zM999 1696q0 46 -29.5 78t-74.5 32q-46 0 -77.5 -32t-31.5 -78q0 -45 30.5 -77t75.5 -32q46 0 76.5 31.5t30.5 77.5z M1039 1477v-883q0 -462 -351 -462q-157 0 -246 117.5t-89 344.5v883h-190v-877q0 -313 136 -467t383 -154q256 0 400.5 158t144.5 472v868h-188z"/>
            <glyph unicode="&#x1d6;" horiz-adv-x="1182"
                   d="M351 1615v-116h488v116h-488zM502 1282q0 46 -30 77.5t-75 31.5t-76.5 -31.5t-31.5 -77.5q0 -45 30.5 -77t75.5 -32q46 0 76.5 31.5t30.5 77.5zM899 1282q0 46 -30.5 77.5t-75.5 31.5q-46 0 -76.5 -31.5t-30.5 -77.5q0 -45 30 -77t75 -32q46 0 77 31.5t31 77.5zM868 0 h169q-9 180 -9 289v771h-191v-652q0 -134 -105 -218q-74 -56 -160 -56q-231 0 -231 337v589h-190v-623q0 -245 117 -366q92 -92 240 -92q234 0 343 190h6z"/>
            <glyph unicode="&#x1d7;" horiz-adv-x="1391"
                   d="M627 1915h134l264 314h-208zM602 1696q0 46 -29.5 78t-74.5 32q-44 0 -75.5 -32t-31.5 -78q0 -45 29.5 -77t74.5 -32q46 0 76.5 31.5t30.5 77.5zM999 1696q0 46 -29.5 78t-74.5 32q-46 0 -77.5 -32t-31.5 -78q0 -45 30.5 -77t75.5 -32q46 0 76.5 31.5t30.5 77.5z M1039 1477v-883q0 -462 -351 -462q-157 0 -246 117.5t-89 344.5v883h-190v-877q0 -313 136 -467t383 -154q256 0 400.5 158t144.5 472v868h-188z"/>
            <glyph unicode="&#x1d8;" horiz-adv-x="1182"
                   d="M519 1499h134l265 314h-208zM502 1282q0 46 -30 77.5t-75 31.5t-76.5 -31.5t-31.5 -77.5q0 -45 30.5 -77t75.5 -32q46 0 76.5 31.5t30.5 77.5zM899 1282q0 46 -30.5 77.5t-75.5 31.5q-46 0 -76.5 -31.5t-30.5 -77.5q0 -45 30 -77t75 -32q46 0 77 31.5t31 77.5zM868 0h169 q-9 180 -9 289v771h-191v-652q0 -134 -105 -218q-74 -56 -160 -56q-231 0 -231 337v589h-190v-623q0 -245 117 -366q92 -92 240 -92q234 0 343 190h6z"/>
            <glyph unicode="&#x1d9;" horiz-adv-x="1391"
                   d="M699 2020h-5l-129 209h-144l210 -314h132l205 314h-142zM602 1696q0 46 -29.5 78t-74.5 32q-44 0 -75.5 -32t-31.5 -78q0 -45 29.5 -77t74.5 -32q46 0 76.5 31.5t30.5 77.5zM999 1696q0 46 -29.5 78t-74.5 32q-46 0 -77.5 -32t-31.5 -78q0 -45 30.5 -77t75.5 -32 q46 0 76.5 31.5t30.5 77.5zM1039 1477v-883q0 -462 -351 -462q-157 0 -246 117.5t-89 344.5v883h-190v-877q0 -313 136 -467t383 -154q256 0 400.5 158t144.5 472v868h-188z"/>
            <glyph unicode="&#x1da;" horiz-adv-x="1182"
                   d="M598 1604h-4l-130 209h-144l211 -314h130l207 314h-143zM502 1282q0 46 -30 77.5t-75 31.5t-76.5 -31.5t-31.5 -77.5q0 -45 30.5 -77t75.5 -32q46 0 76.5 31.5t30.5 77.5zM899 1282q0 46 -30.5 77.5t-75.5 31.5q-46 0 -76.5 -31.5t-30.5 -77.5q0 -45 30 -77t75 -32 q46 0 77 31.5t31 77.5zM868 0h169q-9 180 -9 289v771h-191v-652q0 -134 -105 -218q-74 -56 -160 -56q-231 0 -231 337v589h-190v-623q0 -245 117 -366q92 -92 240 -92q234 0 343 190h6z"/>
            <glyph unicode="&#x1db;" horiz-adv-x="1391"
                   d="M395 2229l264 -314h136l-190 314h-210zM602 1696q0 46 -29.5 78t-74.5 32q-44 0 -75.5 -32t-31.5 -78q0 -45 29.5 -77t74.5 -32q46 0 76.5 31.5t30.5 77.5zM999 1696q0 46 -29.5 78t-74.5 32q-46 0 -77.5 -32t-31.5 -78q0 -45 30.5 -77t75.5 -32q46 0 76.5 31.5 t30.5 77.5zM1039 1477v-883q0 -462 -351 -462q-157 0 -246 117.5t-89 344.5v883h-190v-877q0 -313 136 -467t383 -154q256 0 400.5 158t144.5 472v868h-188z"/>
            <glyph unicode="&#x1dc;" horiz-adv-x="1182"
                   d="M280 1813l266 -314h136l-191 314h-211zM502 1282q0 46 -30 77.5t-75 31.5t-76.5 -31.5t-31.5 -77.5q0 -45 30.5 -77t75.5 -32q46 0 76.5 31.5t30.5 77.5zM899 1282q0 46 -30.5 77.5t-75.5 31.5q-46 0 -76.5 -31.5t-30.5 -77.5q0 -45 30 -77t75 -32q46 0 77 31.5t31 77.5z M868 0h169q-9 180 -9 289v771h-191v-652q0 -134 -105 -218q-74 -56 -160 -56q-231 0 -231 337v589h-190v-623q0 -245 117 -366q92 -92 240 -92q234 0 343 190h6z"/>
            <glyph unicode="&#x1dd;" horiz-adv-x="1077"
                   d="M83 475q0 -76 15.5 -146.5t49 -134t82.5 -110t121 -74t159 -27.5q147 0 258.5 72.5t171 202t59.5 294.5q0 120 -35 220q-71 199 -262 276q-64 26 -156 34.5t-202 -6.5t-202 -55l33 -136q129 53 285 53q161 0 258 -94t99 -275h-727q-7 -35 -7 -94zM268 431h547 q-11 -84 -44.5 -152t-97 -113t-147.5 -45q-90 0 -150.5 45t-85 112.5t-22.5 152.5z"/>
            <glyph unicode="&#x1de;" horiz-adv-x="1313"
                   d="M416 2031v-116h489v116h-489zM567 1696q0 46 -30 78t-75 32q-44 0 -75.5 -32t-31.5 -78q0 -45 30 -77t75 -32q46 0 76.5 31.5t30.5 77.5zM964 1696q0 46 -30 78t-75 32q-46 0 -77 -32t-31 -78q0 -45 30.5 -77t75.5 -32q46 0 76.5 31.5t30.5 77.5zM546 1477l-491 -1477 h194l150 462h511l153 -462h202l-491 1477h-228zM579 1035l72 271h4q33 -135 75 -273l142 -422h-435z"/>
            <glyph unicode="&#x1df;" horiz-adv-x="1037"
                   d="M247 1637v-117h489v117h-489zM399 1304q0 46 -30.5 77.5t-75.5 31.5q-44 0 -75.5 -31.5t-31.5 -77.5q0 -45 30 -77.5t75 -32.5q46 0 77 32t31 78zM795 1304q0 46 -30 77.5t-75 31.5q-46 0 -76.5 -31.5t-30.5 -77.5q0 -45 30 -77.5t75 -32.5t76 32t31 78zM734 0h173 q-18 102 -18 253v400q1 430 -394 430q-201 0 -344 -90l44 -127q34 22 77 40t91 28.5t96 11.5t91.5 -13t77 -41.5t53.5 -77t20 -117.5v-22q-302 2 -463 -100t-161 -295q-1 -130 85.5 -215.5t232.5 -85.5q211 0 318 153h4zM703 541v-186q0 -35 -9 -62q-23 -73 -90 -123.5 t-159 -50.5q-80 0 -128.5 47.5t-48.5 136.5q-1 124 108 183.5t327 54.5z"/>
            <glyph unicode="&#x1e0;" horiz-adv-x="1313"
                   d="M416 2031v-116h489v116h-489zM767 1696q0 46 -29.5 78t-73.5 32q-46 0 -78 -32t-32 -78q0 -45 31 -77t76 -32q47 0 76.5 31.5t29.5 77.5zM546 1477l-491 -1477h194l150 462h511l153 -462h202l-491 1477h-228zM579 1035l72 271h4q33 -135 75 -273l142 -422h-435z"/>
            <glyph unicode="&#x1e1;" horiz-adv-x="1037"
                   d="M247 1637v-117h489v117h-489zM598 1304q0 46 -29.5 77.5t-73.5 31.5q-46 0 -78 -31.5t-32 -77.5q0 -45 31.5 -77.5t76.5 -32.5t75 32t30 78zM734 0h173q-18 102 -18 253v400q1 430 -394 430q-201 0 -344 -90l44 -127q34 22 77 40t91 28.5t96 11.5t91.5 -13t77 -41.5 t53.5 -77t20 -117.5v-22q-302 2 -463 -100t-161 -295q-1 -130 85.5 -215.5t232.5 -85.5q211 0 318 153h4zM703 541v-186q0 -35 -9 -62q-23 -73 -90 -123.5t-159 -50.5q-80 0 -128.5 47.5t-48.5 136.5q-1 124 108 183.5t327 54.5z"/>
            <glyph unicode="&#x1e2;" horiz-adv-x="1691"
                   d="M567 1702v-115h489v115h-489zM1030 688h517v158h-539l-55 473h611v158h-905l-659 -1477h195l230 519h441l63 -519h695v157h-530zM487 673l186 431q33 78 92 237h9l26 -243l46 -425h-359z"/>
            <glyph unicode="&#x1e3;" horiz-adv-x="1662"
                   d="M587 1313v-117h489v117h-489zM1585 600q0 71 -14.5 139.5t-47 131.5t-78.5 110t-115 75.5t-151 28.5q-249 0 -362 -222h-4q-74 222 -338 222q-179 0 -324 -94l44 -125q116 77 267 77q138 0 199 -94q42 -61 42 -141v-44q-303 0 -464.5 -99t-161.5 -285q0 -120 83 -209 q90 -90 243 -90q282 0 386 230h6q43 -112 151 -171q103 -60 274 -59t312 69l-35 136q-124 -59 -280 -59q-154 0 -244 96.5t-90 271.5v18h695q7 32 7 87zM1401 648h-518q4 111 70 198q51 67 128.5 91.5t152.5 -1t118 -95.5q49 -73 49 -168v-25zM708 535v-161 q0 -111 -74.5 -182t-188.5 -71q-79 0 -129.5 47t-50.5 127q0 240 410 240h33z"/>
            <glyph unicode="&#x1e6;" horiz-adv-x="1384"
                   d="M863 1707h-4l-129 208h-145l210 -313h132l206 313h-142zM784 776v-153h295v-443q-81 -38 -247 -38q-254 0 -404 159q-150 158 -150 437q1 278 157.5 436t421.5 158q185 0 316 -61l48 155q-137 67 -360 67q-235 0 -413 -97t-273.5 -270t-95.5 -398q0 -353 203 -550 q94 -91 223 -139.5t263 -52.5t258.5 16t236.5 61v713h-479z"/>
            <glyph unicode="&#x1e7;" horiz-adv-x="1202"
                   d="M572 1297h-5l-128 208h-146l211 -313h132l205 313h-142zM876 903h-4q-95 180 -320 180q-95 0 -180 -40t-149.5 -111t-102 -178t-37.5 -233q0 -224 125.5 -370.5t317.5 -146.5q223 0 327 176h4v-119q-1 -366 -334 -366q-167 0 -304 84l-46 -149q129 -84 344 -84 q127 0 220.5 30.5t164.5 99.5t107 188.5t36 288.5v614q0 142 9 293h-169zM855 646v-199q-2 -63 -14 -100q-30 -92 -101 -145q-50 -38 -117.5 -50.5t-143 14t-126.5 97.5q-79 100 -79 270q0 183 86 291q86 109 223 109q200 0 263 -201q9 -28 9 -86z"/>
            <glyph unicode="&#x1e8;" horiz-adv-x="1167"
                   d="M565 1692h-4l-130 208h-144l211 -313h131l206 313h-143zM1146 1477h-232l-441 -553q-78 -104 -113 -159h-7v712h-188v-1477h188v563l138 160l473 -723h224l-563 849z"/>
            <glyph unicode="&#x1e9;" horiz-adv-x="1010"
                   d="M495 1769h-4l-129 207h-145l210 -313h132l206 313h-142zM975 1060h-228l-306 -366q-24 -28 -44 -56q-26 -37 -46 -63h-4v979h-190v-1554h190v399l96 109l354 -508h233l-455 623z"/>
            <glyph unicode="&#x1ea;" horiz-adv-x="1472"
                   d="M781 -19q-78 -42 -137 -104q-61 -67 -61 -130q0 -98 94 -98q62 0 105 23l20 -88q-71 -33 -160 -33q-84 0 -135 45t-51 124q0 72 66 152.5t140 109.5q-270 24 -427 231.5t-156 514.5q0 216 78 390t231.5 278.5t358.5 104.5q150 0 273 -58t204.5 -158.5t125.5 -237 t44 -293.5q0 -213 -69.5 -381t-209.5 -273t-334 -119zM276 732q0 -94 19 -182t57.5 -164t92.5 -132.5t128.5 -89t160.5 -32.5q110 0 199 50.5t144.5 136t85 195t29.5 231.5q0 236 -107 403q-129 197 -349 197q-228 0 -353 -201q-107 -167 -107 -412z"/>
            <glyph unicode="&#x1eb;" horiz-adv-x="1178"
                   d="M632 -19q-78 -42 -137 -104q-61 -67 -61 -130q0 -98 95 -98q63 0 104 23l20 -88q-71 -33 -160 -33q-84 0 -135 45t-51 124q0 78 76 167q61 70 131 96q-184 20 -301 153q-130 154 -130 385q0 163 62 290t179.5 199.5t273.5 72.5q230 0 368 -159q130 -152 130 -385 q0 -235 -125 -388t-339 -170zM351 255q86 -134 236 -134q147 0 237 136q77 122 77 276q0 109 -35 200.5t-107.5 149.5t-168.5 58q-155 0 -241 -134q-75 -114 -75 -278q0 -158 77 -274z"/>
            <glyph unicode="&#x1ec;" horiz-adv-x="1472"
                   d="M982 1610h-489v117h489v-117zM778 -19q-79 -44 -136 -104q-61 -67 -61 -130q0 -98 94 -98q62 0 105 23l20 -88q-70 -33 -160 -33q-85 0 -135.5 45t-50.5 124q0 72 66 152.5t140 109.5q-179 16 -312 118t-201.5 264.5t-67.5 363.5q0 216 78 390t231.5 278.5t358.5 104.5 q150 0 273 -58t204.5 -158.5t125.5 -237t44 -293.5q0 -213 -69.5 -381.5t-210.5 -273.5t-336 -118zM276 732q0 -94 19 -182t57.5 -164t92.5 -132.5t128.5 -89t160.5 -32.5q110 0 199 50.5t144.5 136t85 195t29.5 231.5q0 236 -107 403q-129 197 -349 197q-228 0 -353 -201 q-107 -167 -107 -412z"/>
            <glyph unicode="&#x1ed;" horiz-adv-x="1178"
                   d="M835 1194h-488v117h488v-117zM632 -19q-78 -42 -137 -104q-61 -67 -61 -130q0 -98 95 -98q63 0 104 23l20 -88q-71 -33 -160 -33q-84 0 -135 45t-51 124q0 78 76 167q61 70 131 96q-184 20 -301 153q-130 154 -130 385q0 163 62 290t179.5 199.5t273.5 72.5 q230 0 368 -159q130 -152 130 -385q0 -235 -125 -388t-339 -170zM351 255q86 -134 236 -134q147 0 237 136q77 122 77 276q0 109 -35 200.5t-107.5 149.5t-168.5 58q-155 0 -241 -134q-75 -114 -75 -278q0 -158 77 -274z"/>
            <glyph unicode="&#x1f0;" horiz-adv-x="525"
                   d="M274 1275h-4l-130 208h-144l211 -312h130l207 312h-143zM182 1060v-895q0 -313 -73 -393q-63 -73 -203 -81l19 -151q207 1 320 121q127 126 127 431v968h-190z"/>
            <glyph unicode="&#x1f1;" horiz-adv-x="2609"
                   d="M1348 774q0 341 -208 537q-196 177 -584 177q-197 0 -391 -31v-1453q125 -15 335 -15q420 0 634 205t214 580zM1740 157l793 1204v116h-975v-158h732l-799 -1208v-111h1051v157h-802zM1148 767q0 -306 -156 -466.5t-455 -160.5q-138 0 -184 9v1170q86 17 214 17 q291 0 439 -150q142 -148 142 -419z"/>
            <glyph unicode="&#x1f2;" horiz-adv-x="2346"
                   d="M1348 774q0 341 -208 537q-196 177 -584 177q-197 0 -391 -31v-1453q125 -15 335 -15q420 0 634 205t214 580zM1148 767q0 -306 -156 -466.5t-455 -160.5q-138 0 -184 9v1170q86 17 214 17q291 0 439 -150q142 -148 142 -419zM1702 153v4q83 92 134 165l464 619v119h-792 v-153h562v-4l-135 -167l-469 -625v-111h844v153h-608z"/>
            <glyph unicode="&#x1f3;" horiz-adv-x="2131"
                   d="M892 0h171q-9 108 -9 272v1282h-191v-630h-4q-58 103 -177 140.5t-247 1.5t-214 -133q-138 -162 -138 -418q0 -238 126.5 -387t319.5 -149q247 0 349 201h5zM1488 153v4q89 101 134 165l464 619v119h-793v-153h563v-4l-135 -167l-470 -625v-111h844v153h-607zM863 631 v-190q0 -124 -77 -215q-54 -64 -135 -87.5t-163.5 4t-134.5 104.5q-79 107 -79 279q0 175 83 291q86 116 228 116q103 0 176.5 -62t95.5 -158q6 -35 6 -82z"/>
            <glyph unicode="&#x1f4;" horiz-adv-x="1384"
                   d="M721 1602h134l265 313h-208zM784 776v-153h295v-443q-81 -38 -247 -38q-254 0 -404 159q-150 158 -150 437q1 278 157.5 436t421.5 158q185 0 316 -61l48 155q-137 67 -360 67q-235 0 -413 -97t-273.5 -270t-95.5 -398q0 -353 203 -550q94 -91 223 -139.5t263 -52.5 t258.5 16t236.5 61v713h-479z"/>
            <glyph unicode="&#x1f5;" horiz-adv-x="1202"
                   d="M464 1192h134l265 313h-208zM876 903h-4q-95 180 -320 180q-95 0 -180 -40t-149.5 -111t-102 -178t-37.5 -233q0 -224 125.5 -370.5t317.5 -146.5q223 0 327 176h4v-119q-1 -366 -334 -366q-167 0 -304 84l-46 -149q129 -84 344 -84q127 0 220.5 30.5t164.5 99.5 t107 188.5t36 288.5v614q0 142 9 293h-169zM855 646v-199q-2 -63 -14 -100q-30 -92 -101 -145q-50 -38 -117.5 -50.5t-143 14t-126.5 97.5q-79 100 -79 270q0 183 86 291q86 109 223 109q200 0 263 -201q9 -28 9 -86z"/>
            <glyph unicode="&#x1f8;" horiz-adv-x="1412"
                   d="M406 1900l265 -313h136l-192 313h-209zM1071 1477v-614q0 -359 23 -610h-5q-106 230 -259 481l-460 743h-205v-1477h176v625q0 414 -15 613l7 2q93 -204 269 -495l456 -745h191v1477h-178z"/>
            <glyph unicode="&#x1f9;" horiz-adv-x="1194"
                   d="M357 1505l266 -313h136l-192 313h-210zM1043 0v638q0 115 -30 202.5t-82 139.5t-116 77.5t-138 25.5q-118 -1 -209 -56t-135 -138h-5l-10 171h-169q8 -162 8 -286v-774h192v640q-1 114 74 199q73 88 190 88q240 0 240 -312v-615h190z"/>
            <glyph unicode="&#x1fa;" horiz-adv-x="1313"
                   d="M567 2114h134l265 314h-207zM870 1794q0 88 -61.5 149.5t-149.5 61.5q-87 0 -146 -61q-61 -63 -61 -150q0 -82 61 -146q58 -61 146 -61q91 0 150 61q61 63 61 146zM771 1794q0 -43 -33.5 -76t-78.5 -33q-44 0 -76.5 33t-32.5 76q0 46 32.5 79.5t76.5 33.5q46 0 79 -33.5 t33 -79.5zM546 1477l-491 -1477h194l150 462h511l153 -462h202l-491 1477h-228zM579 1035l72 271h4q33 -135 75 -273l142 -422h-435z"/>
            <glyph unicode="&#x1fb;" horiz-adv-x="1037"
                   d="M408 1721h133l266 313h-209zM701 1401q0 87 -61 148t-149 61q-89 0 -147 -61q-62 -65 -62 -148t62 -147q60 -62 147 -62q85 0 149 62q61 59 61 147zM602 1401q0 -45 -33 -78t-78 -33q-44 0 -77 33.5t-33 77.5q0 45 32.5 78t77.5 33q46 0 78.5 -32.5t32.5 -78.5zM734 0 h173q-18 102 -18 253v400q1 430 -394 430q-201 0 -344 -90l44 -127q34 22 77 40t91 28.5t96 11.5t91.5 -13t77 -41.5t53.5 -77t20 -117.5v-22q-302 2 -463 -100t-161 -295q-1 -130 85.5 -215.5t232.5 -85.5q211 0 318 153h4zM703 541v-186q0 -35 -9 -62q-23 -73 -90 -123.5 t-159 -50.5q-80 0 -128.5 47.5t-48.5 136.5q-1 124 108 183.5t327 54.5z"/>
            <glyph unicode="&#x1fc;" horiz-adv-x="1691"
                   d="M694 1587h134l266 313h-209zM1030 688h517v158h-539l-55 473h611v158h-905l-659 -1477h195l230 519h441l63 -519h695v157h-530zM487 673l186 431q33 78 92 237h9l26 -243l46 -425h-359z"/>
            <glyph unicode="&#x1fd;" horiz-adv-x="1662"
                   d="M747 1194h134l265 314h-208zM1585 600q0 71 -14.5 139.5t-47 131.5t-78.5 110t-115 75.5t-151 28.5q-249 0 -362 -222h-4q-74 222 -338 222q-179 0 -324 -94l44 -125q116 77 267 77q138 0 199 -94q42 -61 42 -141v-44q-303 0 -464.5 -99t-161.5 -285q0 -120 83 -209 q90 -90 243 -90q282 0 386 230h6q43 -112 151 -171q103 -60 274 -59t312 69l-35 136q-124 -59 -280 -59q-154 0 -244 96.5t-90 271.5v18h695q7 32 7 87zM1401 648h-518q4 111 70 198q51 67 128.5 91.5t152.5 -1t118 -95.5q49 -73 49 -168v-25zM708 535v-161 q0 -111 -74.5 -182t-188.5 -71q-79 0 -129.5 47t-50.5 127q0 240 410 240h33z"/>
            <glyph unicode="&#x1fe;" horiz-adv-x="1472"
                   d="M675 1672h134l265 313h-208zM1394 751q0 337 -185 546l132 189l-114 76l-125 -175q-153 114 -359 114q-191 0 -342 -96.5t-236.5 -272.5t-85.5 -400q0 -340 191 -548l-134 -190l107 -84l131 184q155 -115 364 -115q139 0 259 52t208 148.5t138.5 243.5t50.5 328zM379 349 l-5 -2q-102 187 -102 393q0 244 119 419q62 90 146.5 138t169 50.5t163 -24t138.5 -79.5zM1201 745q0 -266 -120 -431q-131 -185 -345 -185q-160 0 -267 105l627 895l6 -2q99 -169 99 -382z"/>
            <glyph unicode="&#x1ff;" horiz-adv-x="1178"
                   d="M515 1249h133l266 313h-209zM1096 537q0 253 -155 408l92 136l-88 59l-90 -130q-116 73 -261 73h-2q-223 -1 -366 -154t-143 -406q0 -257 158 -410l-90 -128l81 -66l94 131q113 -71 264 -71q102 0 193.5 37t161 106.5t110.5 176.5t41 238zM349 263l-4 2q-75 108 -75 264 q0 82 21 155.5t60.5 131t101 91.5t137.5 34q110 -1 181 -65zM912 531q0 -179 -90.5 -294.5t-234.5 -115.5q-106 0 -173 61l421 607h4q73 -109 73 -258z"/>
            <glyph unicode="&#x200;" horiz-adv-x="1313"
                   d="M565 1587h119l-174 297h-184zM878 1587h117l-173 297h-184zM546 1477l-491 -1477h194l150 462h511l153 -462h202l-491 1477h-228zM579 1035l72 271h4q33 -135 75 -273l142 -422h-435z"/>
            <glyph unicode="&#x201;" horiz-adv-x="1037"
                   d="M397 1192h118l-174 299h-184zM710 1192h116l-173 299h-184zM734 0h173q-18 102 -18 253v400q1 430 -394 430q-201 0 -344 -90l44 -127q34 22 77 40t91 28.5t96 11.5t91.5 -13t77 -41.5t53.5 -77t20 -117.5v-22q-302 2 -463 -100t-161 -295q-1 -130 85.5 -215.5 t232.5 -85.5q211 0 318 153h4zM703 541v-186q0 -35 -9 -62q-23 -73 -90 -123.5t-159 -50.5q-80 0 -128.5 47.5t-48.5 136.5q-1 124 108 183.5t327 54.5z"/>
            <glyph unicode="&#x202;" horiz-adv-x="1313"
                   d="M813 1587h109q-2 118 -72.5 188t-190.5 70q-127 1 -193.5 -72t-68.5 -186h109q24 149 151 149q145 0 156 -149zM546 1477l-491 -1477h194l150 462h511l153 -462h202l-491 1477h-228zM579 1035l72 271h4q33 -135 75 -273l142 -422h-435z"/>
            <glyph unicode="&#x203;" horiz-adv-x="1037"
                   d="M644 1192h110q-3 120 -73 189.5t-190 69.5q-128 0 -194.5 -73t-68.5 -186h109q26 149 152 149q144 0 155 -149zM734 0h173q-18 102 -18 253v400q1 430 -394 430q-201 0 -344 -90l44 -127q34 22 77 40t91 28.5t96 11.5t91.5 -13t77 -41.5t53.5 -77t20 -117.5v-22 q-302 2 -463 -100t-161 -295q-1 -130 85.5 -215.5t232.5 -85.5q211 0 318 153h4zM703 541v-186q0 -35 -9 -62q-23 -73 -90 -123.5t-159 -50.5q-80 0 -128.5 47.5t-48.5 136.5q-1 124 108 183.5t327 54.5z"/>
            <glyph unicode="&#x204;" horiz-adv-x="1056" d="M477 1587h119l-173 297h-184zM791 1587h116l-173 297h-184zM353 157v535h561v159h-561v468h594v158h-782v-1477h814v157h-626z"/>
            <glyph unicode="&#x205;" horiz-adv-x="1077"
                   d="M447 1194h118l-172 299h-184zM761 1194h115l-173 299h-184zM999 592q0 96 -25 182t-75 157t-134 112.5t-193 41.5q-221 0 -357 -163q-132 -162 -132 -407t137 -388q138 -144 374 -144q202 0 347 63l-34 136q-130 -53 -284 -53q-162 0 -258.5 94t-99.5 275h728q6 34 6 94z M815 636h-547q17 131 91 221t197 90q133 -1 197 -90t62 -221z"/>
            <glyph unicode="&#x206;" horiz-adv-x="1056"
                   d="M725 1587h110q-3 119 -73 188.5t-190 69.5q-127 1 -194 -72t-69 -186h109q24 149 151 149q145 0 156 -149zM353 157v535h561v159h-561v468h594v158h-782v-1477h814v157h-626z"/>
            <glyph unicode="&#x207;" horiz-adv-x="1077"
                   d="M694 1194h111q-3 120 -73.5 189.5t-190.5 69.5q-127 0 -194 -73t-69 -186h109q26 149 152 149q144 0 155 -149zM999 592q0 96 -25 182t-75 157t-134 112.5t-193 41.5q-221 0 -357 -163q-132 -162 -132 -407t137 -388q138 -144 374 -144q202 0 347 63l-34 136 q-130 -53 -284 -53q-162 0 -258.5 94t-99.5 275h728q6 34 6 94zM815 636h-547q17 131 91 221t197 90q133 -1 197 -90t62 -221z"/>
            <glyph unicode="&#x208;" horiz-adv-x="518" d="M165 1587h117l-173 297h-184zM477 1587h117l-173 297h-185zM165 1477v-1477h188v1477h-188z"/>
            <glyph unicode="&#x209;" horiz-adv-x="506" d="M157 1171h119l-173 297h-184zM471 1171h116l-173 297h-184zM157 1060v-1060h192v1060h-192z"/>
            <glyph unicode="&#x20a;" horiz-adv-x="518"
                   d="M412 1587h109q-2 119 -72 188.5t-190 69.5q-128 1 -194.5 -72t-68.5 -186h109q24 149 152 149q144 0 155 -149zM165 1477v-1477h188v1477h-188z"/>
            <glyph unicode="&#x20b;" horiz-adv-x="506"
                   d="M406 1171h109q-2 118 -72.5 187.5t-189.5 69.5q-128 2 -195 -71t-69 -186h109q24 148 151 148q147 0 157 -148zM157 1060v-1060h192v1060h-192z"/>
            <glyph unicode="&#x20c;" horiz-adv-x="1472"
                   d="M642 1610h119l-174 299h-184zM956 1610h115l-172 299h-184zM1394 754q0 157 -44 293.5t-125.5 237t-204.5 158.5t-273 58q-205 0 -358.5 -104.5t-231.5 -278.5t-78 -390q0 -159 44.5 -296t126 -237.5t204 -158t271.5 -57.5q159 0 286.5 59t211 163.5t127.5 245.5t44 307z M1192 745q0 -122 -29.5 -231.5t-85 -195t-144.5 -136t-199 -50.5q-86 0 -160.5 32.5t-128.5 89t-92.5 132.5t-57.5 164t-19 182q0 245 107 412q125 201 353 201q220 0 349 -197q107 -167 107 -403z"/>
            <glyph unicode="&#x20d;" horiz-adv-x="1178"
                   d="M495 1192h118l-172 299h-184zM809 1192h115l-173 299h-184zM1096 539q0 233 -130 385q-138 159 -368 159q-156 0 -273.5 -72.5t-179.5 -199.5t-62 -290q0 -231 130 -385q138 -157 368 -157q157 0 274.5 71.5t179 198.5t61.5 290zM901 533q0 -154 -77 -276 q-90 -136 -237 -136q-150 0 -236 134q-77 116 -77 274q0 164 75 278q86 134 241 134q96 0 168.5 -58t107.5 -149.5t35 -200.5z"/>
            <glyph unicode="&#x20e;" horiz-adv-x="1472"
                   d="M889 1610h110q-2 120 -72.5 189.5t-190.5 69.5q-127 0 -194 -73t-69 -186h110q11 71 59 111t100.5 40t97 -40t49.5 -111zM1394 754q0 157 -44 293.5t-125.5 237t-204.5 158.5t-273 58q-205 0 -358.5 -104.5t-231.5 -278.5t-78 -390q0 -159 44.5 -296t126 -237.5t204 -158 t271.5 -57.5q159 0 286.5 59t211 163.5t127.5 245.5t44 307zM1192 745q0 -122 -29.5 -231.5t-85 -195t-144.5 -136t-199 -50.5q-86 0 -160.5 32.5t-128.5 89t-92.5 132.5t-57.5 164t-19 182q0 245 107 412q125 201 353 201q220 0 349 -197q107 -167 107 -403z"/>
            <glyph unicode="&#x20f;" horiz-adv-x="1178"
                   d="M743 1192h110q-2 120 -72.5 189.5t-190.5 69.5q-128 0 -195 -73t-69 -186h111q23 149 150 149q145 0 156 -149zM1096 539q0 233 -130 385q-138 159 -368 159q-156 0 -273.5 -72.5t-179.5 -199.5t-62 -290q0 -231 130 -385q138 -157 368 -157q157 0 274.5 71.5t179 198.5 t61.5 290zM901 533q0 -154 -77 -276q-90 -136 -237 -136q-150 0 -236 134q-77 116 -77 274q0 164 75 278q86 134 241 134q96 0 168.5 -58t107.5 -149.5t35 -200.5z"/>
            <glyph unicode="&#x210;" horiz-adv-x="1160"
                   d="M544 1598h117l-172 298h-184zM857 1598h116l-173 298h-185zM914 0h197q-37 65 -112 403q-54 243 -217 300v7q121 42 197 136q79 100 79 241q0 189 -130 295t-407 106q-196 0 -356 -31v-1457h188v640h173q126 0 192 -65.5t99 -219.5q62 -293 97 -355zM868 1065 q0 -128 -89 -204.5t-240 -76.5h-186v540q66 17 182 17q333 0 333 -276z"/>
            <glyph unicode="&#x211;" horiz-adv-x="705"
                   d="M318 1192h119l-174 299h-184zM631 1192h116l-172 299h-184zM675 899v180q-20 4 -52 4q-95 0 -175 -62t-115 -166h-7l-8 205h-169q8 -162 8 -326v-734h190v567q0 132 63 228q68 108 199 108q39 0 66 -4z"/>
            <glyph unicode="&#x212;" horiz-adv-x="1160"
                   d="M791 1598h110q-2 118 -72.5 188t-190.5 70q-127 0 -194 -73t-70 -185h111q22 148 151 148q145 0 155 -148zM914 0h197q-37 65 -112 403q-54 243 -217 300v7q121 42 197 136q79 100 79 241q0 189 -130 295t-407 106q-196 0 -356 -31v-1457h188v640h173q126 0 192 -65.5 t99 -219.5q62 -293 97 -355zM868 1065q0 -128 -89 -204.5t-240 -76.5h-186v540q66 17 182 17q333 0 333 -276z"/>
            <glyph unicode="&#x213;" horiz-adv-x="705"
                   d="M565 1192h110q-2 120 -72.5 189.5t-190.5 69.5q-127 0 -194 -73t-69 -186h110q23 149 151 149q144 0 155 -149zM675 899v180q-20 4 -52 4q-95 0 -175 -62t-115 -166h-7l-8 205h-169q8 -162 8 -326v-734h190v567q0 132 63 228q68 108 199 108q39 0 66 -4z"/>
            <glyph unicode="&#x214;" horiz-adv-x="1391"
                   d="M600 1587h119l-173 297h-184zM914 1587h116l-173 297h-184zM1039 1477v-883q0 -462 -351 -462q-157 0 -246 117.5t-89 344.5v883h-190v-877q0 -313 136 -467t383 -154q256 0 400.5 158t144.5 472v868h-188z"/>
            <glyph unicode="&#x215;" horiz-adv-x="1182"
                   d="M500 1171h118l-173 297h-184zM813 1171h116l-173 297h-184zM868 0h169q-9 180 -9 289v771h-191v-652q0 -134 -105 -218q-74 -56 -160 -56q-231 0 -231 337v589h-190v-623q0 -245 117 -366q92 -92 240 -92q234 0 343 190h6z"/>
            <glyph unicode="&#x216;" horiz-adv-x="1391"
                   d="M849 1587h109q-2 118 -73 188t-191 70q-126 1 -193.5 -72.5t-69.5 -185.5h110q24 149 151 149q146 0 157 -149zM1039 1477v-883q0 -462 -351 -462q-157 0 -246 117.5t-89 344.5v883h-190v-877q0 -313 136 -467t383 -154q256 0 400.5 158t144.5 472v868h-188z"/>
            <glyph unicode="&#x217;" horiz-adv-x="1182"
                   d="M747 1171h110q-2 118 -72.5 187.5t-190.5 69.5q-127 2 -194 -71.5t-69 -185.5h110q22 148 151 148q145 0 155 -148zM868 0h169q-9 180 -9 289v771h-191v-652q0 -134 -105 -218q-74 -56 -160 -56q-231 0 -231 337v589h-190v-623q0 -245 117 -366q92 -92 240 -92 q234 0 343 190h6z"/>
            <glyph unicode="&#x218;" horiz-adv-x="1060"
                   d="M968 403q0 154 -88 255t-282 179q-153 61 -219 121q-68 66 -68 164q0 88 61 149q75 72 221.5 72.5t263.5 -70.5l53 155q-125 71 -318 71q-211 -1 -342 -112.5t-131 -286.5q0 -274 383 -418q147 -55 210.5 -123t63.5 -172q0 -115 -81.5 -183t-223.5 -68q-187 0 -333 94 l-48 -157q139 -92 368 -92q240 -1 375 116t135 306zM633 -57l-212 -22q-44 -281 -130 -521l134 15q112 186 208 528z"/>
            <glyph unicode="&#x219;" horiz-adv-x="851"
                   d="M767 295q0 211 -274 320q-107 42 -148 79q-50 41 -50 101q0 65 46 105q31 28 86.5 37t124.5 -5.5t130 -53.5l48 141q-107 64 -257 64q-158 0 -262 -90q-42 -38 -69 -87t-31.5 -108t17.5 -116t89 -113t174 -96q105 -39 148.5 -83t43.5 -112q0 -74 -49 -114.5t-120 -43.5 t-148.5 17t-136.5 58l-46 -145q121 -69 291 -69q184 0 288.5 84.5t104.5 229.5zM544 -57l-213 -22q-44 -281 -130 -521l134 15q111 185 209 528z"/>
            <glyph unicode="&#x21a;" horiz-adv-x="1066" d="M0 1477v-160h439v-1317h190v1317h440v160h-1069zM644 -57l-213 -22q-42 -283 -128 -521l134 15q113 193 207 528z"/>
            <glyph unicode="&#x21b;" horiz-adv-x="713"
                   d="M387 1060v253l-188 -57v-196h-162v-144h162v-583q0 -192 74 -272q46 -49 121.5 -68t139 -13t114.5 24l-8 145q-45 -13 -109 -13q-144 0 -144 203v577h272v144h-272zM502 -57l-213 -22q-42 -278 -129 -521l133 15q114 189 209 528z"/>
            <glyph unicode="&#x21e;" horiz-adv-x="1401" d="M705 1692h-4l-129 208h-145l211 -313h131l206 313h-143zM1048 1477v-620h-695v620h-188v-1477h188v692h695v-692h190v1477h-190z"/>
            <glyph unicode="&#x21f;" horiz-adv-x="1194"
                   d="M548 1769h-4l-130 207h-144l210 -313h131l206 313h-142zM1043 0v636q0 93 -19.5 169t-53.5 127t-80.5 85.5t-98 50t-109.5 15.5q-101 0 -190 -49.5t-139 -134.5h-4v655h-192v-1554h192v644q0 48 11 90q27 84 96.5 137t156.5 53q240 0 240 -309v-615h190z"/>
            <glyph unicode="&#x226;" horiz-adv-x="1313"
                   d="M767 1696q0 46 -29.5 78t-73.5 32q-46 0 -78 -32t-32 -78q0 -45 31 -77t76 -32q47 0 76.5 31.5t29.5 77.5zM546 1477l-491 -1477h194l150 462h511l153 -462h202l-491 1477h-228zM579 1035l72 271h4q33 -135 75 -273l142 -422h-435z"/>
            <glyph unicode="&#x227;" horiz-adv-x="1037"
                   d="M598 1304q0 46 -29.5 77.5t-73.5 31.5q-46 0 -78 -31.5t-32 -77.5q0 -45 31.5 -77.5t76.5 -32.5t75 32t30 78zM734 0h173q-18 102 -18 253v400q1 430 -394 430q-201 0 -344 -90l44 -127q34 22 77 40t91 28.5t96 11.5t91.5 -13t77 -41.5t53.5 -77t20 -117.5v-22 q-302 2 -463 -100t-161 -295q-1 -130 85.5 -215.5t232.5 -85.5q211 0 318 153h4zM703 541v-186q0 -35 -9 -62q-23 -73 -90 -123.5t-159 -50.5q-80 0 -128.5 47.5t-48.5 136.5q-1 124 108 183.5t327 54.5z"/>
            <glyph unicode="&#x228;" horiz-adv-x="1056"
                   d="M678 0l-69 -111q63 -9 107.5 -51.5t44.5 -100.5q0 -178 -226 -178q-85 0 -150 38l33 94q34 -21 74.5 -28.5t70.5 -3t45 16.5q21 16 21 52q0 76 -169 92l100 180h-395v1477h782v-158h-594v-468h561v-159h-561v-535h626v-157h-301z"/>
            <glyph unicode="&#x229;" horiz-adv-x="1077"
                   d="M999 592q0 -60 -6 -94h-728q3 -181 99.5 -275t258.5 -94q154 0 284 53l34 -136q-127 -55 -294 -62l-68 -113q63 -9 107 -51t44 -100q0 -178 -226 -178q-87 0 -149 37l32 95q55 -34 119 -34q49 0 70.5 17.5t21.5 53.5q0 76 -169 92l102 182h10q-198 15 -321 142 q-137 143 -137 388t132 407q136 163 357 163q109 0 193 -41.5t134 -112.5t75 -157t25 -182zM268 636h547q2 132 -62 221t-197 90q-123 0 -197 -90t-91 -221z"/>
            <glyph unicode="&#x22a;" horiz-adv-x="1472"
                   d="M493 2055v-116h489v116h-489zM644 1721q0 46 -30 77.5t-75 31.5t-76.5 -32t-31.5 -77t30.5 -78t75.5 -33t76 32.5t31 78.5zM1041 1721q0 46 -30.5 77.5t-75.5 31.5q-46 0 -76.5 -31.5t-30.5 -77.5q0 -45 30 -78t75 -33t76.5 32.5t31.5 78.5zM1394 754q0 157 -44 293.5 t-125.5 237t-204.5 158.5t-273 58q-205 0 -358.5 -104.5t-231.5 -278.5t-78 -390q0 -159 44.5 -296t126 -237.5t204 -158t271.5 -57.5q159 0 286.5 59t211 163.5t127.5 245.5t44 307zM1192 745q0 -122 -29.5 -231.5t-85 -195t-144.5 -136t-199 -50.5q-86 0 -160.5 32.5 t-128.5 89t-92.5 132.5t-57.5 164t-19 182q0 245 107 412q125 201 353 201q220 0 349 -197q107 -167 107 -403z"/>
            <glyph unicode="&#x22b;" horiz-adv-x="1178"
                   d="M347 1637v-117h488v117h-488zM498 1304q0 46 -30 77.5t-75 31.5t-76.5 -31.5t-31.5 -77.5q0 -45 30.5 -77.5t75.5 -32.5t76 32t31 78zM895 1304q0 46 -30.5 77.5t-75.5 31.5q-46 0 -76.5 -31.5t-30.5 -77.5q0 -45 29.5 -77.5t74.5 -32.5q46 0 77.5 32t31.5 78zM1096 539 q0 233 -130 385q-138 159 -368 159q-156 0 -273.5 -72.5t-179.5 -199.5t-62 -290q0 -231 130 -385q138 -157 368 -157q157 0 274.5 71.5t179 198.5t61.5 290zM901 533q0 -154 -77 -276q-90 -136 -237 -136q-150 0 -236 134q-77 116 -77 274q0 164 75 278q86 134 241 134 q96 0 168.5 -58t107.5 -149.5t35 -200.5z"/>
            <glyph unicode="&#x22c;" horiz-adv-x="1472"
                   d="M493 2058v-116h489v116h-489zM1002 1832h-95q-6 -92 -56 -92q-30 0 -100 37q-89 48 -138 48q-68 0 -105 -58.5t-37 -156.5h98q3 38 11.5 60.5t20 31.5t32 5.5t39.5 -11.5t51 -26q82 -46 134 -46q145 0 145 199v9zM1394 754q0 157 -44 293.5t-125.5 237t-204.5 158.5 t-273 58q-205 0 -358.5 -104.5t-231.5 -278.5t-78 -390q0 -159 44.5 -296t126 -237.5t204 -158t271.5 -57.5q159 0 286.5 59t211 163.5t127.5 245.5t44 307zM1192 745q0 -122 -29.5 -231.5t-85 -195t-144.5 -136t-199 -50.5q-86 0 -160.5 32.5t-128.5 89t-92.5 132.5 t-57.5 164t-19 182q0 245 107 412q125 201 353 201q220 0 349 -197q107 -167 107 -403z"/>
            <glyph unicode="&#x22d;" horiz-adv-x="1178"
                   d="M347 1639v-116h488v116h-488zM855 1416h-94q-8 -92 -58 -92q-28 0 -98 37q-89 48 -138 48q-68 0 -105.5 -59.5t-37.5 -155.5h99q7 96 57 96q27 0 97 -37q80 -46 133 -46q145 1 145 200v9zM1096 539q0 233 -130 385q-138 159 -368 159q-156 0 -273.5 -72.5t-179.5 -199.5 t-62 -290q0 -231 130 -385q138 -157 368 -157q157 0 274.5 71.5t179 198.5t61.5 290zM901 533q0 -154 -77 -276q-90 -136 -237 -136q-150 0 -236 134q-77 116 -77 274q0 164 75 278q86 134 241 134q96 0 168.5 -58t107.5 -149.5t35 -200.5z"/>
            <glyph unicode="&#x22e;" horiz-adv-x="1472"
                   d="M843 1721q0 46 -29.5 77.5t-73.5 31.5q-46 0 -77.5 -31.5t-31.5 -77.5q0 -45 31 -78t76 -33t75 32.5t30 78.5zM1394 754q0 157 -44 293.5t-125.5 237t-204.5 158.5t-273 58q-205 0 -358.5 -104.5t-231.5 -278.5t-78 -390q0 -159 44.5 -296t126 -237.5t204 -158 t271.5 -57.5q159 0 286.5 59t211 163.5t127.5 245.5t44 307zM1192 745q0 -122 -29.5 -231.5t-85 -195t-144.5 -136t-199 -50.5q-86 0 -160.5 32.5t-128.5 89t-92.5 132.5t-57.5 164t-19 182q0 245 107 412q125 201 353 201q220 0 349 -197q107 -167 107 -403z"/>
            <glyph unicode="&#x22f;" horiz-adv-x="1178"
                   d="M697 1304q0 46 -29.5 77.5t-73.5 31.5q-46 0 -77.5 -31.5t-31.5 -77.5q0 -45 31 -77.5t76 -32.5t75 32t30 78zM1096 539q0 233 -130 385q-138 159 -368 159q-156 0 -273.5 -72.5t-179.5 -199.5t-62 -290q0 -231 130 -385q138 -157 368 -157q157 0 274.5 71.5t179 198.5 t61.5 290zM901 533q0 -154 -77 -276q-90 -136 -237 -136q-150 0 -236 134q-77 116 -77 274q0 164 75 278q86 134 241 134q96 0 168.5 -58t107.5 -149.5t35 -200.5z"/>
            <glyph unicode="&#x230;" horiz-adv-x="1472"
                   d="M493 2055v-116h489v116h-489zM843 1721q0 46 -29.5 77.5t-73.5 31.5q-46 0 -77.5 -31.5t-31.5 -77.5q0 -45 31 -78t76 -33t75 32.5t30 78.5zM1394 754q0 157 -44 293.5t-125.5 237t-204.5 158.5t-273 58q-205 0 -358.5 -104.5t-231.5 -278.5t-78 -390q0 -159 44.5 -296 t126 -237.5t204 -158t271.5 -57.5q159 0 286.5 59t211 163.5t127.5 245.5t44 307zM1192 745q0 -122 -29.5 -231.5t-85 -195t-144.5 -136t-199 -50.5q-86 0 -160.5 32.5t-128.5 89t-92.5 132.5t-57.5 164t-19 182q0 245 107 412q125 201 353 201q220 0 349 -197 q107 -167 107 -403z"/>
            <glyph unicode="&#x231;" horiz-adv-x="1178"
                   d="M347 1637v-117h488v117h-488zM697 1304q0 46 -29.5 77.5t-73.5 31.5q-46 0 -77.5 -31.5t-31.5 -77.5q0 -45 31 -77.5t76 -32.5t75 32t30 78zM1096 539q0 233 -130 385q-138 159 -368 159q-156 0 -273.5 -72.5t-179.5 -199.5t-62 -290q0 -231 130 -385q138 -157 368 -157 q157 0 274.5 71.5t179 198.5t61.5 290zM901 533q0 -154 -77 -276q-90 -136 -237 -136q-150 0 -236 134q-77 116 -77 274q0 164 75 278q86 134 241 134q96 0 168.5 -58t107.5 -149.5t35 -200.5z"/>
            <glyph unicode="&#x232;" horiz-adv-x="1163"
                   d="M351 1702v-115h488v115h-488zM947 1477l-207 -403q-95 -182 -146 -309h-4q-58 131 -145 306l-202 406h-214l458 -850v-627h190v629l484 848h-214z"/>
            <glyph unicode="&#x233;" horiz-adv-x="1014"
                   d="M265 1288v-115h489v115h-489zM592 439l-66 -220h-7q-46 168 -65 215l-226 626h-207l382 -977q13 -36 13 -50q0 -15 -15 -44q-55 -123 -139.5 -199.5t-184.5 -109.5l50 -160q118 23 233 125q94 85 177 244q59 106 180 420l280 751h-202z"/>
            <glyph unicode="&#x237;" horiz-adv-x="525" d="M182 1060v-895q0 -313 -73 -393q-63 -73 -203 -81l19 -151q207 1 320 121q127 126 127 431v968h-190z"/>
            <glyph unicode="&#x2bb;" horiz-adv-x="448" d="M399 1514l-121 -13q-114 -192 -203 -519l195 22q41 270 129 510z"/>
            <glyph unicode="&#x2bc;" horiz-adv-x="448" d="M399 1514l-198 -19q-37 -266 -128 -513l122 15q116 195 204 517z"/>
            <glyph unicode="&#x2c6;" horiz-adv-x="656" d="M263 1503l-202 -313h138l125 206h4l126 -206h142l-205 313h-128z"/>
            <glyph unicode="&#x2c7;" horiz-adv-x="656" d="M333 1295h-5l-129 208h-144l210 -313h132l205 313h-142z"/>
            <glyph unicode="&#x2c9;" horiz-adv-x="656" d="M86 1396v-116h489v116h-489z"/>
            <glyph unicode="&#x2d8;" horiz-adv-x="656" d="M592 1488h-109q-5 -57 -35 -95.5t-71 -47.5t-83.5 0.5t-76 47.5t-42.5 95h-110q3 -112 70 -185.5t193 -73.5q120 0 191 70.5t73 188.5z"/>
            <glyph unicode="&#x2d9;" horiz-adv-x="656" d="M412 1328q0 46 -29.5 77.5t-73.5 31.5q-46 0 -78 -31.5t-32 -77.5q0 -45 31.5 -77t76.5 -32t75 31.5t30 77.5z"/>
            <glyph unicode="&#x2da;" horiz-adv-x="876"
                   d="M646 1378q0 88 -61 149.5t-148 61.5q-86 0 -147 -61q-62 -62 -62 -150q0 -84 62 -146q61 -61 147 -61q87 0 148 61t61 146zM548 1378q0 -44 -32.5 -76.5t-78.5 -32.5q-44 0 -77.5 32.5t-33.5 76.5q0 46 33.5 79.5t77.5 33.5q46 0 78.5 -33.5t32.5 -79.5z"/>
            <glyph unicode="&#x2db;" horiz-adv-x="656"
                   d="M491 -401l-20 87q-42 -21 -105 -21q-94 0 -94 99q0 62 61 129q63 64 144 107h-117q-72 -24 -139 -98q-77 -91 -77 -167q0 -79 51 -124t136 -45q89 0 160 33z"/>
            <glyph unicode="&#x2dc;" horiz-adv-x="656"
                   d="M594 1451h-94q-8 -92 -57 -92q-28 0 -98 37q-89 48 -138 48q-69 0 -106.5 -58.5t-37.5 -156.5h100q6 97 56 97q26 0 97 -38q80 -46 133 -46q145 1 145 200v9z"/>
            <glyph unicode="&#x2dd;" horiz-adv-x="656" d="M96 1203h117l241 298h-184zM408 1203h118l239 298h-184z"/>
            <glyph unicode="&#x2ee;" horiz-adv-x="768" d="M397 1514l-196 -19q-43 -280 -128 -513l120 15q116 195 204 517zM721 1514l-198 -19q-43 -280 -128 -513l120 15q126 219 206 517z"/>
            <glyph unicode="&#x300;" d="M50 1503l266 -313h136l-191 313h-211z"/>
            <glyph unicode="&#x301;" d="M224 1190h133l266 313h-209z"/>
            <glyph unicode="&#x302;" d="M263 1503l-202 -313h138l125 206h4l126 -206h142l-205 313h-128z"/>
            <glyph unicode="&#x303;" d="M594 1451h-94q-8 -92 -57 -92q-28 0 -98 37q-89 48 -138 48q-69 0 -106.5 -58.5t-37.5 -156.5h100q6 97 56 97q26 0 97 -38q80 -46 133 -46q145 1 145 200v9z"/>
            <glyph unicode="&#x304;" d="M86 1396v-116h489v116h-489z"/>
            <glyph unicode="&#x306;" d="M592 1488h-109q-5 -57 -35 -95.5t-71 -47.5t-83.5 0.5t-76 47.5t-42.5 95h-110q3 -112 70 -185.5t193 -73.5q120 0 191 70.5t73 188.5z"/>
            <glyph unicode="&#x307;" d="M412 1328q0 46 -29.5 77.5t-73.5 31.5q-46 0 -78 -31.5t-32 -77.5q0 -45 31.5 -77t76.5 -32t75 31.5t30 77.5z"/>
            <glyph unicode="&#x308;"
                   d="M236 1328q0 46 -29.5 77.5t-74.5 31.5q-44 0 -75.5 -31.5t-31.5 -77.5q0 -45 29.5 -77t74.5 -32q46 0 76.5 31.5t30.5 77.5zM633 1328q0 46 -29.5 77.5t-74.5 31.5q-46 0 -77 -31.5t-31 -77.5q0 -45 30 -77t75 -32q46 0 76.5 31.5t30.5 77.5z"/>
            <glyph unicode="&#x309;"
                   d="M249 1188l104 -27q21 37 48 64q37 37 54 56q62 67 62 137q0 72 -53 118.5t-131 46.5q-137 0 -214 -148l74 -44q24 37 48.5 57t59.5 20q30 0 50.5 -20.5t20.5 -53.5q0 -19 -8 -37.5t-17 -30t-26 -29.5q-61 -65 -72 -109z"/>
            <glyph unicode="&#x30a;"
                   d="M646 1378q0 88 -61 149.5t-148 61.5q-86 0 -147 -61q-62 -62 -62 -150q0 -84 62 -146q61 -61 147 -61q87 0 148 61t61 146zM548 1378q0 -44 -32.5 -76.5t-78.5 -32.5q-44 0 -77.5 32.5t-33.5 76.5q0 46 33.5 79.5t77.5 33.5q46 0 78.5 -33.5t32.5 -79.5z"/>
            <glyph unicode="&#x30b;" d="M96 1203h117l241 298h-184zM408 1203h118l239 298h-184z"/>
            <glyph unicode="&#x30c;" d="M333 1295h-5l-129 208h-144l210 -313h132l205 313h-142z"/>
            <glyph unicode="&#x30f;" d="M335 1203h119l-174 298h-184zM648 1203h117l-173 298h-184z"/>
            <glyph unicode="&#x311;" d="M483 1229h109q-2 120 -73 189.5t-191 69.5q-126 0 -193.5 -73.5t-69.5 -185.5h110q24 149 151 149q146 0 157 -149z"/>
            <glyph unicode="&#x312;" d="M374 1512l-81 64q-54 -41 -85 -84q-61 -84 -61 -188q0 -53 23.5 -97.5t55.5 -62.5l138 31q-31 24 -51 63t-20 79q0 100 81 195z"/>
            <glyph unicode="&#x313;" d="M147 1207l81 -63q47 30 85 83q61 84 61 189q0 52 -23.5 97t-55.5 63l-138 -31q31 -26 51 -64t20 -78q0 -101 -81 -196z"/>
            <glyph unicode="&#x316;" d="M50 -107l266 -314h136l-191 314h-211z"/>
            <glyph unicode="&#x317;" d="M224 -421h133l266 314h-209z"/>
            <glyph unicode="&#x323;" d="M434 -285q0 46 -30 78t-73 32q-46 0 -78 -32t-32 -78q0 -44 31 -77t76 -33t75.5 32t30.5 78z"/>
            <glyph unicode="&#x324;"
                   d="M236 -282q0 46 -29.5 77.5t-74.5 31.5q-44 0 -75.5 -31.5t-31.5 -77.5q0 -45 29.5 -78t74.5 -33t76 32.5t31 78.5zM633 -282q0 46 -29.5 77.5t-74.5 31.5q-46 0 -77 -31.5t-31 -77.5q0 -45 30 -78t75 -33t76 32.5t31 78.5z"/>
            <glyph unicode="&#x325;"
                   d="M646 -232q0 88 -61 149.5t-148 61.5q-83 0 -147 -62q-62 -60 -62 -149q0 -85 62 -147t147 -62q86 0 148 62q61 61 61 147zM548 -232q0 -44 -32.5 -76.5t-78.5 -32.5q-44 0 -77.5 32.5t-33.5 76.5q0 45 33 78t78 33q46 0 78.5 -32.5t32.5 -78.5z"/>
            <glyph unicode="&#x326;" d="M147 -403l81 -64q49 35 85 84q61 82 61 188q0 53 -23.5 97.5t-55.5 62.5l-138 -30q31 -26 51 -65t20 -79q0 -99 -81 -194z"/>
            <glyph unicode="&#x327;"
                   d="M498 -259q0 58 -44 100.5t-107 51.5l69 113h-117l-102 -181q169 -18 169 -93q0 -36 -21 -52q-15 -12 -45 -16.5t-70.5 3t-74.5 28.5l-32 -94q64 -38 149 -38q226 0 226 178z"/>
            <glyph unicode="&#x328;" d="M491 -401l-20 87q-42 -21 -105 -21q-94 0 -94 99q0 62 61 129q63 64 144 107h-117q-72 -24 -139 -98q-77 -91 -77 -167q0 -79 51 -124t136 -45q89 0 160 33z"/>
            <glyph unicode="&#x32c;" d="M333 -316h-5l-129 209h-144l210 -314h132l205 314h-142z"/>
            <glyph unicode="&#x32d;" d="M263 -107l-202 -314h138l125 206h4l126 -206h142l-205 314h-128z"/>
            <glyph unicode="&#x32e;" d="M592 -123h-109q-12 -149 -157 -149q-125 0 -151 149h-110q3 -104 62 -178q68 -80 201 -80q121 0 191.5 69.5t72.5 188.5z"/>
            <glyph unicode="&#x32f;" d="M483 -381h109q-2 118 -73 188t-191 70q-126 1 -193.5 -72.5t-69.5 -185.5h110q24 149 151 149q146 0 157 -149z"/>
            <glyph unicode="&#x330;" d="M594 -160h-94q-8 -93 -57 -93q-27 0 -98 38q-89 48 -138 48q-69 0 -106.5 -58.5t-37.5 -155.5h100q6 96 56 96q27 0 97 -37q80 -46 133 -46q145 0 145 199v9z"/>
            <glyph unicode="&#x331;" d="M86 -215v-116h489v116h-489z"/>
            <glyph unicode="&#x340;" d="M50 1503l266 -313h136l-191 313h-211z"/>
            <glyph unicode="&#x341;" d="M224 1190h133l266 313h-209z"/>
            <glyph unicode="&#x34f;"/>
            <glyph unicode="&#xe00;" horiz-adv-x="426"/>
            <glyph unicode="&#xe01;" horiz-adv-x="1322"
                   d="M1159 0v774q0 215 -126 342q-133 133 -376 133q-205 0 -363 -112q-73 -52 -122.5 -119t-66.5 -137l180 -153q-56 -29 -87 -85.5t-31 -121.5v-521h188v548q0 69 28 114t88 76l-166 154q34 87 130.5 141t221.5 54q153 0 233 -78.5t80 -234.5v-774h189z"/>
            <glyph unicode="&#xe02;" horiz-adv-x="1217"
                   d="M866 1227v-806q0 -158 -63 -220.5t-203 -62.5q-274 0 -274 259v168q0 10 1.5 20t6 21t8.5 19.5t12 21t13 20t16 21.5t16 20t18 21.5t17 20.5q33 40 52.5 67t37 67.5t17.5 77.5v66q0 97 -49.5 148t-163.5 51h-173v-162h152q55 0 55 -53v-52q0 -11 -2.5 -22.5t-10 -24.5 t-13 -22.5t-18.5 -26t-19.5 -24t-23.5 -27t-23 -26.5q-52 -61 -81 -113t-29 -109v-168q0 -189 109 -298q118 -120 349 -120q236 0 345 112t109 332v804h-188z"/>
            <glyph unicode="&#xe03;" horiz-adv-x="1226"
                   d="M151 565v-168q0 -190 109 -298q118 -120 349 -120q237 0 345.5 111.5t108.5 332.5v804h-189v-806q0 -158 -62.5 -220.5t-202.5 -62.5q-274 0 -274 259v168q0 12 3 24t6.5 22t12 24t13.5 21.5t18 23.5t18.5 22t21.5 23.5t21 23.5q35 40 56 69t39.5 74t18.5 90v43 q0 103 -46 159t-140 56q-46 0 -87.5 -18.5t-61.5 -50.5l-153 78v-166l172 -77q25 73 81 73q55 0 55 -56v-41q0 -34 -19.5 -72.5t-37 -59.5t-58.5 -67q-37 -42 -58 -68.5t-40 -68.5t-19 -81z"/>
            <glyph unicode="&#xe04;" horiz-adv-x="1357"
                   d="M679 1249q-240 0 -381 -135q-133 -128 -133 -336v-778h188v303q27 97 90.5 147t152.5 50h155v164h-155q-88 0 -150 -41.5t-93 -109.5v267q0 142 83 224.5t243 82.5t243.5 -82.5t83.5 -224.5v-780h188v778q0 208 -133 336q-141 135 -382 135z"/>
            <glyph unicode="&#xe05;" horiz-adv-x="1380"
                   d="M355 513v346q0 158 125 212l210 -120l211 120q124 -49 124 -212v-859h189v846q0 163 -78 267.5t-224 135.5l-222 -147l-221 147q-146 -30 -224 -134.5t-78 -268.5v-846h188v303q27 96 92.5 146.5t154.5 50.5h157v164h-157q-88 0 -152 -42t-95 -109z"/>
            <glyph unicode="&#xe06;" horiz-adv-x="1327"
                   d="M357 391v153q0 15 4.5 32t10 30t18 33t19.5 29.5t25 33.5l24 32q31 42 49.5 72.5t35 79t16.5 96.5v43q0 103 -46.5 159t-140.5 56q-46 0 -87 -18.5t-61 -50.5l-153 78v-166l172 -77q25 73 81 73q55 0 55 -56v-41q0 -37 -17.5 -78t-34.5 -64.5t-53 -70.5q-33 -43 -52 -72 t-36 -71.5t-17 -81.5v-544h178l10 180q139 -201 379 -201q212 0 319.5 126t107.5 353v769h-188v-767q0 -159 -62.5 -239.5t-197.5 -80.5q-107 0 -211 75t-147 176z"/>
            <glyph unicode="&#xe07;" horiz-adv-x="1233"
                   d="M401 0h168q240 0 395 174q161 179 161 468q0 281 -125 448q-119 159 -323 159q-106 0 -171 -32l29 -152q51 22 134 22q120 0 190 -101q76 -112 76 -344q0 -225 -109 -355q-103 -124 -251 -124h-27l-324 1064h-193z"/>
            <glyph unicode="&#xe08;" horiz-adv-x="1187"
                   d="M381 0h154q119 0 219 47.5t173 135.5q152 184 152 470q0 284 -144 440t-425 156q-134 0 -259 -46.5t-220 -126.5l59 -147q83 72 192.5 115t230.5 43q185 0 280.5 -104t95.5 -328q0 -227 -104 -364q-96 -128 -233 -128h-29l-84 368q-24 99 -73 135.5t-145 36.5h-98v-162 h84q25 0 37.5 -10t18.5 -38z"/>
            <glyph unicode="&#xe09;" horiz-adv-x="1292"
                   d="M1129 0v734q0 242 -134 378.5t-393 136.5q-287 0 -527 -170l67 -148q215 156 463 156q165 0 250.5 -90.5t85.5 -262.5v-343q-53 -112 -133 -176q-93 -75 -199 -75q-117 0 -170.5 52.5t-53.5 164.5v166q0 96 -43.5 138t-124.5 42h-127v-162h70q41 0 41 -48v-142 q0 -184 93 -278t275 -94q144 0 241 61q63 40 131 140l10 -180h178z"/>
            <glyph unicode="&#xe0a;" horiz-adv-x="1217"
                   d="M1054 423v221q0 102 -57.5 172.5t-147.5 88.5l247 322h-207l-232 -335l27 -79h41q141 0 141 -171v-221q0 -158 -63 -220.5t-203 -62.5q-274 0 -274 259v168q0 10 1.5 20t6 21t8.5 19.5t12 21t13 20t16 21.5t16 20t18 21.5t17 20.5q33 40 52.5 67t37 67.5t17.5 77.5v66 q0 97 -49.5 148t-163.5 51h-173v-162h152q55 0 55 -53v-52q0 -11 -2.5 -22.5t-10 -24.5t-13 -22.5t-18.5 -26t-19.5 -24t-23.5 -27t-23 -26.5q-52 -61 -81 -113t-29 -109v-168q0 -189 109 -298q118 -120 349 -120q236 0 345 112t109 332z"/>
            <glyph unicode="&#xe0b;" horiz-adv-x="1226"
                   d="M335 397v168q0 12 3 24t6.5 22t12 24t13.5 21.5t18 23.5t18.5 22t21.5 23.5t21 23.5q35 40 56 69t39.5 74t18.5 90v43q0 103 -46 159t-140 56q-46 0 -87.5 -18.5t-61.5 -50.5l-153 78v-166l172 -77q25 73 81 73q55 0 55 -56v-41q0 -34 -19.5 -72.5t-37 -59.5t-58.5 -67 q-37 -42 -58 -68.5t-40 -68.5t-19 -81v-168q0 -190 109 -298q118 -120 349 -120q237 0 345.5 111.5t108.5 332.5v221q0 102 -58 172.5t-148 88.5l247 322h-205l-232 -335l25 -79h42q140 0 140 -171v-221q0 -158 -62.5 -220.5t-202.5 -62.5q-274 0 -274 259z"/>
            <glyph unicode="&#xe0c;" horiz-adv-x="2020"
                   d="M1100 0l11 180q139 -201 348 -201q198 0 297.5 125t99.5 354v769h-188v-767q0 -320 -231 -320q-90 0 -186 75q-99 78 -140 176v383q0 215 -118 342q-127 133 -360 133q-195 0 -347 -112q-69 -52 -116.5 -119t-64.5 -137l180 -153q-56 -29 -87 -85.5t-31 -121.5v-324 q0 -88 50 -142.5t138 -54.5h168v157h-117q-30 0 -40.5 14t-10.5 44v333q0 69 28 114t88 76l-166 154q34 87 125.5 141t202.5 54q140 0 214.5 -79t74.5 -234v-774h178z"/>
            <glyph unicode="&#xe0d;" horiz-adv-x="2020"
                   d="M1668 1227v-861q-52 -89 -133.5 -146t-191.5 -57q-113 0 -172.5 66.5t-59.5 191.5v353q0 215 -118 342q-127 133 -360 133q-195 0 -347 -112q-69 -52 -116.5 -119t-64.5 -137l180 -153q-56 -29 -87 -85.5t-31 -121.5v-324q0 -88 50 -142.5t138 -54.5h168v157h-117 q-30 0 -40.5 14t-10.5 44v333q0 69 28 114t88 76l-166 154q34 87 125.5 141t202.5 54q140 0 214.5 -79t74.5 -234v-353q0 -211 120 -323q102 -98 269 -98q137 0 236 67q78 51 121 134v-65q0 -197 -90 -269q-74 -60 -244 -60q-86 0 -170.5 21t-147.5 59l-46 -148 q67 -43 169.5 -69.5t223.5 -26.5q230 0 356 116q137 124 137 375v1093h-188z"/>
            <glyph unicode="&#xe0e;" horiz-adv-x="1344"
                   d="M993 774v-1083q-62 64 -158.5 108t-196.5 44q-204 0 -356 -136l51 -146q79 63 152 92t176 29q156 0 286 -121h234v1213q0 213 -126 342q-131 133 -376 133q-206 0 -364 -112q-72 -52 -121.5 -119t-66.5 -137l201 -168q-55 -29 -86 -85.5t-31 -121.5v-291q0 -30 -10.5 -44 t-40.5 -14h-95v-157h146q88 -2 138 53t50 144v336q0 68 28 113.5t88 76.5l-189 169q36 88 132.5 141.5t220.5 53.5q152 0 233 -79t81 -234z"/>
            <glyph unicode="&#xe0f;" horiz-adv-x="1344"
                   d="M1181 -439v1213q0 213 -126 342q-131 133 -376 133q-206 0 -364 -112q-72 -52 -121.5 -119t-66.5 -137l201 -168q-55 -29 -86 -85.5t-31 -121.5v-291q0 -30 -10.5 -44t-40.5 -14h-95v-157h146q88 -2 138 53t50 144v336q0 68 28 113.5t88 76.5l-189 169q36 88 132.5 141.5 t220.5 53.5q152 0 233 -79t81 -234v-1033l-290 173q-17 -93 -86.5 -155t-160.5 -62q-46 0 -105 23t-108 56l-48 -159q46 -31 119.5 -50t152.5 -19q86 0 162 46.5t111 123.5l262 -157h179z"/>
            <glyph unicode="&#xe10;" horiz-adv-x="1187"
                   d="M381 0h154q119 0 220 48q203 98 284 341q22 67 32.5 147.5t6.5 177t-42 195.5t-109 176l190 228h-214l-110 -127q-120 63 -283 63q-134 0 -259 -46.5t-220 -126.5l59 -147q83 72 192.5 115t230.5 43q376 0 376 -432q0 -227 -104 -364q-96 -128 -233 -128h-29l-84 368 q-24 99 -73 135.5t-145 36.5h-98v-162h84q25 0 37.5 -10t18.5 -38zM1012 -144h-180v-128h-115q-69 0 -112 25.5t-95 81.5q-95 -107 -217 -107h-155v-167h144q76 0 137.5 30t90.5 76q79 -106 215 -106h287v295z"/>
            <glyph unicode="&#xe11;" horiz-adv-x="1334"
                   d="M357 0v477q0 92 40 198t106 200q66 95 148 153.5t158 58.5q89 0 129.5 -57.5t40.5 -188.5v-841h189v841q0 196 -89.5 302t-235.5 106q-103 0 -182 -46.5t-128 -119.5q-2 66 -45.5 111.5t-115.5 45.5q-46 0 -87 -18.5t-61 -50.5l-132 78v-166l151 -77q25 73 81 73 q55 0 55 -56v-72q-93 -113 -138 -197q-72 -137 -72 -277v-477h188z"/>
            <glyph unicode="&#xe12;" horiz-adv-x="2162"
                   d="M1209 391v455q0 163 -78 267.5t-224 135.5l-179 -138l-176 138q-207 -43 -321 -206q-122 -174 -122 -422q0 -320 144 -487q127 -147 352 -147q107 0 192 40l-34 148q-76 -26 -150 -26q-130 0 -213 101q-101 123 -101 371q0 193 71.5 308.5t192.5 141.5l165 -111l169 111 q124 -49 124 -212v-859h177l11 180q139 -201 371 -201q209 0 314 125t105 354v769h-189v-767q0 -159 -60.5 -239.5t-191.5 -80.5q-104 0 -203 75q-107 80 -146 176z"/>
            <glyph unicode="&#xe13;" horiz-adv-x="2020"
                   d="M1852 1227h-189v-836q-49 -105 -143 -176q-99 -75 -211 -75q-96 0 -147 67t-51 188v379q0 215 -118 342q-127 133 -360 133q-195 0 -347 -112q-69 -52 -116.5 -119t-64.5 -137l180 -153q-56 -29 -87 -85.5t-31 -121.5v-324q0 -88 50 -142.5t138 -54.5h168v157h-117 q-30 0 -40.5 14t-10.5 44v333q0 69 28 114t88 76l-166 154q34 87 125.5 141t202.5 54q140 0 214.5 -79t74.5 -234v-381q0 -195 97 -304.5t280 -109.5q125 0 210.5 51t153.5 150l12 -180h177v1227z"/>
            <glyph unicode="&#xe14;" horiz-adv-x="1369"
                   d="M1205 0v728q0 222 -123 366q-136 155 -390 155q-282 0 -438 -187q-145 -175 -145 -462q0 -295 153 -463q67 -74 158.5 -112t192.5 -38q105 0 194 40l-36 148q-76 -26 -148 -26q-130 0 -218 99q-106 118 -106 352q0 232 102.5 359.5t295.5 127.5q160 0 243 -101 q76 -94 76 -256v-730h189z"/>
            <glyph unicode="&#xe15;" horiz-adv-x="1399"
                   d="M745 960l177 111q126 -49 126 -212v-859h188v846q0 163 -78.5 267.5t-224.5 135.5l-188 -138l-184 138q-207 -42 -326 -206q-126 -173 -126 -432q0 -316 148 -478q133 -146 356 -146q105 0 194 40l-36 148q-76 -26 -148 -26q-131 0 -218 101q-106 121 -106 361 q0 196 75.5 315t197.5 145z"/>
            <glyph unicode="&#xe16;" horiz-adv-x="1327"
                   d="M355 215v333q0 69 28 114t88 76l-166 154q34 87 131.5 141t222.5 54q154 0 235 -79t81 -234v-774h188v774q0 215 -126 342q-135 133 -378 133q-203 0 -364 -112q-73 -52 -123 -119t-67 -137l180 -153q-56 -29 -87 -85.5t-31 -121.5v-324q0 -88 50 -142.5t138 -54.5h168 v157h-117q-30 0 -40.5 14t-10.5 44z"/>
            <glyph unicode="&#xe17;" horiz-adv-x="1344"
                   d="M1181 0v786q0 214 -100 336q-105 127 -295 127q-130 0 -251 -63q-98 -51 -178 -138l-10 179h-178v-1227h188v837q62 107 171 174q123 76 250 76q100 0 157.5 -74t57.5 -227v-786h188z"/>
            <glyph unicode="&#xe18;" horiz-adv-x="1217"
                   d="M1109 341v106q0 252 -281 291l-427 62q-119 21 -119 124q0 76 83 123t242 47q228 0 407 -92l38 150q-185 97 -450 97q-234 0 -367.5 -89t-133.5 -236q0 -130 74 -201t206 -90l428 -58q59 -10 88.5 -39.5t29.5 -86.5v-108q0 -66 -16 -105t-53 -62q-61 -38 -249 -38 q-181 0 -245 45q-73 51 -73 181v138h-182v-138q0 -212 118 -299q111 -82 382 -82q273 0 383 73q117 79 117 287z"/>
            <glyph unicode="&#xe19;" horiz-adv-x="1327"
                   d="M165 1227v-790q0 -225 102 -341.5t302 -116.5q143 0 238.5 51.5t162.5 149.5l12 -180h177v1227h-189v-836q-47 -105 -146 -176q-104 -75 -211 -75q-137 0 -198.5 71.5t-61.5 227.5v788h-188z"/>
            <glyph unicode="&#xe1a;" horiz-adv-x="1322"
                   d="M661 140q-153 0 -230.5 82t-77.5 230v775h-188v-775q0 -229 127 -351t369 -122q243 0 370.5 122t127.5 351v775h-189v-775q0 -149 -77 -230.5t-232 -81.5z"/>
            <glyph unicode="&#xe1b;" horiz-adv-x="1322"
                   d="M661 140q-153 0 -230.5 82t-77.5 230v775h-188v-775q0 -229 127 -351t369 -122q243 0 370.5 122t127.5 351v1192h-189v-1192q0 -149 -77 -230.5t-232 -81.5z"/>
            <glyph unicode="&#xe1c;" horiz-adv-x="1445"
                   d="M653 883l-219 -408q-51 -94 -97 -262h-4q20 146 20 359v436q0 57 55 57h94v162h-145q-87 2 -137.5 -53t-50.5 -144v-1030h201l287 554q57 108 68 180h5q4 -27 23 -80t44 -100l279 -554h202v1227h-184v-655q0 -228 19 -359h-4q-48 167 -95 260l-212 410h-149z"/>
            <glyph unicode="&#xe1d;" horiz-adv-x="1445"
                   d="M653 883l-219 -408q-51 -94 -97 -262h-4q20 146 20 359v436q0 57 55 57h94v162h-145q-87 2 -137.5 -53t-50.5 -144v-1030h201l287 554q57 108 68 180h5q4 -27 23 -80t44 -100l279 -554h202v1644h-184v-1072q0 -228 19 -359h-4q-48 167 -95 260l-212 410h-149z"/>
            <glyph unicode="&#xe1e;" horiz-adv-x="1555"
                   d="M776 977h4q21 -180 75 -348l210 -629h208l204 1227h-191l-111 -696q-19 -126 -21 -155q-8 -81 -12 -179h-7q-36 222 -77 359l-199 610h-162l-199 -610q-43 -145 -77 -359h-7q-1 51 -5 101q-7 96 -16 151q-6 38 -12 82l-111 696h-191l203 -1227h209l210 629q54 171 75 348 z"/>
            <glyph unicode="&#xe1f;" horiz-adv-x="1555"
                   d="M776 977h4q4 -30 8 -58t11 -57.5t11 -48.5t14 -51t13 -43t15 -47t14 -43l221 -629h208l173 1644h-173l-114 -1113q-2 -21 -7 -83q-4 -50 -7 -75t-5 -80l-3 -96h-7q-34 214 -87 359l-206 610h-162l-199 -610q-43 -145 -77 -359h-7q-1 51 -5 101q-7 96 -16 151 q-6 38 -12 82l-111 696h-191l203 -1227h209l210 629q54 171 75 348z"/>
            <glyph unicode="&#xe20;" horiz-adv-x="1344"
                   d="M399 197v336q0 68 28 113.5t88 76.5l-189 169q36 88 132.5 141.5t220.5 53.5q152 0 233 -79t81 -234v-774h188v774q0 213 -126 342q-131 133 -376 133q-206 0 -364 -112q-72 -52 -121.5 -119t-66.5 -137l201 -168q-55 -29 -86 -85.5t-31 -121.5v-291q0 -30 -10.5 -44 t-40.5 -14h-95v-157h146q88 -2 138 53t50 144z"/>
            <glyph unicode="&#xe21;" horiz-adv-x="1327"
                   d="M975 1227v-767q0 -159 -62.5 -239.5t-197.5 -80.5q-107 0 -211 75t-147 176v836h-188v-1227h178l10 180q139 -201 379 -201q212 0 319.5 126t107.5 353v769h-188z"/>
            <glyph unicode="&#xe22;" horiz-adv-x="1270"
                   d="M918 1227v-767q0 -320 -324 -320q-131 0 -216 63q-93 69 -93 182q0 96 63.5 153.5t161.5 57.5h174l-15 163h-186q-80 0 -134 44q-67 55 -67 130q0 66 42 106t121 40q77 0 140 -34l22 158q-83 37 -193 37q-144 0 -228.5 -78.5t-84.5 -203.5q0 -119 57 -191.5t147 -95.5 q-95 -31 -149.5 -109.5t-54.5 -187.5q0 -189 127.5 -292t361.5 -103q265 0 397 132q119 118 119 347v769h-188z"/>
            <glyph unicode="&#xe23;" horiz-adv-x="1079"
                   d="M493 138q-192 0 -340 73l-46 -148q143 -84 395 -84q236 0 356.5 92.5t120.5 252.5q0 151 -111 245q-97 81 -318 152q-126 40 -188 78q-82 51 -82 123q0 73 80 120t215 47q177 0 310 -70l48 149q-157 81 -377 81q-213 0 -336.5 -86.5t-123.5 -240.5q0 -151 109 -239 q85 -70 278 -127q153 -47 213 -83q99 -62 99 -145q0 -78 -80 -134t-222 -56z"/>
            <glyph unicode="&#xe24;" horiz-adv-x="1327"
                   d="M355 215v333q0 69 28 114t88 76l-166 154q34 87 131.5 141t222.5 54q154 0 235 -79t81 -234v-1213h188v1213q0 215 -126 342q-135 133 -378 133q-203 0 -364 -112q-73 -52 -123 -119t-67 -137l180 -153q-56 -29 -87 -85.5t-31 -121.5v-324q0 -88 50 -142.5t138 -54.5h168 v157h-117q-30 0 -40.5 14t-10.5 44z"/>
            <glyph unicode="&#xe25;" horiz-adv-x="1261"
                   d="M1098 0v784q0 217 -125 341t-358 124q-153 0 -294 -48q-133 -45 -200 -105l61 -134q188 129 418 129q167 0 238.5 -78.5t71.5 -230.5v-28h-285q-270 0 -408 -107t-138 -302q0 -180 114 -276q107 -90 278 -90q133 0 239 38l-31 156q-80 -37 -188 -37q-100 0 -161.5 54 t-61.5 157q0 121 87.5 183t246.5 62h308v-592h188z"/>
            <glyph unicode="&#xe26;" horiz-adv-x="1344"
                   d="M399 197v336q0 68 28 113.5t88 76.5l-189 169q36 88 132.5 141.5t220.5 53.5q152 0 233 -79t81 -234v-1213h188v1213q0 213 -126 342q-131 133 -376 133q-206 0 -364 -112q-72 -52 -121.5 -119t-66.5 -137l201 -168q-55 -29 -86 -85.5t-31 -121.5v-291q0 -30 -10.5 -44 t-40.5 -14h-95v-157h146q88 -2 138 53t50 144z"/>
            <glyph unicode="&#xe27;" horiz-adv-x="1152"
                   d="M127 249l-46 -153q179 -117 404 -117q268 0 413 165t145 479q0 298 -138.5 462t-400.5 164q-232 0 -425 -124l44 -152q91 59 173 86.5t193 27.5q366 0 366 -482q0 -231 -97 -348t-269 -117q-180 0 -362 109z"/>
            <glyph unicode="&#xe28;" horiz-adv-x="1357"
                   d="M684 1249q-243 0 -384 -135q-135 -130 -135 -336v-778h188v303q27 97 90.5 147t152.5 50h147v164h-147q-88 0 -150 -41.5t-93 -109.5v267q0 142 85 224.5t246 82.5q158 0 243 -91q79 -87 79 -229v-767h188v765q0 100 -32.5 186t-98.5 140l186 222h-214l-106 -125 q-98 61 -245 61z"/>
            <glyph unicode="&#xe29;" horiz-adv-x="1353"
                   d="M661 140q-153 0 -230.5 82t-77.5 230v775h-188v-775q0 -229 127 -351t369 -122q243 0 370.5 122t127.5 351v192h143l43 163h-186v420h-189v-420h-286v-163h286v-192q0 -149 -77 -230.5t-232 -81.5z"/>
            <glyph unicode="&#xe2a;" horiz-adv-x="1261"
                   d="M1098 0v784q0 203 -107 320l172 209h-214l-94 -112q-108 48 -248 48q-133 0 -279 -47q-129 -42 -207 -106l61 -134q188 129 425 129q163 0 236 -85q67 -80 67 -224v-28h-285q-270 0 -408 -107t-138 -302q0 -180 114 -276q107 -90 278 -90q133 0 239 38l-31 156 q-80 -37 -188 -37q-100 0 -161.5 54t-61.5 157q0 121 87.5 183t246.5 62h308v-592h188z"/>
            <glyph unicode="&#xe2b;" horiz-adv-x="1284"
                   d="M1219 0l-169 572q-42 132 -107.5 208t-177.5 92l429 355h-253l-584 -482v482h-188v-1227h188v537l274 226q162 -4 224 -207l161 -556h203z"/>
            <glyph unicode="&#xe2c;" horiz-adv-x="1445"
                   d="M1094 918v-346q0 -211 19 -359h-4q-50 176 -97 262l-219 408h-149l-213 -410q-52 -105 -94 -260h-4q20 123 20 359v655h-184v-1227h201l278 554q58 110 69 180h4q4 -27 23.5 -79.5t44.5 -100.5l287 -554h202v920q0 124 -57 213q-63 98 -178 109l293 402h-192l-285 -415 l26 -79h27q105 0 143.5 -53t38.5 -179z"/>
            <glyph unicode="&#xe2d;" horiz-adv-x="1296"
                   d="M531 703h-198q-106 0 -165 -54t-59 -164v-67q0 -214 130.5 -326.5t391.5 -112.5q271 0 414 161t143 471q0 300 -145.5 469t-417.5 169q-155 0 -298 -52q-132 -48 -214 -114l62 -140q192 144 450 144q178 0 276 -121t98 -345q0 -481 -372 -481q-168 0 -248 67.5t-80 210.5 v59q0 30 15.5 47t40.5 17h176v162z"/>
            <glyph unicode="&#xe2e;" horiz-adv-x="1296"
                   d="M531 703h-198q-106 0 -165 -54t-59 -164v-67q0 -214 130.5 -326.5t391.5 -112.5q271 0 414 161t143 471q0 313 -167 480l188 222h-214l-106 -123q-116 59 -264 59q-155 0 -298 -52q-132 -48 -214 -114l62 -140q192 144 450 144q164 0 268 -123q106 -125 106 -343 q0 -481 -372 -481q-168 0 -248 67.5t-80 210.5v59q0 30 15.5 47t40.5 17h176v162z"/>
            <glyph unicode="&#xe2f;" horiz-adv-x="1202"
                   d="M1035 1227h-180v-33q0 -59 -31 -119.5t-84 -109.5q-116 -106 -242 -106q-117 0 -171.5 71.5t-54.5 215.5v81h-184v-79q0 -206 83 -314q95 -124 285 -124q132 0 236 56q112 60 154 150v-916h189v1227z"/>
            <glyph unicode="&#xe30;" horiz-adv-x="656" d="M548 947h-230q-42 0 -42 42v90h-180v-109q0 -177 197 -177h255v154zM548 341h-230q-42 0 -42 42v90h-180v-107q0 -178 197 -178h255v153z"/>
            <glyph unicode="&#xe31;" d="M129 1547h-516q-62 0 -62 65v67h-180v-88q0 -197 221 -197h537v153z"/>
            <glyph unicode="&#xe32;" horiz-adv-x="1037"
                   d="M874 0v782q0 226 -109 346.5t-322 120.5q-117 0 -238 -45q-112 -42 -184 -104l52 -142q69 56 161 92.5t191 36.5q261 -1 261 -296v-791h188z"/>
            <glyph unicode="&#xe33;" horiz-adv-x="1037"
                   d="M-263 1363q92 0 155 63q64 64 64 157q0 88 -64 154q-64 64 -155 64q-90 0 -154 -64q-63 -63 -63 -154q0 -96 63 -157q63 -63 154 -63zM-263 1488q-38 0 -65 28.5t-27 68.5q0 41 26.5 67.5t65.5 26.5q42 0 68 -26.5t26 -67.5t-26.5 -69t-67.5 -28zM874 0v782 q0 226 -109 346.5t-322 120.5q-117 0 -238 -45q-112 -42 -184 -104l52 -142q69 56 161 92.5t191 36.5q261 -1 261 -296v-791h188z"/>
            <glyph unicode="&#xe34;" d="M-165 1547h-939v-153h939v153z"/>
            <glyph unicode="&#xe35;" d="M-165 1748h-176v-201h-763v-153h939v354z"/>
            <glyph unicode="&#xe36;"
                   d="M-1104 1394h803q81 4 134.5 59t53.5 136q0 83 -56.5 139t-139.5 56q-82 0 -137.5 -56t-55.5 -139q0 -22 4 -42h-606v-153zM-309 1512q-30 0 -52 24t-22 55q0 33 21.5 55t52.5 22q33 0 55 -22t22 -55q0 -31 -22.5 -55t-54.5 -24z"/>
            <glyph unicode="&#xe37;" d="M-165 1748h-155v-205h-117v205h-155v-201h-512v-153h939v354z"/>
            <glyph unicode="&#xe38;" d="M-165 -572v235q0 99 -40 142.5t-132 43.5h-143v-158h85q46 0 46 -46v-217h184z"/>
            <glyph unicode="&#xe39;" d="M-449 -596q139 0 211.5 59t72.5 171v215h-180v-215q0 -48 -29 -71t-75 -23q-47 0 -76 23t-29 71v215h-297v-154h121v-61q0 -112 70.5 -171t210.5 -59z"/>
            <glyph unicode="&#xe3a;" d="M-127 -274q0 57 -42.5 98.5t-102.5 41.5q-57 0 -99.5 -41.5t-42.5 -98.5q0 -56 42.5 -97t99.5 -41q61 0 103 40.5t42 97.5z"/>
            <glyph unicode="&#xe3f;" horiz-adv-x="1252"
                   d="M719 -219v221q228 12 346 123t118 291q0 146 -90 236q-76 76 -192 97q88 37 145 98q76 83 76 196q0 163 -103 263.5t-300 115.5v222h-123v-220h-433v-1424h433v-219h123zM341 1260h255v-443h-255v443zM943 1052q0 -100 -62 -158t-162 -72v434q106 -12 165 -63t59 -141z M341 655h255v-490h-255v490zM1004 416q0 -110 -74.5 -174t-210.5 -75v486q143 -12 206 -61q79 -62 79 -176z"/>
            <glyph unicode="&#xe40;" horiz-adv-x="529" d="M360 1227h-189v-1227h189v1227z"/>
            <glyph unicode="&#xe41;" horiz-adv-x="954" d="M355 1227h-184v-1227h184v1227zM784 1227h-184v-1227h184v1227z"/>
            <glyph unicode="&#xe42;" horiz-adv-x="600"
                   d="M416 0v1330q0 155 -58.5 279.5t-164.5 182.5q38 49 123 74t194 25q200 0 316 -66l29 167q-148 59 -362 59q-174 0 -305 -62q-138 -65 -209 -188l4 -39q24 -9 63.5 -38.5t76.5 -74.5q105 -127 105 -301v-1348h188z"/>
            <glyph unicode="&#xe43;" horiz-adv-x="600"
                   d="M416 0v1135q0 58 22.5 118t47.5 98t68 94q35 46 51.5 69t40.5 63.5t34 76.5t10 75q0 139 -92 228q-97 94 -270 94q-119 0 -238 -53q-110 -48 -171 -131l60 -131q73 74 162 112t175 38q177 0 177 -157q0 -13 -2 -26t-5 -24t-9.5 -25t-10.5 -23.5t-14.5 -25t-15.5 -23 t-18 -25t-17.5 -23.5t-20 -25t-19.5 -25q-63 -81 -98 -150.5t-35 -152.5v-1181h188z"/>
            <glyph unicode="&#xe44;" horiz-adv-x="600" d="M416 0v1503q0 282 222 383v132h-782v-155h541q-169 -153 -169 -401v-1462h188z"/>
            <glyph unicode="&#xe45;" horiz-adv-x="1037"
                   d="M874 -439v1221q0 226 -109 346.5t-322 120.5q-117 0 -238 -45q-112 -42 -184 -104l52 -142q69 56 161 92.5t191 36.5q261 -1 261 -296v-1230h188z"/>
            <glyph unicode="&#xe46;" horiz-adv-x="1224"
                   d="M1060 -439v1338q0 145 -72 241q-81 106 -223 113l-178 -133l-175 133q-132 -25 -210 -92q-93 -80 -93 -203q0 -142 85 -216q76 -67 189 -67q59 0 104 15l-23 142q-24 -8 -58 -8q-65 0 -101.5 35.5t-36.5 98.5q0 110 135 142l184 -130l180 130q105 -20 105 -188v-1351h188 z"/>
            <glyph unicode="&#xe47;"
                   d="M-241 1547h-144q-91 0 -108 65h-105q-7 -32 -35 -59.5t-64 -27.5q-46 0 -71 25.5t-25 66.5q0 43 26 72t81 29h443v149h-449q-140 0 -210 -77q-66 -70 -66 -171q0 -92 64 -161q65 -73 176 -73q76 0 123.5 32t63.5 82q22 -47 65.5 -76t98.5 -29h136v153z"/>
            <glyph unicode="&#xe48;" d="M-165 2150h-176v-294h176v294z"/>
            <glyph unicode="&#xe49;" d="M40 2007h-297q-30 0 -30 31v48q0 103 -123 103h-177v-153h112q18 0 23 -8t5 -27v-57q0 -38 26.5 -63t65.5 -25h395v151z"/>
            <glyph unicode="&#xe4a;"
                   d="M-291 1856h88q115 0 196 81q74 76 74 193q-5 54 -17 86h-175q22 -40 22 -97q0 -73 -13.5 -105.5t-56.5 -52.5q17 191 -174 197l-102 -103l-112 101q-93 -9 -145.5 -64.5t-52.5 -125.5q0 -62 19 -114h165q-23 49 -23 94q0 25 14 41t38 16l97 -71l96 77q26 -1 46 -17 q18 -15 17.5 -47.5t-19.5 -51.5z"/>
            <glyph unicode="&#xe4b;" d="M-19 2116l-156 -4l4 136h-164l7 -136l-157 4v-131l157 5l-7 -134h164l-4 134l156 -5v131z"/>
            <glyph unicode="&#xe4c;" d="M-42 1942h-197q-110 0 -166.5 -54t-56.5 -150v-70h197v46q0 40 20 57t61 17h142v154z"/>
            <glyph unicode="&#xe4d;"
                   d="M-263 1363q92 0 155 63q64 64 64 157q0 88 -64 154q-64 64 -155 64q-90 0 -154 -64q-63 -63 -63 -154q0 -96 63 -157q63 -63 154 -63zM-263 1488q-38 0 -65 28.5t-27 68.5q0 41 26.5 67.5t65.5 26.5q42 0 68 -26.5t26 -67.5t-26.5 -69t-67.5 -28z"/>
            <glyph unicode="&#xe4e;"
                   d="M-314 1422v110q-46 -18 -109 -18q-94 1 -94 64q0 29 20.5 44t54.5 16t68.5 -4t70.5 -15l35 92q-54 27 -54 62q0 18 10 29t27 11h132l-31 122h-132q-77 0 -116 -29t-39 -76q0 -44 26 -75q-114 11 -172 -39t-58 -138q0 -93 71 -144q62 -45 159 -45q78 0 131 33z"/>
            <glyph unicode="&#xe4f;" horiz-adv-x="1196"
                   d="M598 57q94 0 180.5 37t151.5 102q64 64 99.5 149.5t35.5 180.5q0 194 -135 331q-65 64 -151 100t-181 36q-94 0 -180 -36t-151 -100q-135 -135 -135 -331q0 -96 35.5 -181t99.5 -149q65 -65 151 -102t180 -37zM598 132q-80 0 -152.5 30t-126.5 85q-116 116 -116 279 t116 279q54 55 126.5 85t152.5 30q165 0 280 -115q115 -117 115 -279t-115 -279q-115 -115 -280 -115zM598 257q110 0 190 78t80 191q0 112 -79 191q-78 78 -193 78q-112 0 -189 -77q-81 -79 -81 -195q0 -113 80 -188q81 -78 192 -78zM598 368q-65 0 -111 46t-46 109 q0 64 46 110t109 46q65 0 110 -44.5t45 -108.5q0 -68 -44.5 -113t-108.5 -45z"/>
            <glyph unicode="&#xe50;" horiz-adv-x="1397"
                   d="M701 1081q-254 0 -420 -146q-176 -155 -176 -404q0 -252 176 -405q165 -145 416 -145q256 0 421 145q175 155 175 405q0 247 -175 404q-166 146 -417 146zM699 138q-178 0 -290 103q-122 110 -122 290q0 177 122 289q113 102 290 102q176 0 290 -102q122 -111 122 -289 q0 -181 -122 -290q-114 -103 -290 -103z"/>
            <glyph unicode="&#xe51;" horiz-adv-x="1403"
                   d="M572 -247h76q134 0 252.5 49t207.5 139q191 194 191 493q0 292 -165 469q-166 178 -450 178q-264 0 -425 -150q-163 -153 -163 -383q0 -224 137 -354q126 -121 323 -121q109 0 198 46l-6 73q-4 39 -5 76q-97 -38 -187 -38q-126 0 -206 83.5t-80 232.5q0 165 114 270 q117 106 295 106q202 0 321 -133q117 -133 117 -360q0 -246 -146 -392q-65 -65 -146 -99t-164 -34h-71z"/>
            <glyph unicode="&#xe52;" horiz-adv-x="1638"
                   d="M1486 425v257q0 182 -81 282t-257 117l-166 -161l-182 161q-134 -22 -213 -111.5t-79 -233.5q0 -133 77.5 -219.5t214.5 -110.5l49 138q-77 23 -125.5 73t-48.5 123q0 61 32 112t86 62l189 -143l175 139q78 -9 112.5 -61.5t34.5 -160.5v-263q0 -133 -66.5 -200.5 t-179.5 -67.5h-471q-114 0 -180 67t-66 201v802h-181v-802q0 -192 106 -306q111 -119 311 -119h492q199 0 310 119q107 115 107 306z"/>
            <glyph unicode="&#xe53;" horiz-adv-x="1447"
                   d="M815 395v318q0 103 37.5 156t124.5 53q83 0 113 -61q23 -46 23 -133v-728h182v725q0 162 -75 256q-83 100 -233 100q-180 0 -253 -157q-62 157 -247 157q-177 0 -274 -155q-90 -143 -90 -397q0 -243 101 -392q100 -150 278 -150q84 0 146 42l-35 124q-49 -19 -105 -19 q-95 0 -149 104t-54 293q0 190 43 281q52 110 158 110q78 0 111.5 -53t33.5 -156v-318h164z"/>
            <glyph unicode="&#xe54;" horiz-adv-x="1338"
                   d="M1278 153h-112q-130 0 -195.5 52t-65.5 148q0 68 40 108.5t98 40.5h77l35 153h-153q-113 0 -190 -72q-82 -77 -82 -204q0 -102 52 -178q-73 -67 -188 -67q-133 0 -217 106q-90 109 -90 289q0 190 115 285q104 87 297 87h254q170 0 256 77t86 223v26h-182v-26 q0 -71 -36 -102q-48 -41 -157 -41h-223q-263 0 -421 -134q-171 -145 -171 -401q0 -244 127 -397q122 -147 320 -147q114 0 181 30t113 87q54 -55 119.5 -75.5t176.5 -20.5h102z"/>
            <glyph unicode="&#xe55;" horiz-adv-x="1338"
                   d="M1278 153h-112q-130 0 -195.5 52t-65.5 148q0 68 40 108.5t98 40.5h77l35 153h-153q-113 0 -190 -72q-82 -77 -82 -204q0 -102 52 -178q-73 -67 -188 -67q-133 0 -217 106q-90 109 -90 289q0 190 115 285q104 87 297 87h254q170 0 256 77t86 223v26h-182v-26 q0 -71 -36 -102q-48 -41 -157 -41h-96q6 22 6 53q0 88 -60 148t-145 60q-86 0 -146 -60q-61 -61 -61 -148q0 -51 23 -95q-158 -56 -247 -181t-89 -312q0 -244 127 -397q122 -147 320 -147q114 0 181 30t113 87q54 -55 119.5 -75.5t176.5 -20.5h102zM625 1030q-33 0 -57 25 t-24 58q0 36 23.5 59.5t57.5 23.5t57 -23.5t23 -59.5q0 -33 -23 -58t-57 -25z"/>
            <glyph unicode="&#xe56;" horiz-adv-x="1351"
                   d="M374 502l-135 98q-37 -40 -63.5 -99.5t-26.5 -121.5q0 -179 138 -289q140 -111 368 -111q293 0 452 169q140 149 140 389q0 238 -153 393q-153 151 -384 151q-125 0 -230.5 -47t-161.5 -127l-111 342h-186l176 -502h142q63 88 146.5 134t211.5 46q163 0 266 -108 q102 -108 102 -275q0 -187 -102 -295q-107 -113 -310 -113q-151 0 -243 71q-86 66 -86 157q0 35 13.5 74.5t36.5 63.5z"/>
            <glyph unicode="&#xe57;" horiz-adv-x="1763"
                   d="M769 657v121q0 65 31 104.5t87 39.5q76 0 103 -61q18 -43 18 -133v-728h228q180 0 276 112q92 107 92 283v832h-182v-861q0 -106 -50 -167t-134 -61h-52v587q0 158 -66 256q-70 100 -185 100q-173 0 -245 -148q-19 70 -66 109t-137 39q-173 0 -270 -155 q-94 -149 -94 -397q0 -243 101 -392q100 -150 278 -150q90 0 146 42l-35 124q-44 -19 -105 -19q-88 0 -145.5 106t-57.5 291q0 189 42 281q50 110 155 110q56 0 81.5 -39.5t25.5 -104.5v-121h160z"/>
            <glyph unicode="&#xe58;" horiz-adv-x="1395"
                   d="M644 901h285q170 0 256 77t86 223v26h-182v-26q0 -71 -35 -102q-48 -41 -157 -41h-266q-220 0 -352 -130q-130 -128 -130 -315v-268q0 -167 105.5 -258t282.5 -96l203 216l233 -216q131 6 236 111q108 108 108 260q0 129 -85 234q-86 103 -213 117l-57 -136 q80 -12 132 -69t52 -142q0 -77 -37 -133t-107 -76l-262 236l-245 -238q-69 0 -116.5 58t-47.5 136v251q0 136 81 218.5t232 82.5z"/>
            <glyph unicode="&#xe59;" horiz-adv-x="1369"
                   d="M1142 0l-268 784q0 60 33 104.5t88 44.5q90 0 140 -144h130l83 438h-165l-46 -263q-54 117 -186 117q-72 0 -119 -42.5t-41 -124.5q-45 78 -104 119q-70 48 -192 48q-84 0 -157.5 -40.5t-128.5 -114.5q-117 -158 -117 -397q0 -259 118 -408q111 -140 283 -140 q92 0 178 61l-35 125q-61 -40 -136 -40q-94 0 -156 108q-70 123 -70 296q0 171 63 280q62 109 169 109q81 0 123 -44.5t76 -145.5l257 -730h180z"/>
            <glyph unicode="&#xe5a;" horiz-adv-x="1629"
                   d="M1035 0v715q179 75 238 201v-916h189v1227h-180v-33q0 -94 -74 -192q-72 -95 -173 -141v366h-180v-33q0 -59 -31 -119.5t-84 -109.5q-116 -106 -242 -106q-117 0 -171.5 71.5t-54.5 215.5v81h-184v-79q0 -206 83 -314q95 -124 285 -124q132 0 236 56q112 60 154 150v-916 h189z"/>
            <glyph unicode="&#xe5b;" horiz-adv-x="2499"
                   d="M2457 412l-44 114q-63 -22 -127 -22q-105 0 -170.5 95t-86.5 267h-83l-108 -345l-138 393h-96l-121 -414l-159 460h-99q-6 -119 -41 -242t-97 -221q-154 -242 -412 -242q-165 0 -273 105q-113 108 -113 273q0 143 79 240q91 111 228 111q110 0 181.5 -77.5t79.5 -198.5 h149q-5 165 -116 289q-117 130 -290 130q-210 0 -341 -141q-127 -136 -127 -353q0 -111 40 -209t113 -168q156 -151 390 -151q225 0 400 148q165 139 229 362l136 -387h85l133 433l146 -393h82l95 311q86 -200 283 -200q84 0 193 33z"/>
            <glyph unicode="&#x1e00;" horiz-adv-x="1313"
                   d="M546 1477l-491 -1477h194l150 462h511l153 -462h202l-491 1477h-228zM579 1035l72 271h4q33 -135 75 -273l142 -422h-435zM870 -318q0 88 -61.5 149.5t-149.5 61.5q-87 0 -146 -61q-61 -63 -61 -150q0 -86 61 -147t146 -61q87 0 150 61q61 59 61 147zM771 -318 q0 -44 -33 -76.5t-79 -32.5q-44 0 -76.5 32.5t-32.5 76.5q0 46 32.5 78.5t76.5 32.5q46 0 79 -32.5t33 -78.5z"/>
            <glyph unicode="&#x1e01;" horiz-adv-x="1037"
                   d="M734 0h173q-18 102 -18 253v400q1 430 -394 430q-201 0 -344 -90l44 -127q34 22 77 40t91 28.5t96 11.5t91.5 -13t77 -41.5t53.5 -77t20 -117.5v-22q-302 2 -463 -100t-161 -295q-1 -130 85.5 -215.5t232.5 -85.5q211 0 318 153h4zM703 541v-186q0 -35 -9 -62 q-23 -73 -90 -123.5t-159 -50.5q-80 0 -128.5 47.5t-48.5 136.5q-1 124 108 183.5t327 54.5zM701 -339q0 88 -61 149t-149 61q-85 0 -147 -62t-62 -148q0 -83 62 -147q60 -62 147 -62q85 0 149 62q61 59 61 147zM602 -339q0 -45 -33 -77.5t-78 -32.5q-44 0 -77 33t-33 77 q0 45 32.5 78t77.5 33q46 0 78.5 -32.5t32.5 -78.5z"/>
            <glyph unicode="&#x1e02;" horiz-adv-x="1169"
                   d="M611 1707q0 46 -29.5 78t-73.5 32q-46 0 -77.5 -32t-31.5 -78q0 -45 31 -77t76 -32t75 31.5t30 77.5zM1083 421q0 143 -87 241t-218 129v6q117 39 183.5 126.5t66.5 196.5q0 164 -123 260q-133 108 -399 108q-198 0 -341 -31v-1453q125 -15 291 -15q354 0 502 136 q125 119 125 296zM835 1102q0 -112 -85 -180.5t-229 -68.5h-168v475q53 15 164 15q318 0 318 -241zM883 423q0 -144 -101 -215.5t-274 -71.5q-109 0 -155 8v566h153q171 -1 274 -75t103 -212z"/>
            <glyph unicode="&#x1e03;" horiz-adv-x="1221"
                   d="M633 1773q0 46 -29 77.5t-73 31.5q-46 0 -78 -31.5t-32 -77.5q0 -45 31.5 -77.5t76.5 -32.5t74.5 32t29.5 78zM1140 544q0 239 -123 389t-314 150q-245 0 -352 -191h-4v662h-190v-1282q0 -138 -8 -272h165l8 171h6q112 -192 345 -192q192 0 320 140q147 155 147 425z M949 537q0 -185 -84 -296.5t-229 -111.5q-121 0 -207 86q-82 86 -82 206v197q0 23 10 81q28 105 105.5 168.5t177.5 63.5q141 1 225 -110t84 -284z"/>
            <glyph unicode="&#x1e04;" horiz-adv-x="1169"
                   d="M1083 421q0 143 -87 241t-218 129v6q117 39 183.5 126.5t66.5 196.5q0 164 -123 260q-133 108 -399 108q-198 0 -341 -31v-1453q125 -15 291 -15q354 0 502 136q125 119 125 296zM835 1102q0 -112 -85 -180.5t-229 -68.5h-168v475q53 15 164 15q318 0 318 -241zM883 423 q0 -144 -101 -215.5t-274 -71.5q-109 0 -155 8v566h153q171 -1 274 -75t103 -212zM559 -228q0 46 -29.5 77.5t-73.5 31.5q-46 0 -77.5 -31.5t-31.5 -77.5q0 -45 31 -77t76 -32t75 31.5t30 77.5z"/>
            <glyph unicode="&#x1e05;" horiz-adv-x="1221"
                   d="M1140 544q0 239 -123 389t-314 150q-245 0 -352 -191h-4v662h-190v-1282q0 -138 -8 -272h165l8 171h6q112 -192 345 -192q192 0 320 140q147 155 147 425zM949 537q0 -185 -84 -296.5t-229 -111.5q-121 0 -207 86q-82 86 -82 206v197q0 23 10 81q28 105 105.5 168.5 t177.5 63.5q141 1 225 -110t84 -284zM736 -239q0 46 -29.5 78t-73.5 32q-46 0 -78 -32t-32 -78q0 -44 31.5 -77t76.5 -33t75 32t30 78z"/>
            <glyph unicode="&#x1e06;" horiz-adv-x="1169"
                   d="M1083 421q0 143 -87 241t-218 129v6q117 39 183.5 126.5t66.5 196.5q0 164 -123 260q-133 108 -399 108q-198 0 -341 -31v-1453q125 -15 291 -15q354 0 502 136q125 119 125 296zM835 1102q0 -112 -85 -180.5t-229 -68.5h-168v475q53 15 164 15q318 0 318 -241zM883 423 q0 -144 -101 -215.5t-274 -71.5q-109 0 -155 8v566h153q171 -1 274 -75t103 -212zM224 -119v-115h489v115h-489z"/>
            <glyph unicode="&#x1e07;" horiz-adv-x="1221"
                   d="M1140 544q0 239 -123 389t-314 150q-245 0 -352 -191h-4v662h-190v-1282q0 -138 -8 -272h165l8 171h6q112 -192 345 -192q192 0 320 140q147 155 147 425zM949 537q0 -185 -84 -296.5t-229 -111.5q-121 0 -207 86q-82 86 -82 206v197q0 23 10 81q28 105 105.5 168.5 t177.5 63.5q141 1 225 -110t84 -284zM401 -129v-116h488v116h-488z"/>
            <glyph unicode="&#x1e08;" horiz-adv-x="1255"
                   d="M708 1608h133l265 314h-207zM1127 1282l46 153q-122 64 -341 64q-334 0 -545 -213q-101 -104 -154 -251t-54.5 -295t42 -291t126.5 -242q159 -186 430 -218l-92 -164q169 -18 169 -93q0 -42 -37 -58t-84.5 -8.5t-86.5 29.5l-33 -94q65 -38 151 -38q223 0 223 174 q0 61 -43 104t-108 52l55 88q244 1 382 65l-40 151q-124 -59 -303 -59q-258 0 -403 159q-149 160 -149 435q1 289 156 451q146 158 405 158q164 0 288 -59z"/>
            <glyph unicode="&#x1e09;" horiz-adv-x="959"
                   d="M502 1192h134l265 313h-209zM859 881l42 147q-54 29 -133.5 43.5t-172 11t-190 -43.5t-169.5 -115q-98 -98 -134 -243.5t-8.5 -285.5t105.5 -240q117 -142 311 -168l-92 -162q168 -18 172 -93q0 -43 -38.5 -59.5t-87.5 -8.5t-85 31l-32 -94q64 -38 146 -38q228 0 228 178 q0 58 -44.5 100.5t-109.5 51.5l56 88q158 1 278 56l-35 145q-120 -50 -228 -50q-161 0 -261 108q-101 106 -101 289q0 176 94 282q99 120 272 120q120 0 217 -50z"/>
            <glyph unicode="&#x1e0a;" horiz-adv-x="1426"
                   d="M655 1707q0 46 -29.5 78t-73.5 32q-46 0 -77.5 -32t-31.5 -78q0 -45 31 -77t76 -32t75 31.5t30 77.5zM1348 774q0 341 -208 537q-196 177 -584 177q-197 0 -391 -31v-1453q125 -15 335 -15q420 0 634 205t214 580zM1148 767q0 -306 -156 -466.5t-455 -160.5 q-138 0 -184 9v1170q86 17 214 17q291 0 439 -150q142 -148 142 -419z"/>
            <glyph unicode="&#x1e0b;" horiz-adv-x="1211"
                   d="M780 1773q0 46 -29.5 77.5t-73.5 31.5q-46 0 -78 -31.5t-32 -77.5q0 -45 31.5 -77.5t76.5 -32.5t75 32t30 78zM892 0h171q-9 108 -9 272v1282h-191v-630h-4q-58 103 -177 140.5t-247 1.5t-214 -133q-138 -162 -138 -418q0 -238 126.5 -387t319.5 -149q247 0 349 201h5z M863 631v-190q0 -124 -77 -215q-54 -64 -135 -87.5t-163.5 4t-134.5 104.5q-79 107 -79 279q0 175 83 291q86 116 228 116q103 0 176.5 -62t95.5 -158q6 -35 6 -82z"/>
            <glyph unicode="&#x1e0c;" horiz-adv-x="1426"
                   d="M1348 774q0 341 -208 537q-196 177 -584 177q-197 0 -391 -31v-1453q125 -15 335 -15q420 0 634 205t214 580zM1148 767q0 -306 -156 -466.5t-455 -160.5q-138 0 -184 9v1170q86 17 214 17q291 0 439 -150q142 -148 142 -419zM623 -228q0 46 -30 77.5t-74 31.5 q-46 0 -77.5 -31.5t-31.5 -77.5q0 -45 31 -77t76 -32t75.5 31.5t30.5 77.5z"/>
            <glyph unicode="&#x1e0d;" horiz-adv-x="1211"
                   d="M892 0h171q-9 108 -9 272v1282h-191v-630h-4q-58 103 -177 140.5t-247 1.5t-214 -133q-138 -162 -138 -418q0 -238 126.5 -387t319.5 -149q247 0 349 201h5zM863 631v-190q0 -124 -77 -215q-54 -64 -135 -87.5t-163.5 4t-134.5 104.5q-79 107 -79 279q0 175 83 291 q86 116 228 116q103 0 176.5 -62t95.5 -158q6 -35 6 -82zM679 -239q0 46 -29 78t-73 32q-46 0 -78 -32t-32 -78q0 -44 31.5 -77t76.5 -33t74.5 32t29.5 78z"/>
            <glyph unicode="&#x1e0e;" horiz-adv-x="1426"
                   d="M1348 774q0 341 -208 537q-196 177 -584 177q-197 0 -391 -31v-1453q125 -15 335 -15q420 0 634 205t214 580zM1148 767q0 -306 -156 -466.5t-455 -160.5q-138 0 -184 9v1170q86 17 214 17q291 0 439 -150q142 -148 142 -419zM299 -119v-115h487v115h-487z"/>
            <glyph unicode="&#x1e0f;" horiz-adv-x="1211"
                   d="M892 0h171q-9 108 -9 272v1282h-191v-630h-4q-58 103 -177 140.5t-247 1.5t-214 -133q-138 -162 -138 -418q0 -238 126.5 -387t319.5 -149q247 0 349 201h5zM863 631v-190q0 -124 -77 -215q-54 -64 -135 -87.5t-163.5 4t-134.5 104.5q-79 107 -79 279q0 175 83 291 q86 116 228 116q103 0 176.5 -62t95.5 -158q6 -35 6 -82zM328 -129v-116h489v116h-489z"/>
            <glyph unicode="&#x1e10;" horiz-adv-x="1426"
                   d="M1348 774q0 341 -208 537q-196 177 -584 177q-197 0 -391 -31v-1453q125 -15 335 -15q420 0 634 205t214 580zM1148 767q0 -306 -156 -466.5t-455 -160.5q-138 0 -184 9v1170q86 17 214 17q291 0 439 -150q142 -148 142 -419zM642 -489l81 -63q47 30 85 83q62 83 62 189 q0 52 -23.5 96.5t-55.5 62.5l-138 -30q31 -25 50.5 -63.5t19.5 -78.5q0 -104 -81 -196z"/>
            <glyph unicode="&#x1e11;" horiz-adv-x="1211"
                   d="M892 0h171q-9 108 -9 272v1282h-191v-630h-4q-58 103 -177 140.5t-247 1.5t-214 -133q-138 -162 -138 -418q0 -238 126.5 -387t319.5 -149q247 0 349 201h5zM863 631v-190q0 -124 -77 -215q-54 -64 -135 -87.5t-163.5 4t-134.5 104.5q-79 107 -79 279q0 175 83 291 q86 116 228 116q103 0 176.5 -62t95.5 -158q6 -35 6 -82zM458 -500l81 -63q51 36 85 83q62 85 62 189q0 52 -23.5 96.5t-55.5 62.5l-138 -31q30 -24 50 -62.5t20 -79.5q0 -103 -81 -195z"/>
            <glyph unicode="&#x1e12;" horiz-adv-x="1426"
                   d="M1348 774q0 341 -208 537q-196 177 -584 177q-197 0 -391 -31v-1453q125 -15 335 -15q420 0 634 205t214 580zM1148 767q0 -306 -156 -466.5t-455 -160.5q-138 0 -184 9v1170q86 17 214 17q291 0 439 -150q142 -148 142 -419zM425 -119l-201 -312h138l125 205h4l124 -205 h144l-207 312h-127z"/>
            <glyph unicode="&#x1e13;" horiz-adv-x="1211"
                   d="M892 0h171q-9 108 -9 272v1282h-191v-630h-4q-58 103 -177 140.5t-247 1.5t-214 -133q-138 -162 -138 -418q0 -238 126.5 -387t319.5 -149q247 0 349 201h5zM863 631v-190q0 -124 -77 -215q-54 -64 -135 -87.5t-163.5 4t-134.5 104.5q-79 107 -79 279q0 175 83 291 q86 116 228 116q103 0 176.5 -62t95.5 -158q6 -35 6 -82zM506 -129l-201 -314h138l124 207h5l125 -207h142l-206 314h-127z"/>
            <glyph unicode="&#x1e14;" horiz-adv-x="1056" d="M285 2126l265 -313h136l-191 313h-210zM328 1702v-115h489v115h-489zM353 157v535h561v159h-561v468h594v158h-782v-1477h814v157h-626z"/>
            <glyph unicode="&#x1e15;" horiz-adv-x="1077"
                   d="M255 1733l264 -313h136l-191 313h-209zM299 1313v-117h487v117h-487zM999 592q0 96 -25 182t-75 157t-134 112.5t-193 41.5q-221 0 -357 -163q-132 -162 -132 -407t137 -388q138 -144 374 -144q202 0 347 63l-34 136q-130 -53 -284 -53q-162 0 -258.5 94t-99.5 275h728 q6 34 6 94zM815 636h-547q17 131 91 221t197 90q133 -1 197 -90t62 -221z"/>
            <glyph unicode="&#x1e16;" horiz-adv-x="1056" d="M464 1813h134l265 313h-208zM328 1702v-115h489v115h-489zM353 157v535h561v159h-561v468h594v158h-782v-1477h814v157h-626z"/>
            <glyph unicode="&#x1e17;" horiz-adv-x="1077"
                   d="M449 1420h134l266 313h-209zM299 1313v-117h487v117h-487zM999 592q0 96 -25 182t-75 157t-134 112.5t-193 41.5q-221 0 -357 -163q-132 -162 -132 -407t137 -388q138 -144 374 -144q202 0 347 63l-34 136q-130 -53 -284 -53q-162 0 -258.5 94t-99.5 275h728q6 34 6 94z M815 636h-547q17 131 91 221t197 90q133 -1 197 -90t62 -221z"/>
            <glyph unicode="&#x1e18;" horiz-adv-x="1056" d="M353 157v535h561v159h-561v468h594v158h-782v-1477h814v157h-626zM506 -107l-201 -314h138l124 206h5l125 -206h142l-206 314h-127z"/>
            <glyph unicode="&#x1e19;" horiz-adv-x="1077"
                   d="M999 592q0 96 -25 182t-75 157t-134 112.5t-193 41.5q-221 0 -357 -163q-132 -162 -132 -407t137 -388q138 -144 374 -144q202 0 347 63l-34 136q-130 -53 -284 -53q-162 0 -258.5 94t-99.5 275h728q6 34 6 94zM815 636h-547q17 131 91 221t197 90q133 -1 197 -90 t62 -221zM526 -125l-202 -314h138l125 207h5l125 -207h142l-206 314h-127z"/>
            <glyph unicode="&#x1e1a;" horiz-adv-x="1056"
                   d="M353 157v535h561v159h-561v468h594v158h-782v-1477h814v157h-626zM837 -107h-94q-3 -36 -11.5 -57.5t-19.5 -30t-32 -5t-40.5 11.5t-52.5 25q-88 50 -138 50q-68 0 -105 -59t-37 -156h99q6 96 56 96q26 0 97 -38q80 -46 133 -46q145 0 145 199v10z"/>
            <glyph unicode="&#x1e1b;" horiz-adv-x="1077"
                   d="M999 592q0 96 -25 182t-75 157t-134 112.5t-193 41.5q-221 0 -357 -163q-132 -162 -132 -407t137 -388q138 -144 374 -144q202 0 347 63l-34 136q-130 -53 -284 -53q-162 0 -258.5 94t-99.5 275h728q6 34 6 94zM815 636h-547q17 131 91 221t197 90q133 -1 197 -90 t62 -221zM859 -125h-94q-6 -92 -57 -92q-29 0 -99 37q-89 48 -138 48q-68 0 -105.5 -59.5t-37.5 -155.5h99q8 98 58 98q25 0 96 -38q80 -46 134 -46q144 0 144 199v9z"/>
            <glyph unicode="&#x1e1c;" horiz-adv-x="1056"
                   d="M572 1587q-133 0 -202 81q-60 75 -61 177h109q26 -149 151 -149q145 0 156 149h110q-3 -120 -73 -189t-190 -69zM678 0l-69 -111q63 -9 107.5 -51.5t44.5 -100.5q0 -178 -226 -178q-85 0 -150 38l33 94q34 -21 74.5 -28.5t70.5 -3t45 16.5q21 16 21 52q0 76 -169 92 l100 180h-395v1477h782v-158h-594v-468h561v-159h-561v-535h626v-157h-301z"/>
            <glyph unicode="&#x1e1d;" horiz-adv-x="1077"
                   d="M596 1196q-127 0 -193.5 73t-69.5 186h110q26 -149 151 -149q144 0 155 149h110q-2 -120 -72.5 -189.5t-190.5 -69.5zM999 592q0 -60 -6 -94h-728q3 -181 99.5 -275t258.5 -94q154 0 284 53l34 -136q-127 -55 -294 -62l-68 -113q63 -9 107 -51t44 -100q0 -178 -226 -178 q-87 0 -149 37l32 95q55 -34 119 -34q49 0 70.5 17.5t21.5 53.5q0 76 -169 92l102 182h10q-198 15 -321 142q-137 143 -137 388t132 407q136 163 357 163q109 0 193 -41.5t134 -112.5t75 -157t25 -182zM268 636h547q2 132 -62 221t-197 90q-123 0 -197 -90t-91 -221z"/>
            <glyph unicode="&#x1e1e;" horiz-adv-x="1044"
                   d="M661 1696q0 46 -29.5 78t-72.5 32q-46 0 -78 -32t-32 -78q0 -45 31 -77t76 -32t75 31.5t30 77.5zM165 1477v-1477h188v669h546v157h-546v493h592v158h-780z"/>
            <glyph unicode="&#x1e1f;" horiz-adv-x="630"
                   d="M575 1797q0 46 -30 78t-74 32q-46 0 -77.5 -32t-31.5 -78q0 -45 31 -77.5t76 -32.5t75.5 32t30.5 78zM690 1401l27 146q-72 31 -165 31q-79 0 -145 -27t-118 -81.5t-81.5 -146t-29.5 -212.5v-51h-147v-144h147v-916h190v916h250v144h-252v57q0 305 201 305q71 0 123 -21z "/>
            <glyph unicode="&#x1e20;" horiz-adv-x="1384"
                   d="M623 1718v-116h488v116h-488zM784 776v-153h295v-443q-81 -38 -247 -38q-254 0 -404 159q-150 158 -150 437q1 278 157.5 436t421.5 158q185 0 316 -61l48 155q-137 67 -360 67q-235 0 -413 -97t-273.5 -270t-95.5 -398q0 -353 203 -550q94 -91 223 -139.5t263 -52.5 t258.5 16t236.5 61v713h-479z"/>
            <glyph unicode="&#x1e21;" horiz-adv-x="1202"
                   d="M324 1311v-117h489v117h-489zM876 903h-4q-95 180 -320 180q-95 0 -180 -40t-149.5 -111t-102 -178t-37.5 -233q0 -224 125.5 -370.5t317.5 -146.5q223 0 327 176h4v-119q-1 -366 -334 -366q-167 0 -304 84l-46 -149q129 -84 344 -84q127 0 220.5 30.5t164.5 99.5 t107 188.5t36 288.5v614q0 142 9 293h-169zM855 646v-199q-2 -63 -14 -100q-30 -92 -101 -145q-50 -38 -117.5 -50.5t-143 14t-126.5 97.5q-79 100 -79 270q0 183 86 291q86 109 223 109q200 0 263 -201q9 -28 9 -86z"/>
            <glyph unicode="&#x1e22;" horiz-adv-x="1401"
                   d="M809 1696q0 46 -30 78t-74 32q-46 0 -77.5 -32t-31.5 -78q0 -45 31 -77t76 -32t75.5 31.5t30.5 77.5zM1048 1477v-620h-695v620h-188v-1477h188v692h695v-692h190v1477h-190z"/>
            <glyph unicode="&#x1e23;" horiz-adv-x="1194"
                   d="M621 1773q0 46 -30 77.5t-74 31.5q-46 0 -77.5 -31.5t-31.5 -77.5q0 -45 31 -77.5t76 -32.5t75.5 32t30.5 78zM1043 0v636q0 93 -19.5 169t-53.5 127t-80.5 85.5t-98 50t-109.5 15.5q-101 0 -190 -49.5t-139 -134.5h-4v655h-192v-1554h192v644q0 48 11 90q27 84 96.5 137 t156.5 53q240 0 240 -309v-615h190z"/>
            <glyph unicode="&#x1e24;" horiz-adv-x="1401"
                   d="M1048 1477v-620h-695v620h-188v-1477h188v692h695v-692h190v1477h-190zM809 -217q0 46 -30 78t-74 32q-46 0 -77.5 -32t-31.5 -78q0 -45 31 -77t76 -32t75.5 31.5t30.5 77.5z"/>
            <glyph unicode="&#x1e25;" horiz-adv-x="1194"
                   d="M1043 0v636q0 93 -19.5 169t-53.5 127t-80.5 85.5t-98 50t-109.5 15.5q-101 0 -190 -49.5t-139 -134.5h-4v655h-192v-1554h192v644q0 48 11 90q27 84 96.5 137t156.5 53q240 0 240 -309v-615h190zM708 -217q0 46 -30 78t-73 32q-46 0 -78 -32t-32 -78q0 -45 31 -77 t76 -32t75.5 31.5t30.5 77.5z"/>
            <glyph unicode="&#x1e26;" horiz-adv-x="1401"
                   d="M609 1696q0 46 -30 78t-75 32q-44 0 -75.5 -32t-31.5 -78q0 -45 30 -77t75 -32q46 0 76.5 31.5t30.5 77.5zM1006 1696q0 46 -30 78t-75 32q-46 0 -77 -32t-31 -78q0 -45 30.5 -77t75.5 -32q46 0 76.5 31.5t30.5 77.5zM1048 1477v-620h-695v620h-188v-1477h188v692h695 v-692h190v1477h-190z"/>
            <glyph unicode="&#x1e27;" horiz-adv-x="1194"
                   d="M508 1773q0 46 -30 77.5t-75 31.5q-43 0 -75.5 -32t-32.5 -77t30.5 -77.5t75.5 -32.5t76 32t31 78zM905 1773q0 46 -30 77.5t-75 31.5q-46 0 -77 -31.5t-31 -77.5q0 -45 30 -77.5t75 -32.5q46 0 77 32t31 78zM1043 0v636q0 93 -19.5 169t-53.5 127t-80.5 85.5t-98 50 t-109.5 15.5q-101 0 -190 -49.5t-139 -134.5h-4v655h-192v-1554h192v644q0 48 11 90q27 84 96.5 137t156.5 53q240 0 240 -309v-615h190z"/>
            <glyph unicode="&#x1e28;" horiz-adv-x="1401"
                   d="M1238 1477v-1477h-190v692h-695v-690h2l-70 -113q63 -9 107.5 -51.5t44.5 -100.5q0 -178 -226 -178q-85 0 -150 38l33 94q34 -21 74.5 -28.5t70.5 -3t45 16.5q21 16 21 52q0 76 -169 92l99 180h-70v1477h188v-620h695v620h190z"/>
            <glyph unicode="&#x1e29;" horiz-adv-x="1194"
                   d="M682 1083q58 0 109.5 -15.5t98 -50t80.5 -85.5t53.5 -127t19.5 -169v-636h-190v615q0 309 -240 309q-87 0 -156.5 -53t-96.5 -137q-11 -42 -11 -90v-642h2l-71 -113q63 -9 107 -51.5t44 -100.5q0 -178 -224 -178q-85 0 -150 38l33 94q34 -21 74.5 -28.5t70.5 -3t45 16.5 q21 16 21 52q0 76 -169 92l99 180h-74v1554h192v-655h4q50 85 139 134.5t190 49.5z"/>
            <glyph unicode="&#x1e2a;" horiz-adv-x="1401"
                   d="M1048 1477v-620h-695v620h-188v-1477h188v692h695v-692h190v1477h-190zM964 -107h-109q-5 -57 -35 -95.5t-71 -48t-83 0t-75.5 48t-42.5 95.5h-109q2 -113 68.5 -186t193.5 -73q120 0 190.5 69.5t72.5 189.5z"/>
            <glyph unicode="&#x1e2b;" horiz-adv-x="1194"
                   d="M1043 0v636q0 93 -19.5 169t-53.5 127t-80.5 85.5t-98 50t-109.5 15.5q-101 0 -190 -49.5t-139 -134.5h-4v655h-192v-1554h192v644q0 48 11 90q27 84 96.5 137t156.5 53q240 0 240 -309v-615h190zM863 -107h-109q-4 -57 -34 -95.5t-71.5 -48t-83.5 0t-75.5 48t-42.5 95.5 h-110q3 -113 70 -186t193 -73q120 0 190.5 69.5t72.5 189.5z"/>
            <glyph unicode="&#x1e2c;" horiz-adv-x="518"
                   d="M165 1477v-1477h188v1477h-188zM526 -107h-95q-2 -36 -10.5 -57.5t-19.5 -30t-32 -5t-40.5 11.5t-52.5 25q-89 50 -138 50q-69 0 -105.5 -59t-36.5 -156h98q8 96 57 96q25 0 96 -38q80 -46 134 -46q145 0 145 199v10z"/>
            <glyph unicode="&#x1e2d;" horiz-adv-x="506"
                   d="M374 1378q0 55 -33.5 89t-87.5 34t-89 -35t-35 -88q0 -52 34 -87t86 -35q56 0 90.5 34t34.5 88zM157 1060v-1060h192v1060h-192zM519 -107h-94q-3 -36 -11.5 -57.5t-20 -30t-32 -5t-40 11.5t-51.5 25q-89 50 -138 50q-69 0 -106 -59t-37 -156h99q6 96 56 96q26 0 97 -38 q80 -46 133 -46q145 0 145 199v10z"/>
            <glyph unicode="&#x1e2e;" horiz-adv-x="518"
                   d="M149 1915h133l266 314h-209zM169 1696q0 46 -30.5 78t-75.5 32q-44 0 -75.5 -32t-31.5 -78q0 -45 30 -77t75 -32q46 0 77 31.5t31 77.5zM565 1696q0 46 -30 78t-75 32t-76 -32t-31 -78q0 -45 30 -77t75 -32q46 0 76.5 31.5t30.5 77.5zM165 1477v-1477h188v1477h-188z"/>
            <glyph unicode="&#x1e2f;" horiz-adv-x="506"
                   d="M163 1499h132l266 314h-208zM163 1282q0 46 -30.5 77.5t-75.5 31.5q-44 0 -75.5 -31.5t-31.5 -77.5q0 -45 30 -77t75 -32q46 0 77 31.5t31 77.5zM559 1282q0 46 -30 77.5t-75 31.5q-46 0 -76.5 -31.5t-30.5 -77.5q0 -45 30 -77t75 -32q46 0 76.5 31.5t30.5 77.5z M157 1060v-1060h192v1060h-192z"/>
            <glyph unicode="&#x1e30;" horiz-adv-x="1167"
                   d="M475 1587h134l265 313h-207zM1146 1477h-232l-441 -553q-78 -104 -113 -159h-7v712h-188v-1477h188v563l138 160l473 -723h224l-563 849z"/>
            <glyph unicode="&#x1e31;" horiz-adv-x="1010"
                   d="M395 1663h134l264 313h-208zM975 1060h-228l-306 -366q-24 -28 -44 -56q-26 -37 -46 -63h-4v979h-190v-1554h190v399l96 109l354 -508h233l-455 623z"/>
            <glyph unicode="&#x1e32;" horiz-adv-x="1167"
                   d="M1146 1477h-232l-441 -553q-78 -104 -113 -159h-7v712h-188v-1477h188v563l138 160l473 -723h224l-563 849zM640 -217q0 46 -29.5 78t-73.5 32q-46 0 -78 -32t-32 -78q0 -45 31.5 -77t76.5 -32t75 31.5t30 77.5z"/>
            <glyph unicode="&#x1e33;" horiz-adv-x="1010"
                   d="M975 1060h-228l-306 -366q-24 -28 -44 -56q-26 -37 -46 -63h-4v979h-190v-1554h190v399l96 109l354 -508h233l-455 623zM625 -217q0 46 -30 78t-74 32q-46 0 -77.5 -32t-31.5 -78q0 -45 31 -77t76 -32t75.5 31.5t30.5 77.5z"/>
            <glyph unicode="&#x1e34;" horiz-adv-x="1167"
                   d="M1146 1477h-232l-441 -553q-78 -104 -113 -159h-7v712h-188v-1477h188v563l138 160l473 -723h224l-563 849zM368 -107v-117h489v117h-489z"/>
            <glyph unicode="&#x1e35;" horiz-adv-x="1010"
                   d="M975 1060h-228l-306 -366q-24 -28 -44 -56q-26 -37 -46 -63h-4v979h-190v-1554h190v399l96 109l354 -508h233l-455 623zM351 -107v-117h488v117h-488z"/>
            <glyph unicode="&#x1e36;" horiz-adv-x="1014"
                   d="M353 160v1317h-188v-1477h805v160h-617zM675 -217q0 46 -29.5 78t-73.5 32q-46 0 -78 -32t-32 -78q0 -45 31 -77t76 -32t75.5 31.5t30.5 77.5z"/>
            <glyph unicode="&#x1e37;" horiz-adv-x="506" d="M157 1554v-1554h192v1554h-192zM362 -217q0 46 -29.5 78t-73.5 32q-46 0 -78 -32t-32 -78q0 -45 31.5 -77t76.5 -32t75 31.5t30 77.5z"/>
            <glyph unicode="&#x1e38;" horiz-adv-x="1014"
                   d="M324 1702v-115h489v115h-489zM353 160v1317h-188v-1477h805v160h-617zM675 -217q0 46 -29.5 78t-73.5 32q-46 0 -78 -32t-32 -78q0 -45 31 -77t76 -32t75.5 31.5t30.5 77.5z"/>
            <glyph unicode="&#x1e39;" horiz-adv-x="506"
                   d="M11 1779v-116h489v116h-489zM157 1554v-1554h192v1554h-192zM362 -217q0 46 -29.5 78t-73.5 32q-46 0 -78 -32t-32 -78q0 -45 31.5 -77t76.5 -32t75 31.5t30 77.5z"/>
            <glyph unicode="&#x1e3a;" horiz-adv-x="1014" d="M353 160v1317h-188v-1477h805v160h-617zM324 -107v-117h489v117h-489z"/>
            <glyph unicode="&#x1e3b;" horiz-adv-x="506" d="M157 1554v-1554h192v1554h-192zM11 -107v-117h489v117h-489z"/>
            <glyph unicode="&#x1e3c;" horiz-adv-x="1014" d="M353 160v1317h-188v-1477h805v160h-617zM502 -107l-201 -314h138l124 206h4l125 -206h143l-206 314h-127z"/>
            <glyph unicode="&#x1e3d;" horiz-adv-x="506" d="M157 1554v-1554h192v1554h-192zM188 -107l-201 -314h138l124 206h6l124 -206h142l-205 314h-128z"/>
            </font>
</defs>
</svg>
