<?xml version="1.0" standalone="no"?>
<!DOCTYPE svg PUBLIC "-//W3C//DTD SVG 1.1//EN" "http://www.w3.org/Graphics/SVG/1.1/DTD/svg11.dtd" >
<svg xmlns="http://www.w3.org/2000/svg">
    <metadata></metadata>
    <defs>
        <font id="sukhumvit_setsemi_bold" horiz-adv-x="0">
            <font-face units-per-em="2048" ascent="1638" descent="-410"/>
            <missing-glyph horiz-adv-x="516"/>
            <glyph unicode="fi" horiz-adv-x="1178"
                   d="M410 1065v46q-2 276 251 276q132 0 228 -57l58 180q-101 68 -280 68q-229 0 -362 -125q-130 -121 -130 -333v-55h-144v-178h144v-887h237v887h381v-887h237v1065h-620z"/>
            <glyph unicode="fl" horiz-adv-x="1178"
                   d="M1030 0v1501q-143 77 -344 77q-240 0 -378 -128q-133 -125 -133 -339v-46h-144v-178h144v-887h237v887h226v178h-228v50q0 281 238 281q95 0 145 -26v-1370h237z"/>
            <glyph/>
            <glyph/>
            <glyph unicode="&#xd;" horiz-adv-x="426"/>
            <glyph unicode=" " horiz-adv-x="516"/>
            <glyph unicode="&#x09;" horiz-adv-x="516"/>
            <glyph unicode="&#xa0;" horiz-adv-x="516"/>
            <glyph unicode="!" horiz-adv-x="527" d="M171 443h184l36 1034h-255zM414 132q0 68 -42 112.5t-109 44.5q-65 0 -107.5 -45t-42.5 -112t41.5 -112t106.5 -45q67 0 110 44.5t43 112.5z"/>
            <glyph unicode="&#x22;" horiz-adv-x="777" d="M140 968h142l40 548h-224zM495 968h143l39 548h-221z"/>
            <glyph unicode="#" horiz-adv-x="1110"
                   d="M857 1016l57 408h-151l-55 -408h-217l57 408h-149l-58 -408h-207v-150h186l-40 -297h-201v-151h178l-58 -418h152l57 418h213l-56 -418h152l54 418h208v151h-184l40 297h200v150h-178zM431 569l38 297h215l-38 -297h-215z"/>
            <glyph unicode="$" horiz-adv-x="1136"
                   d="M991 421q0 142 -81.5 235.5t-261.5 167.5q-148 61 -205.5 110t-57.5 120q1 73 55.5 121t159.5 48q144 0 283 -75l58 178q-131 68 -290 72v206h-162v-215q-157 -28 -248.5 -126.5t-91.5 -237.5q0 -135 87.5 -221.5t280.5 -165.5q237 -92 237 -239q0 -84 -66 -136t-173 -52 q-177 0 -325 94l-56 -182q140 -93 339 -94v-217h163v228q170 30 262.5 132.5t92.5 248.5z"/>
            <glyph unicode="%" horiz-adv-x="1774"
                   d="M763 1023q0 187 -89 306.5t-253 119.5q-85 0 -153.5 -35t-113 -96.5t-68 -141.5t-23.5 -172q0 -173 84 -296q94 -133 263 -133q111 0 193 62.5t121 162.5t39 223zM401 -27h140l826 1476h-138zM583 1012q0 -151 -42 -227t-125 -75q-45 0 -79 25.5t-53 68.5t-28 93.5 t-9 106.5q0 57 9 109t27.5 97.5t52 73t78.5 27.5q169 0 169 -299zM1709 434q0 178 -78 294q-90 129 -261 129q-178 0 -272 -138q-88 -122 -88 -307q0 -117 39.5 -213t119.5 -156t188 -60q166 0 259 129t93 322zM1530 423q0 -152 -41.5 -227.5t-123.5 -74.5q-58 0 -98 44.5 t-56.5 108.5t-16.5 140q0 57 9 109t27.5 97.5t52 73t78.5 27.5q169 0 169 -298z"/>
            <glyph unicode="&#x26;" horiz-adv-x="1359"
                   d="M1352 0l-248 270q159 178 222 550h-215q-41 -264 -132 -408l-320 368l2 6q309 160 309 391q0 144 -98 234q-101 90 -247 90q-187 0 -294 -119q-101 -103 -101 -253q0 -157 121 -303l-2 -6q-282 -156 -282 -427q0 -177 119 -290q85 -85 220 -115t283.5 6.5t261.5 137.5 q34 -35 72 -77q27 -31 51 -55h278zM767 1168q0 -138 -213 -265q-107 127 -107 247q0 82 44.5 137.5t119.5 55.5q71 0 113.5 -49t42.5 -126zM837 265q-105 -111 -262 -112q-126 0 -204 75.5t-78 200.5q0 159 163 268q157 -186 381 -432z"/>
            <glyph unicode="'" horiz-adv-x="420" d="M140 968h142l40 548h-224z"/>
            <glyph unicode="(" horiz-adv-x="636" d="M408 -261h177q-257 383 -257 886q0 526 257 893h-177q-272 -371 -272 -891q0 -517 272 -888z"/>
            <glyph unicode=")" horiz-adv-x="636" d="M502 629q2 523 -272 889h-175q254 -377 254 -887q0 -512 -254 -892h175q272 379 272 890z"/>
            <glyph unicode="*" horiz-adv-x="930"
                   d="M531 1135l216 281l-151 85l-129 -315h-5l-131 313l-153 -88l213 -269v-5l-328 51v-174l330 51l2 -7l-217 -267l144 -90l136 315l4 3l132 -318l155 90l-218 265v7l335 -49v174z"/>
            <glyph unicode="+" horiz-adv-x="1305" d="M734 661v505h-162v-505h-484v-153h484v-508h162v508h485v153h-485z"/>
            <glyph unicode="," horiz-adv-x="487" d="M421 309l-254 -22q-48 -297 -140 -555l161 15q128 209 233 562z"/>
            <glyph unicode="-" horiz-adv-x="676" d="M65 671v-167h546v167h-546z"/>
            <glyph unicode="." horiz-adv-x="487" d="M414 134q0 70 -41.5 114.5t-109.5 44.5q-65 0 -108.5 -46t-43.5 -113t42.5 -113t107.5 -46q69 0 111 45t42 114z"/>
            <glyph unicode="/" horiz-adv-x="734" d="M9 -88h171l558 1589h-171z"/>
            <glyph unicode="0" horiz-adv-x="1136"
                   d="M1060 723q0 293 -94 480q-40 80 -103.5 136.5t-135 82.5t-151 26t-152 -27t-137 -84.5t-107.5 -138.5q-105 -196 -105 -490q0 -149 28 -277t84 -232t151.5 -164t220.5 -60q106 0 191.5 39t142.5 107t95 163.5t55 204.5t17 234zM822 717q0 -557 -255 -557 q-152 -1 -214 212q-42 134 -42 333q0 108 12.5 201.5t40.5 177.5t80 132.5t123 48.5q255 0 255 -548z"/>
            <glyph unicode="1" horiz-adv-x="1136" d="M539 1424l-330 -168l44 -180l253 131h4v-1207h228v1424h-199z"/>
            <glyph unicode="2" horiz-adv-x="1136"
                   d="M427 197v4l117 108q223 207 322 355q125 179 125 361q-1 185 -120 304.5t-332 119.5q-238 0 -414 -143l70 -169q61 47 135 78.5t148.5 37.5t136 -13.5t99.5 -81t37 -159.5q1 -139 -124 -305q-93 -122 -372 -395l-161 -155v-144h927v197h-594z"/>
            <glyph unicode="3" horiz-adv-x="1136"
                   d="M999 406q0 142 -87 238q-87 95 -222 121v4q99 36 161.5 95t82.5 124.5t14.5 133t-34 125t-71.5 96.5q-76 69 -205 94t-266 -0.5t-234 -95.5l55 -173q133 90 282 90q115 0 174 -54q40 -37 54.5 -92t-9 -115t-85.5 -98q-85 -50 -195 -50h-109v-174h111q144 -2 232 -64 q106 -70 106 -197q1 -107 -76 -177t-220 -70q-170 0 -316 86l-54 -180q146 -98 379 -98q248 0 394 128q138 119 138 303z"/>
            <glyph unicode="4" horiz-adv-x="1136" d="M903 554v870h-272l-591 -895v-157h639v-372h224v372h186v182h-186zM679 1214l7 -2q-7 -127 -7 -239v-419h-409l286 428q91 157 123 232z"/>
            <glyph unicode="5" horiz-adv-x="1136"
                   d="M1002 467q0 242 -189 365q-139 86 -326 86q-56 0 -104 -6l46 315h535v197h-703l-92 -699q91 13 191 13q400 0 401 -291q0 -131 -94 -206q-96 -76 -242.5 -76.5t-282.5 76.5l-52 -182q142 -84 362 -84q242 1 396 140.5t154 351.5z"/>
            <glyph unicode="6" horiz-adv-x="1136"
                   d="M1069 483q0 211 -120 332q-79 85 -196.5 115t-236.5 -5t-196 -130h-6q32 184 151.5 303t323.5 149q109 11 138 9v191q-26 0 -136 -10q-121 -13 -227.5 -53t-197.5 -111.5t-156 -168t-102 -229.5t-37 -290q0 -275 138 -441q89 -109 228.5 -149t276.5 -3t224 137 q131 146 131 354zM828 469q0 -137 -61 -220q-43 -62 -117 -84t-151 4.5t-125 98.5q-62 100 -67 258q-2 45 17 85q76 156 245 156q119 0 189 -80t70 -218z"/>
            <glyph unicode="7" horiz-adv-x="1136" d="M117 1424v-197h669l-596 -1227h249l598 1271v153h-920z"/>
            <glyph unicode="8" horiz-adv-x="1136"
                   d="M1060 397q0 255 -274 364v6q222 109 222 327q0 163 -122.5 259t-302.5 96q-125 0 -228 -46.5t-165.5 -135.5t-62.5 -204q0 -211 220 -316v-7q-270 -121 -270 -376q0 -181 155 -291q137 -98 331 -98q136 1 248 49.5t180.5 145.5t68.5 227zM786 1069q0 -171 -188 -234 q-241 70 -241 241q0 94 60.5 150t157.5 56q98 0 154.5 -57.5t56.5 -155.5zM822 374q0 -103 -70.5 -166.5t-179.5 -63.5q-112 0 -182 69t-70 180q0 95 65 172q61 67 161 96q276 -83 276 -287z"/>
            <glyph unicode="9" horiz-adv-x="1136"
                   d="M1060 843q0 276 -129 441t-354 165q-216 -1 -356 -148.5t-140 -357.5q-1 -193 117 -316t304 -123q200 0 313 134h5q-35 -207 -164 -327t-305 -136q-100 -10 -150 -4v-192q31 -5 72 0q3 0 95 8q341 33 521 276q171 225 171 580zM820 885q0 -49 -15 -78q-76 -130 -244 -130 q-111 0 -178 76.5t-67 202.5q0 129 63 219q71 96 182 96q133 0 204 -125q55 -100 55 -261z"/>
            <glyph unicode=":" horiz-adv-x="487"
                   d="M412 887q0 68 -41 113t-108 45q-65 0 -107.5 -46t-42.5 -112q0 -67 41.5 -112t106.5 -45q67 0 109 43t42 114zM410 134q0 68 -41.5 112.5t-107.5 44.5q-65 0 -107.5 -45.5t-42.5 -111.5q0 -69 41.5 -114t106.5 -45q67 0 109 44t42 115z"/>
            <glyph unicode=";" horiz-adv-x="487"
                   d="M427 887q0 68 -41 113t-108 45q-64 0 -106.5 -46t-42.5 -112q0 -67 41 -112t106 -45q69 0 110 43t41 114zM418 309l-251 -22q-48 -297 -140 -555l161 15q129 209 230 562z"/>
            <glyph unicode="&#x3c;" horiz-adv-x="1305" d="M331 581v4l837 404v177l-1030 -513v-140l1030 -513v178z"/>
            <glyph unicode="=" horiz-adv-x="1305" d="M88 883v-153h1131v153h-1131zM88 447v-154h1131v154h-1131z"/>
            <glyph unicode="&#x3e;" horiz-adv-x="1305" d="M138 1166v-177l849 -404v-4l-849 -403v-178l1030 508v149z"/>
            <glyph unicode="?" horiz-adv-x="902"
                   d="M813 1175q0 144 -100 236t-282 92q-197 0 -324 -87l60 -172q86 67 214 67q123 -3 167 -67t10 -164t-131 -217q-147 -179 -132 -370l8 -54h207l-2 50q-6 159 119 308q98 118 129 173q57 104 57 205zM550 132q0 70 -40.5 113.5t-108.5 43.5q-66 0 -109 -45t-43 -112 t42.5 -112t107.5 -45q68 0 109.5 44t41.5 113z"/>
            <glyph unicode="@" horiz-adv-x="1616"
                   d="M1532 874q0 181 -80 323.5t-225 223t-330 80.5q-356 0 -581 -252q-218 -242 -218 -590q0 -151 51.5 -280.5t140.5 -217.5t210.5 -138t258.5 -50q219 0 389 86l-35 104q-137 -75 -324 -75q-244 0 -396 155q-159 161 -159 430q0 157 50.5 292t137 228t204.5 145.5t250 52.5 q241 0 381.5 -145t140.5 -385q0 -176 -69 -287.5t-158 -109.5q-73 4 -73 115q0 39 11 113l72 402q-95 48 -238 48q-148 0 -266.5 -70.5t-183 -189t-64.5 -259.5q0 -126 66.5 -201t168.5 -75q187 0 298 184h6q0 -184 169 -184q164 0 281 142q114 142 114 385zM1006 995 l-42 -239q-19 -104 -90 -188.5t-146 -84.5q-132 0 -132 155q0 151 93.5 260.5t224.5 109.5q50 0 92 -13z"/>
            <glyph unicode="A" horiz-adv-x="1347"
                   d="M523 1477l-475 -1477h245l132 434h480l138 -434h252l-478 1477h-294zM467 615l123 387q16 67 41 161q4 16 10 41.5t10.5 43.5t7.5 32h5q33 -130 46 -179q20 -75 28 -99l125 -387h-396z"/>
            <glyph unicode="B" horiz-adv-x="1215"
                   d="M1129 423q0 146 -92 250q-85 90 -207 118v6q117 41 181.5 127t64.5 193q0 176 -140 273.5t-410 97.5q-218 0 -369 -31v-1453q147 -17 312 -17q145 0 258.5 22.5t188 61.5t123.5 95t69.5 119t20.5 138zM837 1094q0 -105 -80.5 -168t-217.5 -63h-146v434q56 14 155 14 q289 0 289 -217zM881 429q0 -131 -93.5 -196.5t-250.5 -65.5q-104 0 -144 8v515h140q160 0 254 -67t94 -194z"/>
            <glyph unicode="C" horiz-adv-x="1250"
                   d="M1135 1244l53 191q-119 64 -342 64q-168 0 -310 -54.5t-243.5 -154t-158.5 -245.5t-57 -322q0 -345 201 -548q197 -194 529 -194q241 0 374 63l-41 188q-116 -54 -291 -54q-247 0 -385 146.5t-138 409.5q0 269 149 423q67 69 157.5 105.5t181.5 39t173 -12.5t148 -45z "/>
            <glyph unicode="D" horiz-adv-x="1449"
                   d="M1372 774q0 351 -209 532.5t-598 181.5q-214 0 -408 -31v-1453q150 -17 347 -17q410 0 629 186q239 200 239 601zM1122 767q0 -290 -146.5 -441t-421.5 -151q-120 0 -159 7v1104q71 16 190 16q265 0 401 -137.5t136 -397.5z"/>
            <glyph unicode="E" horiz-adv-x="1086" d="M395 195v476h550v195h-550v416h582v195h-820v-1477h851v195h-613z"/>
            <glyph unicode="F" horiz-adv-x="1075" d="M157 1477v-1477h238v644h536v193h-536v445h578v195h-816z"/>
            <glyph unicode="G" horiz-adv-x="1410"
                   d="M793 797v-186h270v-400q-66 -31 -214 -31q-242 0 -382.5 148t-140.5 410q0 264 151 412q151 143 395 143q193 0 322 -61l53 192q-138 69 -371 69q-361 0 -581 -211q-106 -102 -162.5 -253t-57 -304.5t52.5 -301.5t154 -245q95 -92 229 -141t272 -53t267 17t240 64v732 h-497z"/>
            <glyph unicode="H" horiz-adv-x="1428" d="M1035 1477v-603h-640v603h-238v-1477h238v667h640v-667h236v1477h-236z"/>
            <glyph unicode="I" horiz-adv-x="552" d="M157 1477v-1477h238v1477h-238z"/>
            <glyph unicode="J" horiz-adv-x="823" d="M445 1477v-964q-1 -188 -66 -268q-37 -44 -102 -60t-126 -10t-116 26l-31 -190q86 -36 213 -36q465 0 465 527v975h-237z"/>
            <glyph unicode="K" horiz-adv-x="1219" d="M1201 1477h-291l-402 -532q-56 -78 -109 -161h-6v693h-236v-1477h236v537l133 157l432 -694h278l-544 849z"/>
            <glyph unicode="L" horiz-adv-x="1042" d="M395 199v1278h-238v-1477h840v199h-602z"/>
            <glyph unicode="M" horiz-adv-x="1761"
                   d="M1251 1477l-221 -640q-85 -247 -149 -509h-7q-59 271 -138 509l-213 640h-304l-98 -1477h220l36 607q14 255 26 633h5q59 -277 153 -569l210 -658h180l230 669q108 319 174 558h6q-5 -210 19 -622l31 -618h230l-85 1477h-305z"/>
            <glyph unicode="N" horiz-adv-x="1437"
                   d="M1060 1477v-550q0 -335 25 -613l-4 -3q-113 258 -253 489l-407 677h-264v-1477h220v561q0 399 -15 627l6 2q104 -237 263 -504l408 -686h243v1477h-222z"/>
            <glyph unicode="O" horiz-adv-x="1493"
                   d="M1418 754q0 158 -45.5 294.5t-129 237t-209 158t-278.5 57.5q-317 0 -503 -232q-115 -143 -156.5 -341.5t-2 -394t150.5 -332.5q180 -226 491 -226q213 0 369 102.5t234.5 277t78.5 399.5zM1166 745q0 -230 -95 -385q-112 -193 -326 -193q-80 0 -149 30.5t-118.5 84 t-84.5 125.5t-52 155t-17 172q0 223 97 383q113 194 326 194q98 0 179 -47t132.5 -126.5t79.5 -180.5t28 -212z"/>
            <glyph unicode="P" horiz-adv-x="1182"
                   d="M1102 1048q0 206 -141 323t-417 117q-216 0 -387 -31v-1457h236v572q49 -11 136 -11q300 0 453 160q120 120 120 327zM868 1037q0 -137 -89.5 -213.5t-247.5 -76.5q-94 2 -138 14v529q64 14 159 14q152 0 234 -68.5t82 -198.5z"/>
            <glyph unicode="Q" horiz-adv-x="1493"
                   d="M1361 -228l67 191q-207 38 -398 92v8q179 67 283.5 249t104.5 442q0 215 -80 384t-230.5 266t-346.5 97q-305 0 -494.5 -214.5t-189.5 -561.5q0 -344 191 -547q175 -189 445 -203q36 -4 89 -21q260 -97 559 -182zM1168 745q0 -231 -94 -385q-114 -193 -327 -193 q-209 0 -322 186q-99 158 -99 379q0 222 99 385q113 194 326 194q79 0 147 -31t117 -85t84 -126t52 -154.5t17 -169.5z"/>
            <glyph unicode="R" horiz-adv-x="1200"
                   d="M910 0h245q-19 36 -51 153q-20 71 -63 255q-59 236 -209 293v4q123 46 196.5 143t73.5 231q0 195 -135.5 302t-425.5 107q-220 0 -384 -31v-1457h236v621h146q119 0 181 -61t93 -209q31 -150 55 -231q24 -87 42 -120zM866 1054q0 -119 -83 -189t-224 -70h-166v498 q49 16 170 16q303 -6 303 -255z"/>
            <glyph unicode="S" horiz-adv-x="1092"
                   d="M1006 414q0 152 -88.5 255.5t-281.5 181.5q-159 63 -215 113q-68 56 -68 145q0 77 59 133q66 63 210.5 61.5t266.5 -67.5l60 192q-137 71 -336 71q-223 0 -361.5 -115.5t-138.5 -298.5q1 -279 389 -424q144 -52 204.5 -112t60.5 -152q0 -103 -75 -162.5t-207 -59.5 q-190 0 -343 93l-54 -197q145 -92 383 -92q251 -1 393 120t142 315z"/>
            <glyph unicode="T" horiz-adv-x="1104" d="M11 1477v-199h420v-1278h240v1278h423v199h-1083z"/>
            <glyph unicode="U" horiz-adv-x="1415" d="M1023 1477v-875q0 -433 -320 -433q-143 0 -223 105q-87 109 -87 328v875h-238v-862q0 -640 539 -640q270 1 418 163t148 483v856h-237z"/>
            <glyph unicode="V" horiz-adv-x="1257" d="M1004 1477l-222 -695q-94 -292 -153 -541h-4q-61 257 -148 543l-205 693h-259l472 -1477h266l505 1477h-252z"/>
            <glyph unicode="W" horiz-adv-x="1855"
                   d="M1426 782l-8 -37q-60 -248 -97 -475h-4q-32 232 -94 504l-156 703h-245l-171 -697q-85 -352 -112 -515h-4q-51 293 -98 513l-152 699h-252l360 -1477h251l184 719q69 256 103 473h4q20 -162 88 -473l163 -719h249l399 1477h-241z"/>
            <glyph unicode="X" horiz-adv-x="1252"
                   d="M1194 1477h-270l-170 -320q-34 -60 -121 -247h-4q-29 56 -59 118l-66 129l-171 320h-270l417 -728l-434 -749h270l155 307q45 86 98 193l42 90h4q39 -68 89 -162q35 -68 65 -119l166 -309h274l-444 756z"/>
            <glyph unicode="Y" horiz-adv-x="1204" d="M933 1477l-186 -388q-65 -135 -132 -300h-4q-29 74 -134 300l-184 388h-268l458 -859v-618h236v625l482 852h-268z"/>
            <glyph unicode="Z" horiz-adv-x="1200" d="M372 197l753 1137v143h-1000v-197h695l-761 -1146v-134h1076v197h-763z"/>
            <glyph unicode="[" horiz-adv-x="636" d="M347 -103v1464h234v142h-414v-1748h414v142h-234z"/>
            <glyph unicode="\" horiz-adv-x="744" d="M9 1501l556 -1589h171l-554 1589h-173z"/>
            <glyph unicode="]" horiz-adv-x="636" d="M59 1503v-142h232v-1464h-232v-142h412v1748h-412z"/>
            <glyph unicode="^" horiz-adv-x="1305" d="M575 1424l-454 -1018h178l349 826h7l351 -826h180l-454 1018h-157z"/>
            <glyph unicode="_" horiz-adv-x="1095" d="M0 -165v-109h1096v109h-1096z"/>
            <glyph unicode="`" horiz-adv-x="656" d="M40 1512l265 -318h164l-191 318h-238z"/>
            <glyph unicode="a" horiz-adv-x="1073"
                   d="M734 0h213q-16 87 -16 255v391q0 441 -418 441q-220 0 -366 -92l48 -156q49 32 113.5 54t132 25.5t124 -12.5t93 -67t36.5 -131v-20q-298 2 -459 -100q-77 -49 -118.5 -120.5t-44.5 -143.5t19 -138.5t64 -112.5q63 -66 165.5 -89.5t212 11.5t177.5 128h7zM701 531v-165 q0 -22 -4 -42q-15 -76 -81.5 -125.5t-146.5 -49.5q-73 0 -117.5 43t-44.5 124q-1 110 98 164t296 51z"/>
            <glyph unicode="b" horiz-adv-x="1244"
                   d="M1166 548q0 239 -122.5 389t-313.5 150q-236 0 -339 -177h-6v644h-236v-1267q0 -136 -9 -287h201l14 165h5q109 -190 334 -190q96 0 181.5 40t150 112.5t102.5 181.5t38 239zM924 539q0 -174 -74.5 -274t-207.5 -100q-108 -1 -182.5 77.5t-74.5 188.5v187q2 43 10 74 q23 93 93 151t158 58q130 -1 204 -102.5t74 -259.5z"/>
            <glyph unicode="c" horiz-adv-x="961"
                   d="M863 857l47 180q-114 50 -257 50q-262 0 -418 -158.5t-156 -407.5t144.5 -395.5t387.5 -146.5q183 0 294 54l-33 178q-109 -44 -215 -44q-151 0 -242 99q-95 101 -95 267q0 163 90 264q93 104 247 104q113 0 206 -44z"/>
            <glyph unicode="d" horiz-adv-x="1235"
                   d="M885 0h211q-9 112 -9 287v1267h-236v-611h-5q-86 144 -300 144q-192 0 -329 -149q-138 -162 -138 -419q0 -243 128 -392q62 -75 155.5 -114.5t187 -38t181.5 52t137 144.5h6zM851 627v-178q-2 -113 -69 -194q-67 -88 -186 -88q-131 0 -205 105q-73 98 -73 257 q0 163 75 269q74 105 207 105q90 0 157 -57.5t86 -144.5q8 -32 8 -74z"/>
            <glyph unicode="e" horiz-adv-x="1097"
                   d="M1025 583q0 103 -26.5 192.5t-78.5 160.5t-139 112t-198 41q-152 0 -268 -77t-176 -206.5t-60 -288.5q0 -244 140 -392q141 -144 390 -144q204 0 357 65l-37 165q-132 -51 -287 -51q-148 -1 -239.5 80.5t-95.5 234.5h709q9 40 9 108zM800 644h-493q9 108 70 184 q71 96 188 96q80 0 136 -41.5t79.5 -103.5t19.5 -135z"/>
            <glyph unicode="f" horiz-adv-x="667" d="M713 1365l21 184q-72 29 -167 29q-174 -1 -283 -118t-109 -347v-48h-144v-178h144v-887h237v887h236v178h-238v55q0 267 186 267q67 0 117 -22z"/>
            <glyph unicode="g" horiz-adv-x="1221"
                   d="M866 918h-5q-96 169 -311 169q-96 0 -182 -40t-150 -111.5t-101.5 -177.5t-37.5 -232q-1 -226 124 -373t318 -147q215 0 314 163h4v-104q1 -337 -313 -337q-169 0 -302 82l-55 -182q137 -84 357 -84q254 0 394 128q154 136 154 481v610q0 151 9 302h-209zM837 644v-188 q0 -58 -13 -96q-27 -81 -89 -128.5t-141 -47.5q-125 0 -200.5 98t-75.5 253q0 168 77 269t199 101q106 0 176 -77q67 -73 67 -184z"/>
            <glyph unicode="h" horiz-adv-x="1217"
                   d="M1074 0v633q0 115 -29 203.5t-80 142.5t-115.5 81t-139.5 27q-208 0 -319 -173h-6v640h-236v-1554h236v642q1 45 12 86q20 54 61 94t89.5 58.5t100 12.5t93.5 -35.5t69 -94.5t27 -156v-607h237z"/>
            <glyph unicode="i" horiz-adv-x="533"
                   d="M412 1382q0 60 -42 100.5t-102 40.5q-61 0 -103 -40.5t-42 -100.5q0 -61 40.5 -101.5t99.5 -40.5q65 0 107 39.5t42 102.5zM149 1065v-1065h236v1065h-236z"/>
            <glyph unicode="j" horiz-adv-x="558"
                   d="M441 1382q0 61 -40.5 101t-101.5 40q-65 0 -106.5 -40t-41.5 -101t40.5 -101.5t101.5 -40.5q64 0 106 39.5t42 102.5zM178 1065v-887q0 -300 -71 -377q-58 -68 -201 -79l23 -186q233 4 351 123q134 131 134 444v962h-236z"/>
            <glyph unicode="k" horiz-adv-x="1062" d="M1033 1065h-284l-274 -352q-46 -59 -84 -123h-6v964h-236v-1554h236v377l90 110l322 -487h290l-447 627z"/>
            <glyph unicode="l" horiz-adv-x="533" d="M149 1554v-1554h236v1554h-236z"/>
            <glyph unicode="m" horiz-adv-x="1815"
                   d="M1675 0v631q-1 237 -115 360q-59 61 -143 83t-164 6.5t-144 -59.5q-74 -48 -125 -134h-5q-74 200 -293 200q-214 0 -324 -182h-7l-10 160h-205q9 -200 9 -304v-761h232v636q1 105 63 182t156 77q96 0 145.5 -71t49.5 -195v-629h233v648q0 101 58 173q58 74 154 74 q202 -1 202 -297v-598h233z"/>
            <glyph unicode="n" horiz-adv-x="1217"
                   d="M1074 0v638q0 113 -30 201t-82 141t-118 80t-141 27q-119 0 -214 -59q-75 -43 -123 -127h-6l-11 164h-209q9 -200 9 -304v-761h236v633q0 104 67 184q67 78 171 78q214 -1 214 -284v-611h237z"/>
            <glyph unicode="o" horiz-adv-x="1198"
                   d="M1122 541q0 237 -135 390q-94 102 -238.5 138.5t-289 -1t-238.5 -139.5q-142 -160 -142 -406q0 -240 141.5 -394t371.5 -154q159 0 280 73t185.5 201t64.5 292zM876 535q0 -101 -31 -186.5t-95.5 -141.5t-151.5 -56q-89 0 -154 55.5t-94.5 140t-29.5 184.5 q0 102 29.5 187t94.5 140.5t156 55.5q88 0 152.5 -55.5t94 -140t29.5 -183.5z"/>
            <glyph unicode="p" horiz-adv-x="1244"
                   d="M1166 546q0 246 -127 392q-125 149 -314 149q-241 0 -359 -190h-4l-13 168h-209q9 -221 9 -350v-1149h236v561h6q92 -152 301 -152q98 0 184 38.5t150.5 109.5t102 180.5t37.5 242.5zM924 537q0 -173 -74.5 -273.5t-207.5 -100.5q-115 0 -185 78q-72 80 -72 198v176 q1 25 12 73q21 94 93 153q49 41 113 54.5t133.5 -11.5t118.5 -91q69 -103 69 -256z"/>
            <glyph unicode="q" horiz-adv-x="1233"
                   d="M861 918h-4q-91 169 -309 169q-186 0 -318 -138q-151 -163 -151 -434q0 -239 126 -389.5t312 -150.5q227 0 329 176h5v-585h236v1195q0 146 9 304h-226zM851 631v-192q-2 -48 -14 -86q-26 -87 -91.5 -137.5t-149.5 -50.5q-132 0 -204 99t-72 265t75.5 269t204.5 103 q112 0 180 -81q71 -83 71 -189z"/>
            <glyph unicode="r" horiz-adv-x="742"
                   d="M713 857v226q-25 4 -60 4q-89 0 -170 -57q-81 -60 -119 -169h-7l-8 204h-207q9 -130 9 -335l-2 -730h236v559q1 133 66.5 218.5t186.5 85.5q38 0 75 -6z"/>
            <glyph unicode="s" horiz-adv-x="880"
                   d="M800 307q0 217 -277 322q-109 39 -144 72q-44 38 -44 90q0 56 42 90.5t116 34.5q117 0 217 -61l51 168q-115 64 -270 64q-172 0 -278 -92q-44 -38 -72.5 -89.5t-33.5 -112.5t17.5 -120.5t91 -117t177.5 -97.5q99 -36 139 -75.5t40 -97.5q0 -134 -181 -134q-140 0 -262 75 l-50 -176q127 -71 308 -71q193 0 303 88t110 240z"/>
            <glyph unicode="t" horiz-adv-x="742"
                   d="M425 1065v265l-232 -70v-195h-156v-178h156v-536q0 -202 79 -287q37 -40 93.5 -62t113.5 -24t107.5 5t88.5 21l-6 180q-52 -11 -106 -11q-138 0 -138 197v517h261v178h-261z"/>
            <glyph unicode="u" horiz-adv-x="1209"
                   d="M861 0h208q-9 185 -9 307v758h-236v-651q0 -52 -15 -90q-20 -50 -60.5 -87.5t-88 -55t-97.5 -10t-91 38.5t-67 100t-26 167v588h-237v-626q2 -244 113 -364q47 -50 124 -76.5t160.5 -23.5t167 51t136.5 137h6z"/>
            <glyph unicode="v" horiz-adv-x="1071" d="M802 1065l-179 -563q-55 -172 -77 -270h-7q-43 172 -77 270l-182 563h-253l389 -1065h230l404 1065h-248z"/>
            <glyph unicode="w" horiz-adv-x="1606"
                   d="M1343 1065l-129 -498q-51 -188 -72 -350h-7q-45 208 -85 350l-145 498h-192l-152 -509q-60 -196 -88 -339h-4q-30 161 -72 342l-121 506h-243l314 -1065h218l148 462q53 165 84 345h5q34 -174 85 -345l138 -462h217l334 1065h-233z"/>
            <glyph unicode="x" horiz-adv-x="1037"
                   d="M1010 1065h-259l-124 -208q-48 -77 -96 -173h-8q-52 93 -98 169l-134 212h-262l350 -521l-364 -544h259l132 224q36 58 59 101l41 76h4q32 -55 53 -95q22 -43 48 -82l138 -224h267l-359 552z"/>
            <glyph unicode="y" horiz-adv-x="1051"
                   d="M607 473l-59 -212h-4q-44 154 -64 210l-202 594h-261l386 -979q13 -36 13 -51q0 -12 -17 -48q-54 -108 -138.5 -177t-170.5 -92l57 -201q139 26 261 134q168 153 361 675l270 739h-253z"/>
            <glyph unicode="z" horiz-adv-x="950" d="M337 190v5q61 68 146 173l416 550v147h-816v-191h528v-4q-127 -148 -144 -173l-425 -559v-138h868v190h-573z"/>
            <glyph unicode="{" horiz-adv-x="636"
                   d="M579 -105h-38q-31 0 -56 6t-42.5 15t-30 26t-20 31.5t-10.5 38.5t-4 40.5t1 45t4 44.5t6 45.5t6 42.5q15 91 15 153q2 203 -167 246v4q169 43 167 243q0 64 -15 157q-18 123 -18 157q-1 142 108 166q24 5 54 5h40v142h-56q-320 0 -320 -291q0 -61 16 -179 q15 -100 15 -180q0 -156 -173 -159v-129q173 -2 173 -157q0 -79 -15 -178q-16 -111 -16 -175q0 -300 320 -300h56v140z"/>
            <glyph unicode="|" horiz-adv-x="547" d="M186 1644v-2192h176v2192h-176z"/>
            <glyph unicode="}" horiz-adv-x="636"
                   d="M577 565v129q-171 4 -171 159q0 81 15 180q16 118 16 179q-1 291 -324 291h-54v-142h39q31 0 56 -6t42.5 -15t29.5 -25.5t19.5 -31t11 -38t4 -40t-1.5 -44.5t-4 -44t-6 -45t-6 -42q-6 -44 -15 -154q-2 -200 167 -243v-4q-169 -45 -167 -246l5 -63q3 -47 10 -90 q17 -125 18 -156q3 -142 -98 -171q-28 -8 -65 -8h-39v-140h54q324 -1 324 300q0 64 -16 175q-15 99 -15 178q0 152 171 157z"/>
            <glyph unicode="~" horiz-adv-x="1305"
                   d="M1201 795h-156q-4 -184 -107 -184q-69 0 -250 92q-200 102 -307 102q-126 0 -199 -88q-82 -92 -77 -268h156q8 182 120 182q61 0 246 -94q194 -98 311 -98q126 -1 198.5 88t64.5 268z"/>
            <glyph horiz-adv-x="1095"/>
            <glyph unicode="&#xa1;" horiz-adv-x="527"
                   d="M414 918q0 67 -40.5 111.5t-105.5 44.5q-68 0 -111.5 -44.5t-43.5 -111.5t43 -111t109 -44t107.5 44t41.5 111zM173 605l-35 -1028h255l-38 1028h-182z"/>
            <glyph unicode="&#xa2;" horiz-adv-x="1136"
                   d="M977 245l-34 173q-115 -50 -235 -50q-141 0 -229 96.5t-88 258.5q0 154 87 257q89 103 235 103q124 0 211 -48l46 177q-93 45 -223 51v209h-162v-216q-97 -18 -178.5 -65.5t-137.5 -118.5q-118 -148 -118 -357q0 -224 113 -360t321 -165v-219h162v217q130 8 230 57z"/>
            <glyph unicode="&#xa3;" horiz-adv-x="1136"
                   d="M421 195v4q97 85 127.5 183.5t20.5 246.5h284v166h-305q-25 133 -25 213q0 250 224 250q111 0 188 -44l47 182q-92 53 -242 53q-194 0 -315.5 -122t-121.5 -315q0 -94 21 -217h-190v-166h217q9 -74 9 -134q0 -114 -68 -213t-175 -150v-132h924v195h-620z"/>
            <glyph unicode="&#xa4;" horiz-adv-x="1136"
                   d="M1016 1203l49 177q-100 69 -265 69q-213 0 -355 -131.5t-192 -376.5h-159l-29 -124h169q-6 -59 -6 -120v-30q0 -11 2 -31h-136l-29 -123h176q37 -259 173.5 -398.5t354.5 -139.5q161 0 268 75l-38 171q-107 -61 -219 -61q-122 -1 -198 87.5t-105 265.5h386l29 123h-425 q-3 16 -3 34v33q0 52 5 114h462l29 124h-473q67 324 320 324q110 -2 209 -62z"/>
            <glyph unicode="&#xa5;" horiz-adv-x="1136"
                   d="M863 1424l-204 -414q-13 -30 -33.5 -77.5t-21.5 -50.5q-25 -56 -35 -89h-4q-52 131 -90 215l-197 416h-253l358 -650h-274v-123h336v-153h-336v-124h336v-374h224v374h337v124h-337v153h337v123h-274l379 650h-248z"/>
            <glyph unicode="&#xa6;" horiz-adv-x="547" d="M186 1479v-766h176v766h-176zM186 383v-766h176v766h-176z"/>
            <glyph unicode="&#xa7;" horiz-adv-x="1150"
                   d="M1037 651q0 142 -108 230q-77 65 -265 127q-139 43 -189 79q-67 40 -67 111q0 66 58.5 105.5t154.5 39.5q153 0 266 -68l48 151q-128 69 -310 69q-186 0 -306 -88t-120 -232q0 -123 83 -188q-165 -102 -165 -259q0 -67 23 -118.5t74.5 -93.5t119.5 -75t174 -71 q144 -48 199.5 -93t55.5 -114q0 -72 -63 -114.5t-163 -42.5q-171 0 -301 88l-56 -149q87 -60 211 -81.5t243.5 -3.5t200.5 69q140 92 140 259q0 122 -88 197q150 105 150 266zM846 618q0 -94 -77 -151q-100 44 -250 102q-214 79 -214 194q0 90 92 153q180 -79 270 -109 q179 -68 179 -189z"/>
            <glyph unicode="&#xa8;" horiz-adv-x="656"
                   d="M241 1334q0 52 -33 87.5t-83 35.5q-52 0 -87.5 -36t-35.5 -87q0 -50 35.5 -86t85.5 -36t84 35t34 87zM653 1334q0 52 -33 87.5t-83 35.5q-52 0 -87.5 -36t-35.5 -87t34.5 -86.5t84.5 -35.5q52 0 86 35t34 87z"/>
            <glyph unicode="&#xa9;" horiz-adv-x="1483"
                   d="M1409 745q0 279 -192 476q-192 199 -470 199q-280 0 -477 -197q-195 -199 -195 -478q0 -185 88 -341t242.5 -247.5t339.5 -91.5q184 0 337 91.5t240 247.5t87 341zM1288 745q0 -241 -153 -408q-102 -110 -245.5 -149.5t-287 -0.5t-247.5 148q-155 168 -155 405.5 t153 405.5q153 171 392 171q114 0 215.5 -45.5t173 -123t113 -182.5t41.5 -221zM1050 403l-29 95q-89 -57 -224 -57q-133 0 -213 84t-80 213q0 137 76 217t217 80q122 0 213 -53l29 99q-65 59 -242 59q-169 0 -293 -110q-82 -74 -111.5 -183t-4 -216.5t96.5 -183.5 q51 -53 129 -81.5t157 -30t153.5 16t125.5 51.5z"/>
            <glyph unicode="&#xaa;" horiz-adv-x="770"
                   d="M531 583h153q-11 74 -11 168v240q0 83 -23 145t-60.5 95.5t-86.5 51.5t-101.5 18t-104.5 -10t-96 -27.5t-76 -38.5l38 -110q76 56 188 56q69 0 110 -32.5t41 -84.5v-21h-25q-192 0 -298 -66t-106 -185q0 -94 61 -152t165 -58q130 0 214 97h4zM506 927v-107 q0 -55 -47 -92.5t-104 -37.5q-49 0 -81.5 29t-32.5 74q0 69 65 101.5t200 32.5z"/>
            <glyph unicode="&#xab;" horiz-adv-x="941" d="M515 960h-180l-276 -408l276 -408h180l-281 408zM892 960h-179l-274 -408l274 -408h179l-279 408z"/>
            <glyph unicode="&#xac;" horiz-adv-x="1305" d="M88 892v-156h968v-481h163v637h-1131z"/>
            <glyph unicode="&#xad;" horiz-adv-x="676" d="M65 671v-167h546v167h-546z"/>
            <glyph unicode="&#xae;" horiz-adv-x="1117"
                   d="M1048 1006q0 206 -141 346q-142 145 -344 145q-204 0 -350 -142q-142 -142 -142 -349q0 -135 63.5 -248.5t176.5 -180.5t250 -67q204 0 345.5 143.5t141.5 352.5zM951 1004q0 -170 -112 -289q-106 -121 -276 -121q-166 0 -278 120t-112 290q0 108 50.5 201.5t140.5 150.5 t197 57q163 0 276.5 -119.5t113.5 -289.5zM679 719h101q-19 34 -33 136q-15 120 -92 134v4q108 29 108 132q0 78 -54 117.5t-172 39.5q-74 0 -163 -15v-548h97v232h58q96 0 113 -92q17 -112 37 -140zM661 1115q0 -88 -130 -87h-60v175q21 4 64 4q126 0 126 -92z"/>
            <glyph unicode="&#xaf;" horiz-adv-x="656" d="M77 1413v-135h506v135h-506z"/>
            <glyph unicode="&#xb0;" horiz-adv-x="715"
                   d="M667 1207q0 125 -86 211q-85 83 -213 83q-132 0 -219 -88q-88 -85 -88 -215q0 -123 86 -209q88 -84 215 -84t216 88.5t89 213.5zM533 1205q0 -78 -46.5 -130t-120.5 -52q-72 0 -119.5 51t-47.5 124q0 77 46 132t119 55q76 0 122.5 -51t46.5 -129z"/>
            <glyph unicode="&#xb1;" horiz-adv-x="1305" d="M734 846v410h-162v-410h-484v-154h484v-420h162v420h485v154h-485zM88 155v-155h1131v155h-1131z"/>
            <glyph unicode="&#xb2;" horiz-adv-x="777"
                   d="M349 725v5l61 56q179 169 222 233q52 79 52 177q0 114 -82 183.5t-219 69.5q-168 0 -280 -92l50 -121q90 63 184 63q152 0 152 -136q0 -72 -49 -137q-43 -56 -219 -224l-133 -125v-94h611v142h-350z"/>
            <glyph unicode="&#xb3;" horiz-adv-x="759"
                   d="M692 830q0 81 -57 138.5t-146 70.5v4q168 57 168 195q0 98 -74 155q-50 37 -133.5 50.5t-176.5 -3t-162 -60.5l42 -120q80 55 184 55q130 0 130 -94q0 -60 -53.5 -93.5t-135.5 -33.5h-57v-117h59q95 0 156.5 -38t61.5 -102q0 -55 -47 -94q-32 -27 -86 -36t-122 4t-130 50 l-40 -130q94 -59 260 -59q158 0 259 71q100 70 100 187z"/>
            <glyph unicode="&#xb4;" horiz-adv-x="656" d="M207 1194h163l266 318h-241z"/>
            <glyph unicode="&#xb5;" horiz-adv-x="1209"
                   d="M861 0h208q-9 185 -9 307v758h-236v-674q1 -79 -70.5 -148.5t-161.5 -69.5q-106 -1 -159.5 74t-53.5 224v594h-237v-1499h218l-13 515h4q61 -100 195 -100q196 0 297 186h6z"/>
            <glyph unicode="&#xb6;" horiz-adv-x="1127"
                   d="M953 -107v1571q-89 19 -271 19q-334 1 -492 -159q-122 -128 -119 -331q1 -92 36.5 -171.5t92 -131.5t125.5 -81.5t139 -29.5h16v-686h160v1435h153v-1435h160z"/>
            <glyph unicode="&#xb7;" horiz-adv-x="487" d="M395 598q0 69 -42 113.5t-108 44.5t-108.5 -46t-42.5 -112q0 -68 41 -112.5t106 -44.5q69 0 111.5 43.5t42.5 113.5z"/>
            <glyph unicode="&#xb8;" horiz-adv-x="656"
                   d="M513 -259q0 59 -44 102.5t-109 51.5l65 111h-136l-101 -184q172 -16 172 -87q0 -41 -37.5 -57t-86 -8t-85.5 31l-34 -102q61 -40 157 -40q239 0 239 182z"/>
            <glyph unicode="&#xb9;" horiz-adv-x="726" d="M341 1437l-216 -98l28 -136l167 77v-697h184v854h-163z"/>
            <glyph unicode="&#xba;" horiz-adv-x="790"
                   d="M745 938q0 159 -93 257q-95 100 -251 100q-154 0 -255 -104q-100 -102 -100 -264q0 -156 96 -255q97 -100 253 -100q155 0 253 103q97 102 97 263zM572 933q0 -103 -47.5 -168.5t-125.5 -65.5t-129 71q-49 68 -49 159q0 97 46 167q47 72 128 72q80 0 128.5 -67t48.5 -168 z"/>
            <glyph unicode="&#xbb;" horiz-adv-x="941" d="M48 960l280 -408l-278 -408h178l276 408l-276 408h-180zM423 960l280 -408l-278 -408h177l276 408l-276 408h-179z"/>
            <glyph unicode="&#xbc;" horiz-adv-x="1693"
                   d="M322 -25h142l818 1474h-140zM305 1437l-217 -98l25 -136l167 77v-697h187v854h-162zM1493 341v522h-203l-401 -545v-101h430v-217h174v217h124v124h-124zM1321 713h5q-7 -94 -7 -148v-220h-250l178 240q14 25 44 73q20 31 30 55z"/>
            <glyph unicode="&#xbd;" horiz-adv-x="1693"
                   d="M276 -25h142l818 1474h-142zM274 1437l-217 -98l29 -136l167 77v-697h184v854h-163zM1242 142v5l64 56q174 162 223 235q51 78 51 175q0 113 -81.5 183t-218.5 70q-168 0 -283 -92l53 -121q87 66 182 66q153 0 153 -138q0 -71 -49 -138q-51 -68 -219 -224l-133 -125v-94 h611v142h-353z"/>
            <glyph unicode="&#xbe;" horiz-adv-x="1693"
                   d="M682 830q0 82 -56.5 139t-148.5 70v4q171 55 171 195q0 98 -75 154.5t-207 56.5q-155 0 -265 -71l41 -118q88 55 186 55q130 0 130 -98q0 -55 -53 -89t-135 -34h-57v-117h59q98 0 156.5 -38.5t58.5 -101.5q0 -61 -50 -97q-35 -25 -87 -33.5t-118 5t-127 49.5l-42 -130 q95 -59 259 -59t262 72.5t98 185.5zM397 -25h142l818 1474h-140zM1514 341v522h-201l-401 -545v-101h429v-217h173v217h125v124h-125zM1343 713h5q-7 -94 -7 -148v-220h-250l178 240q14 25 44 73q20 31 30 55z"/>
            <glyph unicode="&#xbf;" horiz-adv-x="902"
                   d="M669 918q0 66 -42 111t-106 45q-68 0 -110.5 -44t-42.5 -112q0 -67 42.5 -112t108.5 -45q65 0 107.5 45t42.5 112zM815 -364l-56 171q-98 -66 -218 -66q-190 0 -190 169q0 104 144 280q134 163 134 331v20q0 4 -2 18l-6 54h-209l2 -50v-15q0 -153 -119 -293 q-113 -138 -149 -212q-37 -75 -37 -166q0 -151 102.5 -240t279.5 -89q197 0 324 88z"/>
            <glyph unicode="&#xc0;" horiz-adv-x="1347"
                   d="M324 1806l281 -248h186l-201 248h-266zM523 1477l-475 -1477h245l132 434h480l138 -434h252l-478 1477h-294zM467 615l123 387q16 67 41 161q4 16 10 41.5t10.5 43.5t7.5 32h5q33 -130 46 -179q20 -75 28 -99l125 -387h-396z"/>
            <glyph unicode="&#xc1;" horiz-adv-x="1347"
                   d="M559 1556h188l281 263h-267zM523 1477l-475 -1477h245l132 434h480l138 -434h252l-478 1477h-294zM467 615l123 387q16 67 41 161q4 16 10 41.5t10.5 43.5t7.5 32h5q33 -130 46 -179q20 -75 28 -99l125 -387h-396z"/>
            <glyph unicode="&#xc2;" horiz-adv-x="1347"
                   d="M598 1819l-219 -263h175l128 155h4l125 -155h182l-224 263h-171zM523 1477l-475 -1477h245l132 434h480l138 -434h252l-478 1477h-294zM467 615l123 387q16 67 41 161q4 16 10 41.5t10.5 43.5t7.5 32h5q33 -130 46 -179q20 -75 28 -99l125 -387h-396z"/>
            <glyph unicode="&#xc3;" horiz-adv-x="1347"
                   d="M958 1808h-115q-6 -92 -61 -92q-13 0 -103 43q-88 42 -133 42q-70 0 -109.5 -55.5t-39.5 -156.5v-23h116q8 95 54 95q11 0 38 -13q29 -14 63 -27q96 -41 134 -41q82 0 119 56.5t37 171.5zM523 1477l-475 -1477h245l132 434h480l138 -434h252l-478 1477h-294zM467 615 l123 387q16 67 41 161q4 16 10 41.5t10.5 43.5t7.5 32h5q33 -130 46 -179q20 -75 28 -99l125 -387h-396z"/>
            <glyph unicode="&#xc4;" horiz-adv-x="1347"
                   d="M592 1696q0 51 -33.5 87t-83.5 36t-85 -36t-35 -87t34 -87t84 -36q53 0 86 35t33 88zM1004 1696q0 51 -33.5 87t-83.5 36t-85 -36t-35 -87t34 -87t84 -36t84.5 35.5t34.5 87.5zM523 1477l-475 -1477h245l132 434h480l138 -434h252l-478 1477h-294zM467 615l123 387 q16 67 41 161q4 16 10 41.5t10.5 43.5t7.5 32h5q33 -130 46 -179q20 -75 28 -99l125 -387h-396z"/>
            <glyph unicode="&#xc5;" horiz-adv-x="1347"
                   d="M1299 0l-467 1437q73 67 73 169q0 98 -68 168q-67 69 -166 69q-97 0 -166 -69q-68 -68 -68 -168q-2 -109 76 -173l-461 -1433h243l134 434h478l141 -434h251zM782 1606q0 -46 -32.5 -77.5t-78.5 -31.5t-79 32t-33 77q0 47 33 79.5t79 32.5t78.5 -32t32.5 -80zM467 615 l131 413q32 101 63 252h6l71 -270l128 -395h-399z"/>
            <glyph unicode="&#xc6;" horiz-adv-x="1748"
                   d="M1091 667h511v192h-542l-48 423h607v195h-973l-646 -1477h243l206 480h436l60 -480h738v195h-535zM521 671l171 405q33 76 88 233h9l24 -235l46 -403h-338z"/>
            <glyph unicode="&#xc7;" horiz-adv-x="1263"
                   d="M1135 1244l53 191q-121 64 -342 64q-169 0 -311.5 -55.5t-244.5 -158.5q-213 -213 -213 -562q0 -303 160 -500q159 -198 438 -236l-88 -165q169 -16 169 -90q0 -39 -36.5 -54.5t-84 -7.5t-85.5 31l-37 -102q65 -40 160 -40q239 0 239 178q0 63 -44.5 106.5t-111.5 51.5 l51 84q246 1 376 65l-43 188q-112 -54 -291 -54q-247 0 -385 146t-138 410q0 131 38 237q76 212 271 292q92 41 235 38.5t265 -57.5z"/>
            <glyph unicode="&#xc8;" horiz-adv-x="1086" d="M249 1819l282 -261h186l-202 261h-266zM395 195v476h550v195h-550v416h582v195h-820v-1477h851v195h-613z"/>
            <glyph unicode="&#xc9;" horiz-adv-x="1086" d="M447 1556h189l278 263h-266zM395 195v476h550v195h-550v416h582v195h-820v-1477h851v195h-613z"/>
            <glyph unicode="&#xca;" horiz-adv-x="1086" d="M485 1819l-220 -263h178l124 155h5l125 -155h181l-223 263h-170zM395 195v476h550v195h-550v416h582v195h-820v-1477h851v195h-613z"/>
            <glyph unicode="&#xcb;" horiz-adv-x="1086"
                   d="M483 1696q0 51 -33.5 87t-83.5 36t-85.5 -36.5t-35.5 -86.5q0 -51 34.5 -87t84.5 -36t84.5 35.5t34.5 87.5zM895 1696q0 51 -33.5 87t-83.5 36t-85.5 -36.5t-35.5 -86.5t34 -86.5t83 -36.5q52 0 86.5 35.5t34.5 87.5zM395 195v476h550v195h-550v416h582v195h-820v-1477 h851v195h-613z"/>
            <glyph unicode="&#xcc;" horiz-adv-x="552" d="M-65 1819l280 -261h188l-202 261h-266zM157 1477v-1477h238v1477h-238z"/>
            <glyph unicode="&#xcd;" horiz-adv-x="552" d="M149 1556h188l281 263h-267zM157 1477v-1477h238v1477h-238z"/>
            <glyph unicode="&#xce;" horiz-adv-x="552" d="M188 1819l-219 -263h178l125 155h4l125 -155h182l-223 263h-172zM157 1477v-1477h238v1477h-238z"/>
            <glyph unicode="&#xcf;" horiz-adv-x="552"
                   d="M186 1696q0 51 -32 87t-81 36q-53 0 -88 -36t-35 -87t33.5 -87t83.5 -36q53 0 86 35t33 88zM600 1696q0 51 -33.5 87t-83.5 36q-51 0 -85 -36t-34 -87t33 -87t83 -36q53 0 86.5 35.5t33.5 87.5zM157 1477v-1477h238v1477h-238z"/>
            <glyph unicode="&#xd0;" horiz-adv-x="1463"
                   d="M1385 774q0 340 -198 527q-206 192 -608 192q-214 0 -408 -31v-616h-171v-189h171v-657q136 -17 346 -17q427 0 647.5 198.5t220.5 592.5zM1135 769q0 -297 -144.5 -447.5t-425.5 -150.5q-124 0 -157 9v477h351v189h-351v444q67 16 190 16q265 0 401 -135.5t136 -401.5z "/>
            <glyph unicode="&#xd1;" horiz-adv-x="1437"
                   d="M1014 1808h-113q-12 -92 -62 -92q-18 0 -106 43q-86 42 -131 42q-72 0 -111 -61.5t-39 -173.5h115q11 95 56 95q10 0 37 -13q30 -14 64 -27q96 -41 135 -41q82 0 118.5 56t36.5 172zM1060 1477v-550q0 -335 25 -613l-4 -3q-113 258 -253 489l-407 677h-264v-1477h220v561 q0 399 -15 627l6 2q104 -237 263 -504l408 -686h243v1477h-222z"/>
            <glyph unicode="&#xd2;" horiz-adv-x="1493"
                   d="M401 1819l278 -261h189l-201 261h-266zM1418 754q0 330 -181 538q-184 209 -481 209q-149 0 -275 -57.5t-217 -161.5q-90 -104 -138.5 -246t-48.5 -308q0 -163 47.5 -301.5t135.5 -238.5q89 -102 210.5 -157.5t265.5 -55.5q309 0 499 217q183 208 183 562zM1166 745 q0 -254 -114 -415q-117 -163 -307 -163q-92 0 -170.5 43.5t-134.5 121.5q-116 162 -116 402q0 250 116 414q116 163 307 163q92 0 170.5 -43.5t134.5 -120.5q114 -160 114 -402z"/>
            <glyph unicode="&#xd3;" horiz-adv-x="1493"
                   d="M640 1556h188l281 263h-268zM1418 754q0 158 -45.5 294.5t-129 237t-209 158t-278.5 57.5q-317 0 -503 -232q-115 -143 -156.5 -341.5t-2 -394t150.5 -332.5q180 -226 491 -226q213 0 369 102.5t234.5 277t78.5 399.5zM1166 745q0 -230 -95 -385q-112 -193 -326 -193 q-80 0 -149 30.5t-118.5 84t-84.5 125.5t-52 155t-17 172q0 223 97 383q113 194 326 194q98 0 179 -47t132.5 -126.5t79.5 -180.5t28 -212z"/>
            <glyph unicode="&#xd4;" horiz-adv-x="1493"
                   d="M661 1819l-220 -263h177l127 155h4l125 -155h182l-226 263h-169zM1418 754q0 158 -45.5 294.5t-129 237t-209 158t-278.5 57.5q-317 0 -503 -232q-115 -143 -156.5 -341.5t-2 -394t150.5 -332.5q180 -226 491 -226q213 0 369 102.5t234.5 277t78.5 399.5zM1166 745 q0 -230 -95 -385q-112 -193 -326 -193q-80 0 -149 30.5t-118.5 84t-84.5 125.5t-52 155t-17 172q0 223 97 383q113 194 326 194q98 0 179 -47t132.5 -126.5t79.5 -180.5t28 -212z"/>
            <glyph unicode="&#xd5;" horiz-adv-x="1493"
                   d="M1030 1808h-114q-4 -36 -14 -57.5t-23 -30t-33.5 -5t-41 13.5t-50.5 28q-77 44 -136 44q-73 0 -113.5 -62t-37.5 -173h116q9 95 55 95q25 0 100 -42q75 -39 136 -39q160 0 156 228zM1418 754q0 158 -45.5 294.5t-129 237t-209 158t-278.5 57.5q-317 0 -503 -232 q-115 -143 -156.5 -341.5t-2 -394t150.5 -332.5q180 -226 491 -226q213 0 369 102.5t234.5 277t78.5 399.5zM1166 745q0 -230 -95 -385q-112 -193 -326 -193q-80 0 -149 30.5t-118.5 84t-84.5 125.5t-52 155t-17 172q0 223 97 383q113 194 326 194q98 0 179 -47 t132.5 -126.5t79.5 -180.5t28 -212z"/>
            <glyph unicode="&#xd6;" horiz-adv-x="1493"
                   d="M659 1696q0 51 -32.5 87t-82.5 36q-51 0 -86 -36t-35 -87t34 -87t84 -36q51 0 84.5 35.5t33.5 87.5zM1071 1696q0 51 -32.5 87t-82.5 36q-52 0 -86.5 -36t-34.5 -87t33 -87t83 -36q53 0 86.5 35.5t33.5 87.5zM1418 754q0 158 -45.5 294.5t-129 237t-209 158t-278.5 57.5 q-317 0 -503 -232q-115 -143 -156.5 -341.5t-2 -394t150.5 -332.5q180 -226 491 -226q213 0 369 102.5t234.5 277t78.5 399.5zM1166 745q0 -230 -95 -385q-112 -193 -326 -193q-80 0 -149 30.5t-118.5 84t-84.5 125.5t-52 155t-17 172q0 223 97 383q113 194 326 194 q98 0 179 -47t132.5 -126.5t79.5 -180.5t28 -212z"/>
            <glyph unicode="&#xd7;" horiz-adv-x="1305" d="M653 688l-456 464l-109 -111l453 -464l-453 -466l111 -111l454 464l453 -464l113 111l-456 466l456 464l-110 111z"/>
            <glyph unicode="&#xd8;" horiz-adv-x="1493"
                   d="M1418 751q0 337 -186 544l127 188l-138 93l-123 -175q-146 100 -344 100q-145 0 -269 -56t-216 -160q-92 -103 -142 -244.5t-50 -306.5q0 -338 195 -552l-132 -191l132 -100l131 188q149 -104 346 -104q148 0 272 56t213 159q184 214 184 561zM408 391l-5 -4 q-85 166 -85 353q0 255 118 412q58 77 138.5 119t174.5 42q138 0 238 -88zM1177 745q0 -253 -117 -417q-115 -163 -313 -163q-138 0 -232 88l576 830h5q81 -149 81 -338z"/>
            <glyph unicode="&#xd9;" horiz-adv-x="1415"
                   d="M379 1819l280 -261h187l-202 261h-265zM1023 1477v-875q0 -433 -320 -433q-150 0 -230 113t-80 320v875h-238v-862q0 -640 539 -640q276 0 421 165t145 481v856h-237z"/>
            <glyph unicode="&#xda;" horiz-adv-x="1415"
                   d="M592 1556h188l278 263h-265zM1023 1477v-875q0 -433 -320 -433q-143 0 -223 105q-87 109 -87 328v875h-238v-862q0 -640 539 -640q270 1 418 163t148 483v856h-237z"/>
            <glyph unicode="&#xdb;" horiz-adv-x="1415"
                   d="M638 1819l-220 -263h178l125 155h4l126 -155h182l-224 263h-171zM1023 1477v-875q0 -433 -320 -433q-150 0 -230 113t-80 320v875h-238v-862q0 -640 539 -640q276 0 421 165t145 481v856h-237z"/>
            <glyph unicode="&#xdc;" horiz-adv-x="1415"
                   d="M627 1696q0 51 -33.5 87t-83.5 36t-84.5 -36t-34.5 -87t33.5 -87t83.5 -36q53 0 86 35t33 88zM1039 1696q0 51 -33.5 87t-83.5 36t-85 -36t-35 -87t34 -87t84 -36t84.5 35.5t34.5 87.5zM1023 1477v-875q0 -433 -320 -433q-143 0 -223 105q-87 109 -87 328v875h-238v-862 q0 -640 539 -640q270 1 418 163t148 483v856h-237z"/>
            <glyph unicode="&#xdd;" horiz-adv-x="1204"
                   d="M510 1556h187l280 263h-264zM933 1477l-186 -388q-65 -135 -132 -300h-4q-29 74 -134 300l-184 388h-268l458 -859v-618h236v625l482 852h-268z"/>
            <glyph unicode="&#xde;" horiz-adv-x="1180"
                   d="M1100 793q0 190 -132.5 303t-382.5 113q-116 0 -194 -13v281h-234v-1477h234v326q90 -10 157 -10q260 0 406 124.5t146 352.5zM866 771q0 -127 -84 -198t-241 -71q-94 0 -150 13v495q51 15 170 15q305 2 305 -254z"/>
            <glyph unicode="&#xdf;" horiz-adv-x="1221"
                   d="M1137 333q0 107 -54 198q-42 65 -119 142q-98 101 -98 176q0 104 144 167q50 76 50 180q0 115 -54.5 202.5t-148 133.5t-209.5 46q-109 0 -197 -32.5t-157 -101.5t-107 -188t-38 -281v-975h236v989q1 402 244 402q92 0 147.5 -58t55.5 -156q0 -53 -15 -90 q-123 -63 -166 -154.5t-5.5 -197.5t149.5 -216q106 -103 106 -201q0 -70 -51.5 -115.5t-136.5 -45.5q-93 0 -174 40l-35 -180q86 -42 228 -42q188 0 296.5 97.5t108.5 260.5z"/>
            <glyph unicode="&#xe0;" horiz-adv-x="1073"
                   d="M209 1512l264 -318h165l-189 318h-240zM734 0h213q-16 79 -16 255v391q0 441 -418 441q-220 0 -366 -92l48 -156q49 32 113.5 54t132 25.5t124 -12.5t93 -67t36.5 -131v-20q-302 0 -461.5 -101t-159.5 -298q0 -137 92 -223q98 -91 234 -91q205 2 311 148h7zM701 531v-165 q0 -91 -71 -155q-69 -62 -161 -62q-73 0 -117.5 43t-44.5 124q0 112 96.5 163.5t297.5 51.5z"/>
            <glyph unicode="&#xe1;" horiz-adv-x="1073"
                   d="M412 1194h165l264 318h-241zM734 0h213q-16 87 -16 255v391q0 441 -418 441q-220 0 -366 -92l48 -156q49 32 113.5 54t132 25.5t124 -12.5t93 -67t36.5 -131v-20q-298 2 -459 -100q-77 -49 -118.5 -120.5t-44.5 -143.5t19 -138.5t64 -112.5q63 -66 165.5 -89.5t212 11.5 t177.5 128h7zM701 531v-165q0 -22 -4 -42q-15 -76 -81.5 -125.5t-146.5 -49.5q-73 0 -117.5 43t-44.5 124q-1 110 98 164t296 51z"/>
            <glyph unicode="&#xe2;" horiz-adv-x="1073"
                   d="M449 1512l-206 -318h163l117 197h6l119 -197h165l-211 318h-153zM734 0h213q-16 79 -16 255v391q0 441 -418 441q-220 0 -366 -92l48 -156q49 32 113.5 54t132 25.5t124 -12.5t93 -67t36.5 -131v-20q-302 0 -461.5 -101t-159.5 -298q0 -137 92 -223q98 -91 234 -91 q205 2 311 148h7zM701 531v-165q0 -91 -71 -155q-69 -62 -161 -62q-73 0 -117.5 43t-44.5 124q0 112 96.5 163.5t297.5 51.5z"/>
            <glyph unicode="&#xe3;" horiz-adv-x="1073"
                   d="M805 1466h-113q-6 -92 -56 -92q-11 0 -44 14q-4 2 -28.5 12.5t-39.5 16.5q-98 42 -125 42q-73 0 -111.5 -63t-38.5 -171h115q6 99 57 99q11 0 40 -13q5 -2 28 -12.5t36 -16.5q95 -42 126 -42q80 0 117 55.5t37 170.5zM734 0h213q-16 79 -16 255v391q0 441 -418 441 q-220 0 -366 -92l48 -156q49 32 113.5 54t132 25.5t124 -12.5t93 -67t36.5 -131v-20q-302 0 -461.5 -101t-159.5 -298q0 -137 92 -223q98 -91 234 -91q205 2 311 148h7zM701 531v-165q0 -91 -71 -155q-69 -62 -161 -62q-73 0 -117.5 43t-44.5 124q0 112 96.5 163.5 t297.5 51.5z"/>
            <glyph unicode="&#xe4;" horiz-adv-x="1073"
                   d="M449 1334q0 52 -33 87.5t-83 35.5q-51 0 -86.5 -36t-35.5 -87t34.5 -86.5t85.5 -35.5q50 0 84 35t34 87zM861 1334q0 52 -33 87.5t-83 35.5q-53 0 -87.5 -35.5t-34.5 -87.5q0 -51 33.5 -86.5t83.5 -35.5q53 0 87 35t34 87zM734 0h213q-16 87 -16 255v391q0 441 -418 441 q-220 0 -366 -92l48 -156q49 32 113.5 54t132 25.5t124 -12.5t93 -67t36.5 -131v-20q-298 2 -459 -100q-77 -49 -118.5 -120.5t-44.5 -143.5t19 -138.5t64 -112.5q63 -66 165.5 -89.5t212 11.5t177.5 128h7zM701 531v-165q0 -22 -4 -42q-15 -76 -81.5 -125.5t-146.5 -49.5 q-73 0 -117.5 43t-44.5 124q-1 110 98 164t296 51z"/>
            <glyph unicode="&#xe5;" horiz-adv-x="1073"
                   d="M745 1378q0 88 -61 149.5t-149 61.5t-147 -61q-62 -64 -62 -150q0 -82 62 -146q59 -61 147 -61q86 0 149 61q61 59 61 146zM629 1378q0 -37 -27.5 -64.5t-66.5 -27.5q-37 0 -64.5 27.5t-27.5 64.5q0 39 27.5 66.5t64.5 27.5q40 0 67 -27t27 -67zM734 0h213 q-16 80 -16 255v391q0 441 -418 441q-220 0 -366 -92l48 -156q49 32 113.5 54t132 25.5t124 -12.5t93 -67t36.5 -131v-20q-303 0 -462 -101t-159 -298q0 -137 92 -223q93 -87 234 -87q201 0 311 144h7zM701 531v-165q0 -91 -71 -155q-69 -62 -161 -62q-73 0 -117.5 43 t-44.5 124q0 112 96.5 163.5t297.5 51.5z"/>
            <glyph unicode="&#xe6;" horiz-adv-x="1686"
                   d="M1612 587q0 223 -113 361q-117 141 -305 141q-240 0 -362 -206h-4q-78 206 -339 206q-180 0 -342 -96l52 -154q115 79 270 79q104 0 167 -57t63 -142v-42q-303 0 -464.5 -97.5t-161.5 -288.5q0 -138 95 -225t244 -87q275 -2 388 218h7q47 -106 153 -161q72 -38 176 -52 t219 3t205 65l-40 165q-134 -57 -282 -57t-233 87.5t-85 243.5l686 -2q6 53 6 98zM1389 657h-469q5 113 73 189q71 81 175 81q102 0 161.5 -76.5t59.5 -193.5zM703 523v-144q0 -101 -66 -162q-69 -66 -166 -66q-75 0 -120.5 44t-45.5 114q0 214 366 214h32z"/>
            <glyph unicode="&#xe7;" horiz-adv-x="961"
                   d="M910 35l-38 176q-109 -44 -215 -44q-151 0 -242 99q-95 101 -95 267q0 163 90 264q93 104 247 104q118 0 206 -46l47 182q-117 50 -257 50q-259 0 -417 -158q-157 -157 -157 -406q0 -219 115 -362q116 -144 312 -174l-88 -165q169 -16 169 -87q0 -41 -37 -57t-84.5 -8 t-84.5 31l-36 -102q64 -40 157 -40q238 0 238 182q0 61 -44 103.5t-109 50.5l51 84q172 5 272 56z"/>
            <glyph unicode="&#xe8;" horiz-adv-x="1097"
                   d="M276 1512l265 -318h164l-188 318h-241zM1025 583q0 229 -118 367q-122 139 -324 139q-227 0 -366 -163q-66 -77 -102 -183t-36 -226q0 -247 140 -390q143 -146 390 -146q204 0 357 65l-37 165q-133 -51 -287 -51q-152 0 -241.5 83t-93.5 232h709q9 40 9 108zM800 644 h-493q11 125 82 202.5t176 77.5q112 0 173.5 -76t61.5 -204z"/>
            <glyph unicode="&#xe9;" horiz-adv-x="1097"
                   d="M467 1194h164l266 318h-240zM1025 583q0 103 -26.5 192.5t-78.5 160.5t-139 112t-198 41q-152 0 -268 -77t-176 -206.5t-60 -288.5q0 -244 140 -392q141 -144 390 -144q204 0 357 65l-37 165q-132 -51 -287 -51q-148 -1 -239.5 80.5t-95.5 234.5h709q9 40 9 108zM800 644 h-493q9 108 70 184q71 96 188 96q80 0 136 -41.5t79.5 -103.5t19.5 -135z"/>
            <glyph unicode="&#xea;" horiz-adv-x="1097"
                   d="M500 1512l-209 -318h163l118 197h5l120 -197h164l-210 318h-151zM1025 583q0 229 -118 367q-122 139 -324 139q-227 0 -366 -163q-66 -77 -102 -183t-36 -226q0 -247 140 -390q143 -146 390 -146q204 0 357 65l-37 165q-133 -51 -287 -51q-152 0 -241.5 83t-93.5 232h709 q9 40 9 108zM800 644h-493q11 125 82 202.5t176 77.5q112 0 173.5 -76t61.5 -204z"/>
            <glyph unicode="&#xeb;" horiz-adv-x="1097"
                   d="M502 1334q0 52 -34 87.5t-85 35.5q-50 0 -85 -36t-35 -87t34 -86.5t84 -35.5q53 0 87 35t34 87zM914 1334q0 51 -34.5 87t-84.5 36t-85 -36t-35 -87t34 -86.5t84 -35.5q53 0 87 35t34 87zM1025 583q0 229 -118 367q-122 139 -324 139q-227 0 -366 -163q-66 -77 -102 -183 t-36 -226q0 -247 140 -390q143 -146 390 -146q204 0 357 65l-37 165q-133 -51 -287 -51q-152 0 -241.5 83t-93.5 232h709q9 40 9 108zM800 644h-493q11 125 82 202.5t176 77.5q112 0 173.5 -76t61.5 -204z"/>
            <glyph unicode="&#xec;" horiz-adv-x="533" d="M-61 1512l264 -318h165l-188 318h-241zM149 1065v-1065h236v1065h-236z"/>
            <glyph unicode="&#xed;" horiz-adv-x="533" d="M160 1194h164l266 318h-241zM149 1065v-1065h236v1065h-236z"/>
            <glyph unicode="&#xee;" horiz-adv-x="533" d="M190 1512l-205 -318h159l121 197h5l117 -197h165l-207 318h-155zM149 1065v-1065h236v1065h-236z"/>
            <glyph unicode="&#xef;" horiz-adv-x="533"
                   d="M182 1334q0 52 -33.5 87.5t-85.5 35.5q-50 0 -86 -36t-36 -87q0 -50 35 -86t85 -36q52 0 86.5 35t34.5 87zM594 1334q0 51 -34.5 87t-84.5 36t-85 -36t-35 -87t34 -86.5t84 -35.5q53 0 87 35t34 87zM149 1065v-1065h236v1065h-236z"/>
            <glyph unicode="&#xf0;" horiz-adv-x="1187"
                   d="M1109 556q0 238 -93 423q-95 195 -269 340l228 105l-53 106l-282 -132q-134 94 -312 175l-104 -140q132 -63 217 -122l-244 -115l48 -105l305 141q142 -105 230 -245l-4 -8q-87 75 -204 75q-102 0 -192.5 -39t-156.5 -111q-142 -155 -142 -385q0 -245 144 -395 q141 -149 365 -149q230 0 374 158q145 159 145 423zM861 531q0 -171 -72 -274q-74 -106 -197 -106q-117 0 -194 108q-76 106 -76 262q0 159 75 270q76 110 199 110q122 0 191 -80q74 -90 74 -290z"/>
            <glyph unicode="&#xf1;" horiz-adv-x="1217"
                   d="M889 1466h-109q-6 -92 -57 -92q-13 0 -111 43q-98 42 -125 42q-73 0 -112.5 -63t-39.5 -171h114q7 99 57 99q12 0 41 -13q5 -2 28 -12.5t36 -16.5q92 -42 125 -42q80 0 116.5 55.5t36.5 170.5zM1074 0v638q0 212 -99.5 330.5t-271.5 118.5q-110 0 -199.5 -49.5 t-137.5 -136.5h-6l-11 164h-209q9 -200 9 -304v-761h236v633q0 104 67 184q67 78 171 78q214 -1 214 -284v-611h237z"/>
            <glyph unicode="&#xf2;" horiz-adv-x="1198"
                   d="M295 1512l266 -318h164l-188 318h-242zM1122 541q0 241 -141 395q-67 72 -163 111.5t-209 39.5q-241 0 -387 -157q-143 -155 -143 -407q0 -117 36 -218.5t103 -173.5q145 -156 374 -156q116 0 215 41.5t169 117.5q146 159 146 407zM876 535q0 -162 -76 -271 q-79 -113 -202 -113q-122 0 -201 108q-77 105 -77 272q0 166 76 275q75 108 204 108q125 0 201 -108q75 -108 75 -271z"/>
            <glyph unicode="&#xf3;" horiz-adv-x="1198"
                   d="M480 1194h164l266 318h-241zM1122 541q0 237 -135 390q-94 102 -238.5 138.5t-289 -1t-238.5 -139.5q-142 -160 -142 -406q0 -240 141.5 -394t371.5 -154q159 0 280 73t185.5 201t64.5 292zM876 535q0 -101 -31 -186.5t-95.5 -141.5t-151.5 -56q-89 0 -154 55.5 t-94.5 140t-29.5 184.5q0 102 29.5 187t94.5 140.5t156 55.5q88 0 152.5 -55.5t94 -140t29.5 -183.5z"/>
            <glyph unicode="&#xf4;" horiz-adv-x="1198"
                   d="M521 1512l-205 -318h161l119 197h4l121 -197h164l-210 318h-154zM1122 541q0 237 -135 390q-94 102 -238.5 138.5t-289 -1t-238.5 -139.5q-142 -160 -142 -406q0 -240 141.5 -394t371.5 -154q159 0 280 73t185.5 201t64.5 292zM876 535q0 -101 -31 -186.5t-95.5 -141.5 t-151.5 -56q-89 0 -154 55.5t-94.5 140t-29.5 184.5q0 102 29.5 187t94.5 140.5t156 55.5q88 0 152.5 -55.5t94 -140t29.5 -183.5z"/>
            <glyph unicode="&#xf5;" horiz-adv-x="1198"
                   d="M878 1466h-111q-6 -92 -57 -92q-27 0 -97 37q-88 48 -140 48q-71 0 -111 -64t-38 -170h115q6 99 54 99q23 0 94 -38q82 -46 138 -46q156 0 153 226zM1122 541q0 237 -135 390q-94 102 -238.5 138.5t-289 -1t-238.5 -139.5q-142 -160 -142 -406q0 -240 141.5 -394 t371.5 -154q159 0 280 73t185.5 201t64.5 292zM876 535q0 -101 -31 -186.5t-95.5 -141.5t-151.5 -56q-89 0 -154 55.5t-94.5 140t-29.5 184.5q0 102 29.5 187t94.5 140.5t156 55.5q88 0 152.5 -55.5t94 -140t29.5 -183.5z"/>
            <glyph unicode="&#xf6;" horiz-adv-x="1198"
                   d="M513 1334q0 52 -33 87.5t-83 35.5q-52 0 -87.5 -36t-35.5 -87t34.5 -86.5t86.5 -35.5q50 0 84 35t34 87zM924 1334q0 52 -33 87.5t-84 35.5t-86 -36t-35 -87t34 -86.5t85 -35.5t85 35t34 87zM1122 541q0 237 -135 390q-94 102 -238.5 138.5t-289 -1t-238.5 -139.5 q-142 -160 -142 -406q0 -240 141.5 -394t371.5 -154q159 0 280 73t185.5 201t64.5 292zM876 535q0 -101 -31 -186.5t-95.5 -141.5t-151.5 -56q-89 0 -154 55.5t-94.5 140t-29.5 184.5q0 102 29.5 187t94.5 140.5t156 55.5q88 0 152.5 -55.5t94 -140t29.5 -183.5z"/>
            <glyph unicode="&#xf7;" horiz-adv-x="1305"
                   d="M782 968q0 59 -35 96.5t-92 37.5q-59 0 -95.5 -37.5t-36.5 -96.5q0 -57 36 -95t92 -38q59 0 95 37.5t36 95.5zM86 661v-153h1131v153h-1131zM780 199q0 59 -35.5 97.5t-91.5 38.5q-59 0 -95.5 -38t-36.5 -98q0 -57 35.5 -94.5t91.5 -37.5q60 0 96 36.5t36 95.5z"/>
            <glyph unicode="&#xf8;" horiz-adv-x="1198"
                   d="M1122 539q0 255 -164 410l96 140l-98 66l-93 -136q-115 68 -258 68h-3q-234 0 -378 -155q-145 -158 -145 -403q-1 -264 166 -418l-92 -136l92 -71l96 140q108 -69 259 -69q230 0 374 157q148 161 148 407zM377 299h-5q-61 94 -61 232q0 164 79 275q78 108 210 108 q98 0 161 -57zM895 531q0 -84 -21 -153q-42 -139 -155 -198q-39 -20 -85 -27t-97 6t-90 48l383 552h5q60 -99 60 -228z"/>
            <glyph unicode="&#xf9;" horiz-adv-x="1209"
                   d="M301 1512l262 -318h165l-189 318h-238zM861 0h208q-9 185 -9 307v758h-236v-651q0 -113 -72 -182q-65 -61 -162 -61q-106 -1 -158.5 75.5t-52.5 230.5v588h-237v-626q0 -224 93 -344q37 -48 96.5 -78.5t129 -38t139.5 6.5t135 60t108 118h6z"/>
            <glyph unicode="&#xfa;" horiz-adv-x="1209"
                   d="M500 1194h164l265 318h-241zM861 0h208q-9 185 -9 307v758h-236v-651q0 -52 -15 -90q-20 -50 -60.5 -87.5t-88 -55t-97.5 -10t-91 38.5t-67 100t-26 167v588h-237v-626q2 -244 113 -364q47 -50 124 -76.5t160.5 -23.5t167 51t136.5 137h6z"/>
            <glyph unicode="&#xfb;" horiz-adv-x="1209"
                   d="M526 1512l-206 -318h163l117 197h5l120 -197h164l-210 318h-153zM861 0h208q-9 185 -9 307v758h-236v-651q0 -113 -72 -182q-65 -61 -162 -61q-106 -1 -158.5 75.5t-52.5 230.5v588h-237v-626q0 -224 93 -344q37 -48 96.5 -78.5t129 -38t139.5 6.5t135 60t108 118h6z"/>
            <glyph unicode="&#xfc;" horiz-adv-x="1209"
                   d="M523 1334q0 52 -32.5 87.5t-82.5 35.5q-53 0 -88 -35.5t-35 -87.5q0 -51 34.5 -86.5t86.5 -35.5q50 0 83.5 35t33.5 87zM935 1334q0 52 -33 87.5t-85 35.5q-50 0 -85 -36t-35 -87t34 -86.5t84 -35.5q53 0 86.5 35t33.5 87zM861 0h208q-9 185 -9 307v758h-236v-651 q0 -52 -15 -90q-20 -50 -60.5 -87.5t-88 -55t-97.5 -10t-91 38.5t-67 100t-26 167v588h-237v-626q2 -244 113 -364q47 -50 124 -76.5t160.5 -23.5t167 51t136.5 137h6z"/>
            <glyph unicode="&#xfd;" horiz-adv-x="1051"
                   d="M439 1194h163l266 318h-241zM607 473l-59 -212h-4q-44 154 -64 210l-202 594h-261l386 -979q13 -36 13 -51q0 -12 -17 -48q-54 -108 -138.5 -177t-170.5 -92l57 -201q139 26 261 134q168 153 361 675l270 739h-253z"/>
            <glyph unicode="&#xfe;" horiz-adv-x="1244"
                   d="M1166 544q0 238 -126 393q-58 71 -137.5 110.5t-166.5 39.5q-237 0 -345 -177h-6v560h-236v-1904h236v561h6q98 -152 303 -152t337 157q135 161 135 412zM924 539q0 -172 -75 -274t-203 -102q-107 0 -180 68q-81 74 -81 192v198q0 113 82 198q78 80 184 80 q122 0 200 -103q73 -96 73 -257z"/>
            <glyph unicode="&#xff;" horiz-adv-x="1051"
                   d="M462 1334q0 52 -32.5 87.5t-82.5 35.5q-53 0 -88 -35.5t-35 -87.5q0 -51 35 -86.5t86 -35.5q50 0 83.5 35t33.5 87zM874 1334q0 52 -33 87.5t-85 35.5q-51 0 -85.5 -36t-34.5 -87t34 -86.5t84 -35.5q53 0 86.5 35t33.5 87zM786 1065l-179 -592q-17 -54 -35 -123 q-14 -57 -24 -89h-4q-44 154 -64 210l-202 594h-261l386 -979q13 -36 13 -51q0 -6 -17 -48q-49 -103 -131.5 -173.5t-177.5 -95.5l57 -201q134 22 261 134q169 156 361 675l270 739h-253z"/>
            <glyph unicode="&#x100;" horiz-adv-x="1347"
                   d="M403 1608h538v140h-538v-140zM523 1477l-475 -1477h245l132 434h480l138 -434h252l-478 1477h-294zM467 615l123 387q16 67 41 161q4 16 10 41.5t10.5 43.5t7.5 32h5q33 -130 46 -179q20 -75 28 -99l125 -387h-396z"/>
            <glyph unicode="&#x101;" horiz-adv-x="1073"
                   d="M285 1282h510v142h-510v-142zM734 0h213q-16 87 -16 255v391q0 441 -418 441q-220 0 -366 -92l48 -156q49 32 113.5 54t132 25.5t124 -12.5t93 -67t36.5 -131v-20q-298 2 -459 -100q-77 -49 -118.5 -120.5t-44.5 -143.5t19 -138.5t64 -112.5q63 -66 165.5 -89.5t212 11.5 t177.5 128h7zM701 531v-165q0 -22 -4 -42q-15 -76 -81.5 -125.5t-146.5 -49.5q-73 0 -117.5 43t-44.5 124q-1 110 98 164t296 51z"/>
            <glyph unicode="&#x102;" horiz-adv-x="1347"
                   d="M519 1801h-132q4 -112 73 -178.5t209 -66.5t210 67t74 178h-131q-23 -105 -153 -105q-125 0 -150 105zM523 1477l-475 -1477h245l132 434h480l138 -434h252l-478 1477h-294zM467 615l123 387q16 67 41 161q4 16 10 41.5t10.5 43.5t7.5 32h5q33 -130 46 -179 q20 -75 28 -99l125 -387h-396z"/>
            <glyph unicode="&#x103;" horiz-adv-x="1073"
                   d="M802 1495h-123q-11 -143 -146 -143q-120 0 -140 143h-125q0 -126 70.5 -197t196.5 -71q123 0 195 73t72 195zM734 0h213q-16 79 -16 255v391q0 441 -418 441q-220 0 -366 -92l48 -156q49 32 113.5 54t132 25.5t124 -12.5t93 -67t36.5 -131v-20q-302 0 -461.5 -101 t-159.5 -298q0 -137 92 -223q98 -91 234 -91q205 2 311 148h7zM701 531v-165q0 -91 -71 -155q-69 -62 -161 -62q-73 0 -117.5 43t-44.5 124q0 112 96.5 163.5t297.5 51.5z"/>
            <glyph unicode="&#x104;" horiz-adv-x="1347"
                   d="M523 1477l-475 -1477h245l132 434h480l136 -430q-52 -71 -71 -106q-43 -83 -43 -155q0 -96 64.5 -148.5t167.5 -52.5q108 0 177 55l-34 116q-44 -20 -99 -20q-51 0 -82.5 32.5t-31.5 86.5q0 48 38 108q22 36 59 78l109 2l-478 1477h-294zM467 615l123 387q16 67 41 161 q4 16 10 41.5t10.5 43.5t7.5 32h5q33 -130 46 -179q20 -75 28 -99l125 -387h-396z"/>
            <glyph unicode="&#x105;" horiz-adv-x="1073"
                   d="M874 0h73q-16 87 -16 255v391q0 441 -418 441q-220 0 -366 -92l48 -156q49 32 113.5 54t132 25.5t124 -12.5t93 -67t36.5 -131v-20q-298 2 -459 -100q-77 -49 -118.5 -120.5t-44.5 -143.5t19 -138.5t64 -112.5q63 -66 165.5 -89.5t212 11.5t177.5 128h7l17 -121 q-26 -35 -59 -108q-35 -75 -35 -157q0 -96 55.5 -146.5t150.5 -50.5q112 0 197 59l-37 119q-43 -23 -99 -23q-47 0 -76 29.5t-29 82.5q0 88 72 193zM701 531v-165q0 -22 -4 -42q-15 -76 -81.5 -125.5t-146.5 -49.5q-73 0 -117.5 43t-44.5 124q-1 110 98 164t296 51z"/>
            <glyph unicode="&#x106;" horiz-adv-x="1250"
                   d="M655 1560h191l276 261h-269zM1135 1244l53 191q-119 64 -342 64q-168 0 -310 -54.5t-243.5 -154t-158.5 -245.5t-57 -322q0 -345 201 -548q197 -194 529 -194q241 0 374 63l-41 188q-116 -54 -291 -54q-247 0 -385 146.5t-138 409.5q0 269 149 423q67 69 157.5 105.5 t181.5 39t173 -12.5t148 -45z"/>
            <glyph unicode="&#x107;" horiz-adv-x="961"
                   d="M449 1205h166l268 320h-241zM863 857l47 180q-114 50 -257 50q-262 0 -418 -158.5t-156 -407.5t144.5 -395.5t387.5 -146.5q183 0 294 54l-33 178q-109 -44 -215 -44q-151 0 -242 99q-95 101 -95 267q0 163 90 264q93 104 247 104q113 0 206 -44z"/>
            <glyph unicode="&#x108;" horiz-adv-x="1250"
                   d="M554 1926l-207 -318h161l119 198h4l120 -198h165l-211 318h-151zM1135 1244l53 191q-119 64 -342 64q-168 0 -310 -54.5t-243.5 -154t-158.5 -245.5t-57 -322q0 -345 201 -548q197 -194 529 -194q241 0 374 63l-41 188q-116 -54 -291 -54q-247 0 -385 146.5t-138 409.5 q0 269 149 423q67 69 157.5 105.5t181.5 39t173 -12.5t148 -45z"/>
            <glyph unicode="&#x109;" horiz-adv-x="961"
                   d="M416 1514l-207 -318h161l119 198h4l120 -198h165l-211 318h-151zM863 857l47 180q-114 50 -257 50q-262 0 -418 -158.5t-156 -407.5t144.5 -395.5t387.5 -146.5q183 0 294 54l-33 178q-109 -44 -215 -44q-151 0 -242 99q-95 101 -95 267q0 163 90 264q93 104 247 104 q113 0 206 -44z"/>
            <glyph unicode="&#x10a;" horiz-adv-x="1250"
                   d="M751 1731q0 52 -33 87.5t-85 35.5q-50 0 -85 -36t-35 -87t34 -87t84 -36q53 0 86.5 35.5t33.5 87.5zM1135 1244l53 191q-119 64 -342 64q-168 0 -310 -54.5t-243.5 -154t-158.5 -245.5t-57 -322q0 -345 201 -548q197 -194 529 -194q241 0 374 63l-41 188 q-116 -54 -291 -54q-247 0 -385 146.5t-138 409.5q0 269 149 423q67 69 157.5 105.5t181.5 39t173 -12.5t148 -45z"/>
            <glyph unicode="&#x10b;" horiz-adv-x="961"
                   d="M613 1319q0 52 -33 87.5t-85 35.5q-50 0 -85.5 -36t-35.5 -87t34.5 -87t84.5 -36q53 0 86.5 35.5t33.5 87.5zM863 857l47 180q-114 50 -257 50q-262 0 -418 -158.5t-156 -407.5t144.5 -395.5t387.5 -146.5q183 0 294 54l-33 178q-109 -44 -215 -44q-151 0 -242 99 q-95 101 -95 267q0 163 90 264q93 104 247 104q113 0 206 -44z"/>
            <glyph unicode="&#x10c;" horiz-adv-x="1250"
                   d="M1089 1815h-182l-127 -147h-4l-132 147h-184l226 -257h180zM1135 1244l53 191q-119 64 -342 64q-168 0 -310 -54.5t-243.5 -154t-158.5 -245.5t-57 -322q0 -345 201 -548q197 -194 529 -194q241 0 374 63l-41 188q-116 -54 -291 -54q-247 0 -385 146.5t-138 409.5 q0 269 149 423q67 69 157.5 105.5t181.5 39t173 -12.5t148 -45z"/>
            <glyph unicode="&#x10d;" horiz-adv-x="961"
                   d="M863 1525h-169l-122 -204h-5l-122 204h-171l213 -320h166zM863 857l47 180q-114 50 -257 50q-262 0 -418 -158.5t-156 -407.5t144.5 -395.5t387.5 -146.5q183 0 294 54l-33 178q-109 -44 -215 -44q-151 0 -242 99q-95 101 -95 267q0 163 90 264q93 104 247 104 q113 0 206 -44z"/>
            <glyph unicode="&#x10e;" horiz-adv-x="1449"
                   d="M991 1817h-182l-127 -147h-5l-131 147h-184l225 -257h180zM1372 774q0 351 -209 532.5t-598 181.5q-214 0 -408 -31v-1453q150 -17 347 -17q410 0 629 186q239 200 239 601zM1122 767q0 -290 -146.5 -441t-421.5 -151q-120 0 -159 7v1104q71 16 190 16q265 0 401 -137.5 t136 -397.5z"/>
            <glyph unicode="&#x10f;" horiz-adv-x="1255"
                   d="M1201 1196l98 -71q51 35 88 90q62 93 62 201q0 52 -22.5 98t-52.5 64l-160 -33q59 -66 59 -144q0 -97 -72 -205zM885 0h211q-9 112 -9 287v1267h-236v-611h-5q-86 144 -300 144q-192 0 -329 -149q-138 -162 -138 -419q0 -243 128 -392q62 -75 155.5 -114.5t187 -38 t181.5 52t137 144.5h6zM851 627v-178q-2 -113 -69 -194q-67 -88 -186 -88q-131 0 -205 105q-73 98 -73 257q0 163 75 269q74 105 207 105q90 0 157 -57.5t86 -144.5q8 -32 8 -74z"/>
            <glyph unicode="&#x110;" horiz-adv-x="1449"
                   d="M1372 774q0 351 -209 532.5t-598 181.5q-214 0 -408 -31v-611h-157v-185h157v-657q150 -17 347 -17q410 0 629 186q239 200 239 601zM1122 767q0 -290 -146.5 -441t-421.5 -151q-120 0 -159 7v479h376v185h-376v440q71 16 190 16q265 0 401 -137.5t136 -397.5z"/>
            <glyph unicode="&#x111;" horiz-adv-x="1235"
                   d="M885 0h211q-9 112 -9 287v914h191v140h-191v213h-236v-213h-402v-140h402v-258h-5q-86 144 -300 144q-192 0 -329 -149q-138 -162 -138 -419q0 -243 128 -392q62 -75 155.5 -114.5t187 -38t181.5 52t137 144.5h6zM851 627v-178q-2 -113 -69 -194q-67 -88 -186 -88 q-131 0 -205 105q-73 98 -73 257q0 163 75 269q74 105 207 105q90 0 157 -57.5t86 -144.5q8 -32 8 -74z"/>
            <glyph unicode="&#x112;" horiz-adv-x="1086" d="M305 1608h536v140h-536v-140zM395 195v476h550v195h-550v416h582v195h-820v-1477h851v195h-613z"/>
            <glyph unicode="&#x113;" horiz-adv-x="1097"
                   d="M324 1282h511v142h-511v-142zM1025 583q0 103 -26.5 192.5t-78.5 160.5t-139 112t-198 41q-152 0 -268 -77t-176 -206.5t-60 -288.5q0 -244 140 -392q141 -144 390 -144q204 0 357 65l-37 165q-132 -51 -287 -51q-148 -1 -239.5 80.5t-95.5 234.5h709q9 40 9 108z M800 644h-493q9 108 70 184q71 96 188 96q80 0 136 -41.5t79.5 -103.5t19.5 -135z"/>
            <glyph unicode="&#x114;" horiz-adv-x="1086"
                   d="M851 1854h-123q-4 -46 -25 -79t-50.5 -48t-64 -15t-65 15t-53.5 48.5t-29 78.5h-125q0 -126 70.5 -196.5t196.5 -70.5q124 0 196 72.5t72 194.5zM395 195v476h550v195h-550v416h582v195h-820v-1477h851v195h-613z"/>
            <glyph unicode="&#x115;" horiz-adv-x="1097"
                   d="M820 1466h-123q-10 -142 -147 -142q-121 0 -140 142h-125q0 -126 70.5 -197t196.5 -71q124 0 196 73t72 195zM1025 583q0 103 -26.5 192.5t-78.5 160.5t-139 112t-198 41q-152 0 -268 -77t-176 -206.5t-60 -288.5q0 -244 140 -392q141 -144 390 -144q204 0 357 65 l-37 165q-132 -51 -287 -51q-148 -1 -239.5 80.5t-95.5 234.5h709q9 40 9 108zM800 644h-493q9 108 70 184q71 96 188 96q80 0 136 -41.5t79.5 -103.5t19.5 -135z"/>
            <glyph unicode="&#x116;" horiz-adv-x="1086"
                   d="M541 1571h3q49 0 84.5 38t35.5 87q0 51 -34 87t-84 36q-54 0 -89.5 -36t-35.5 -87q0 -49 35.5 -87t84.5 -38zM395 195v476h550v195h-550v416h582v195h-820v-1477h851v195h-613z"/>
            <glyph unicode="&#x117;" horiz-adv-x="1097"
                   d="M572 1234h3q53 0 86 36.5t33 88.5q0 54 -34 90.5t-85 36.5q-54 0 -90 -36.5t-36 -90.5q0 -51 36 -88t87 -37zM1025 583q0 103 -26.5 192.5t-78.5 160.5t-139 112t-198 41q-152 0 -268 -77t-176 -206.5t-60 -288.5q0 -244 140 -392q141 -144 390 -144q204 0 357 65 l-37 165q-132 -51 -287 -51q-148 -1 -239.5 80.5t-95.5 234.5h709q9 40 9 108zM800 644h-493q9 108 70 184q71 96 188 96q80 0 136 -41.5t79.5 -103.5t19.5 -135z"/>
            <glyph unicode="&#x118;" horiz-adv-x="1086"
                   d="M395 195v476h550v195h-550v416h582v195h-820v-1477h623q-64 -41 -113 -109q-56 -78 -56 -165q0 -91 55.5 -138.5t155.5 -47.5q112 0 194 52l-34 121q-46 -18 -95 -18q-45 0 -70.5 21t-25.5 60q0 59 55 123q54 63 118 99l44 2v195h-613z"/>
            <glyph unicode="&#x119;" horiz-adv-x="1097"
                   d="M1025 583q0 103 -26.5 192.5t-78.5 160.5t-139 112t-198 41q-152 0 -268 -77t-176 -206.5t-60 -288.5q0 -244 140 -392q141 -144 390 -144h27v-2q-67 -57 -103 -108q-53 -77 -53 -151q0 -83 55.5 -130.5t150.5 -47.5q119 0 195 59l-38 117q-48 -23 -100 -23q-36 0 -61 22 t-25 64q0 61 64 135q62 70 136 93l109 37l-37 165q-132 -51 -287 -51q-148 -1 -239.5 80.5t-95.5 234.5h709q9 40 9 108zM800 644h-493q9 108 70 184q71 96 188 96q80 0 136 -41.5t79.5 -103.5t19.5 -135z"/>
            <glyph unicode="&#x11a;" horiz-adv-x="1086" d="M883 1813h-182l-126 -148h-6l-130 148h-184l225 -257h179zM395 195v476h550v195h-550v416h582v195h-820v-1477h851v195h-613z"/>
            <glyph unicode="&#x11b;" horiz-adv-x="1097"
                   d="M849 1525h-170l-123 -204h-4l-123 204h-170l212 -320h167zM1025 583q0 103 -26.5 192.5t-78.5 160.5t-139 112t-198 41q-152 0 -268 -77t-176 -206.5t-60 -288.5q0 -244 140 -392q141 -144 390 -144q204 0 357 65l-37 165q-132 -51 -287 -51q-148 -1 -239.5 80.5 t-95.5 234.5h709q9 40 9 108zM800 644h-493q9 108 70 184q71 96 188 96q80 0 136 -41.5t79.5 -103.5t19.5 -135z"/>
            <glyph unicode="&#x11c;" horiz-adv-x="1410"
                   d="M607 1920l-208 -318h162l118 197h5l121 -197h163l-209 318h-152zM793 797v-186h270v-400q-66 -31 -214 -31q-242 0 -382.5 148t-140.5 410q0 264 151 412q151 143 395 143q193 0 322 -61l53 192q-138 69 -371 69q-361 0 -581 -211q-106 -102 -162.5 -253t-57 -304.5 t52.5 -301.5t154 -245q95 -92 229 -141t272 -53t267 17t240 64v732h-497z"/>
            <glyph unicode="&#x11d;" horiz-adv-x="1221"
                   d="M504 1514l-209 -318h163l119 198h4l120 -198h165l-211 318h-151zM866 918h-5q-96 169 -311 169q-96 0 -182 -40t-150 -111.5t-101.5 -177.5t-37.5 -232q-1 -226 124 -373t318 -147q215 0 314 163h4v-104q1 -337 -313 -337q-169 0 -302 82l-55 -182q137 -84 357 -84 q254 0 394 128q154 136 154 481v610q0 151 9 302h-209zM837 644v-188q0 -58 -13 -96q-27 -81 -89 -128.5t-141 -47.5q-125 0 -200.5 98t-75.5 253q0 168 77 269t199 101q106 0 176 -77q67 -73 67 -184z"/>
            <glyph unicode="&#x11e;" horiz-adv-x="1410"
                   d="M1054 1819h-130q-3 -44 -32.5 -73t-70 -36t-82 0t-74 36.5t-40.5 72.5h-132q0 -105 66 -169q72 -74 217 -74q130 0 204 65.5t74 177.5zM793 797v-186h270v-400q-66 -31 -214 -31q-242 0 -382.5 148t-140.5 410q0 264 151 412q151 143 395 143q193 0 322 -61l53 192 q-138 69 -371 69q-361 0 -581 -211q-106 -102 -162.5 -253t-57 -304.5t52.5 -301.5t154 -245q95 -92 229 -141t272 -53t267 17t240 64v732h-497z"/>
            <glyph unicode="&#x11f;" horiz-adv-x="1221"
                   d="M878 1495h-122q-11 -143 -147 -143q-120 0 -140 143h-124q0 -116 61 -186q67 -82 205 -82q124 0 195.5 73t71.5 195zM866 918h-5q-96 169 -311 169q-96 0 -182 -40t-150 -111.5t-101.5 -177.5t-37.5 -232q-1 -226 124 -373t318 -147q215 0 314 163h4v-104 q1 -337 -313 -337q-169 0 -302 82l-55 -182q137 -84 357 -84q254 0 394 128q154 136 154 481v610q0 151 9 302h-209zM837 644v-188q0 -58 -13 -96q-27 -81 -89 -128.5t-141 -47.5q-125 0 -200.5 98t-75.5 253q0 168 77 269t199 101q106 0 176 -77q67 -73 67 -184z"/>
            <glyph unicode="&#x120;" horiz-adv-x="1410"
                   d="M805 1725q0 51 -34 86.5t-85 35.5q-50 0 -85.5 -36t-35.5 -86q0 -51 34.5 -87t84.5 -36q52 0 86.5 35t34.5 88zM793 797v-186h270v-400q-66 -31 -214 -31q-242 0 -382.5 148t-140.5 410q0 264 151 412q151 143 395 143q193 0 322 -61l53 192q-138 69 -371 69 q-361 0 -581 -211q-106 -102 -162.5 -253t-57 -304.5t52.5 -301.5t154 -245q95 -92 229 -141t272 -53t267 17t240 64v732h-497z"/>
            <glyph unicode="&#x121;" horiz-adv-x="1221"
                   d="M701 1319q0 52 -33 87.5t-85 35.5q-50 0 -85.5 -36t-35.5 -87t34.5 -87t84.5 -36q51 0 85.5 35.5t34.5 87.5zM866 918h-5q-96 169 -311 169q-96 0 -182 -40t-150 -111.5t-101.5 -177.5t-37.5 -232q-1 -226 124 -373t318 -147q215 0 314 163h4v-104q1 -337 -313 -337 q-169 0 -302 82l-55 -182q137 -84 357 -84q254 0 394 128q154 136 154 481v610q0 151 9 302h-209zM837 644v-188q0 -58 -13 -96q-27 -81 -89 -128.5t-141 -47.5q-125 0 -200.5 98t-75.5 253q0 168 77 269t199 101q106 0 176 -77q67 -73 67 -184z"/>
            <glyph unicode="&#x122;" horiz-adv-x="1410"
                   d="M793 797v-186h270v-400q-66 -31 -214 -31q-242 0 -382.5 148t-140.5 410q0 264 151 412q151 143 395 143q193 0 322 -61l53 192q-138 69 -371 69q-361 0 -581 -211q-106 -102 -162.5 -253t-57 -304.5t52.5 -301.5t154 -245q95 -92 229 -141t272 -53t267 17t240 64v732 h-497zM602 -395l42 -105q127 5 210 63q93 64 93 184q0 101 -88 165l-171 -33q31 -25 52 -60.5t21 -71.5q0 -59 -45.5 -94t-113.5 -48z"/>
            <glyph unicode="&#x123;" horiz-adv-x="1221"
                   d="M797 1470l-38 94q-131 -5 -210 -58q-95 -63 -95 -174q0 -47 25 -88.5t62 -68.5l164 30q-74 64 -74 127q0 109 166 138zM866 918h-5q-96 169 -311 169q-96 0 -182 -40t-150 -111.5t-101.5 -177.5t-37.5 -232q-1 -226 124 -373t318 -147q215 0 314 163h4v-104 q1 -337 -313 -337q-169 0 -302 82l-55 -182q137 -84 357 -84q254 0 394 128q154 136 154 481v610q0 151 9 302h-209zM837 644v-188q0 -58 -13 -96q-27 -81 -89 -128.5t-141 -47.5q-125 0 -200.5 98t-75.5 253q0 168 77 269t199 101q106 0 176 -77q67 -73 67 -184z"/>
            <glyph unicode="&#x124;" horiz-adv-x="1428" d="M638 1905l-209 -318h163l118 197h5l120 -197h164l-210 318h-151zM1035 1477v-603h-640v603h-238v-1477h238v667h640v-667h236v1477h-236z"/>
            <glyph unicode="&#x125;" horiz-adv-x="1217"
                   d="M535 1981l-209 -318h163l118 198h4l121 -198h165l-211 318h-151zM1074 0v633q0 115 -29 203.5t-80 142.5t-115.5 81t-139.5 27q-208 0 -319 -173h-6v640h-236v-1554h236v642q1 45 12 86q20 54 61 94t89.5 58.5t100 12.5t93.5 -35.5t69 -94.5t27 -156v-607h237z"/>
            <glyph unicode="&#x126;" horiz-adv-x="1428"
                   d="M1271 1302v175h-236v-175h-640v175h-238v-175h-157v-177h157v-1125h238v667h640v-667h236v1125h160v177h-160zM395 1125h640v-251h-640v251z"/>
            <glyph unicode="&#x127;" horiz-adv-x="1217"
                   d="M385 1411v143h-236v-143h-149v-177h149v-1234h236v642q1 45 12 86q20 54 61 94t89.5 58.5t100 12.5t93.5 -35.5t69 -94.5t27 -156v-607h237v633q0 115 -29 203.5t-80 142.5t-115.5 81t-139.5 27q-208 0 -319 -173h-6v320h263v177h-263z"/>
            <glyph unicode="&#x128;" horiz-adv-x="552"
                   d="M556 1808h-113q-8 -92 -62 -92q-16 0 -104 43q-86 42 -133 42q-68 0 -108 -56t-40 -156v-23h115q11 95 56 95q10 0 37 -13q30 -14 64 -27q96 -41 133 -41q82 0 118.5 56t36.5 172zM157 1477v-1477h238v1477h-238z"/>
            <glyph unicode="&#x129;" horiz-adv-x="533"
                   d="M541 1466h-110q-6 -92 -57 -92q-8 0 -41 14q-8 3 -31.5 13t-37.5 16q-100 42 -126 42q-73 0 -112 -63t-39 -171h114q6 99 56 99q13 0 42 -13q41 -20 63 -29q92 -42 125 -42q81 0 117.5 55t36.5 171zM149 1065v-1065h236v1065h-236z"/>
            <glyph unicode="&#x12a;" horiz-adv-x="552" d="M9 1608h537v140h-537v-140zM157 1477v-1477h238v1477h-238z"/>
            <glyph unicode="&#x12b;" horiz-adv-x="533" d="M13 1282h510v142h-510v-142zM149 1065v-1065h236v1065h-236z"/>
            <glyph unicode="&#x12c;" horiz-adv-x="552"
                   d="M544 1854h-123q-4 -46 -25 -79t-50.5 -48t-64 -15t-65 15t-53.5 48.5t-29 78.5h-125q0 -126 70.5 -196.5t196.5 -70.5q124 0 196 72.5t72 194.5zM157 1477v-1477h238v1477h-238z"/>
            <glyph unicode="&#x12d;" horiz-adv-x="533"
                   d="M535 1442h-123q-4 -46 -25 -79t-50.5 -48t-64 -15t-65 15t-53.5 48.5t-29 78.5h-125q0 -126 70 -196.5t198 -70.5q124 0 195.5 72.5t71.5 194.5zM149 1065v-1065h236v1065h-236z"/>
            <glyph unicode="&#x12e;" horiz-adv-x="552"
                   d="M157 1477v-1477q-30 -45 -59 -112q-35 -82 -35 -151q0 -99 58 -150t159 -51q123 0 193 54l-36 117q-41 -18 -98 -18q-52 0 -83.5 30.5t-31.5 85.5q0 81 75 195h96v1477h-238z"/>
            <glyph unicode="&#x12f;" horiz-adv-x="533"
                   d="M412 1382q0 60 -42 100.5t-102 40.5q-61 0 -103 -40.5t-42 -100.5q0 -61 40.5 -101.5t99.5 -40.5q65 0 107 39.5t42 102.5zM149 1065v-1065q-29 -42 -58 -110q-34 -81 -34 -153q0 -97 57 -149t158 -52q120 0 192 54l-35 117q-38 -18 -98 -18q-51 0 -82.5 31.5t-31.5 84.5 q3 81 76 195h92v1065h-236z"/>
            <glyph unicode="&#x130;" horiz-adv-x="552"
                   d="M397 1696q0 51 -33.5 87t-85.5 36q-50 0 -85.5 -36.5t-35.5 -86.5q0 -51 34.5 -87t84.5 -36q52 0 86.5 35.5t34.5 87.5zM157 1477v-1477h238v1477h-238z"/>
            <glyph unicode="&#x131;" horiz-adv-x="533" d="M149 1065v-1065h236v1065h-236z"/>
            <glyph unicode="&#x132;" horiz-adv-x="1376"
                   d="M157 1477v-1477h238v1477h-238zM997 1477v-964q-1 -188 -66 -268q-37 -44 -102 -60t-126 -10t-116 26l-31 -190q86 -36 213 -36q465 0 465 527v975h-237z"/>
            <glyph unicode="&#x133;" horiz-adv-x="1092"
                   d="M412 1382q0 60 -42 100.5t-102 40.5q-61 0 -103 -40.5t-42 -100.5q0 -61 40.5 -101.5t99.5 -40.5q65 0 107 39.5t42 102.5zM975 1382q0 61 -41 101t-102 40q-63 0 -104.5 -40t-41.5 -101t40.5 -101.5t101.5 -40.5q64 0 105.5 39.5t41.5 102.5zM149 1065v-1065h236v1065 h-236zM713 1065v-887q0 -300 -71 -377q-58 -68 -201 -79l23 -186q232 4 351 123q134 131 134 444v962h-236z"/>
            <glyph unicode="&#x134;" horiz-adv-x="823"
                   d="M471 1905l-208 -318h162l119 197h4l121 -197h163l-209 318h-152zM445 1477v-964q-1 -188 -66 -268q-37 -44 -102 -60t-126 -10t-116 26l-31 -190q86 -36 213 -36q465 0 465 527v975h-237z"/>
            <glyph unicode="&#x135;" horiz-adv-x="558"
                   d="M209 1512l-209 -318h163l117 197h5l121 -197h163l-209 318h-151zM178 1065v-887q0 -300 -71 -377q-58 -68 -201 -79l23 -186q233 4 351 123q134 131 134 444v962h-236z"/>
            <glyph unicode="&#x136;" horiz-adv-x="1219"
                   d="M1201 1477h-291l-402 -532q-56 -78 -109 -161h-6v693h-236v-1477h236v537l133 157l432 -694h278l-544 849zM447 -391l42 -104q126 5 209 63q93 65 93 183q0 53 -25 96.5t-61 66.5l-170 -33q70 -62 70 -130q0 -60 -44.5 -94.5t-113.5 -47.5z"/>
            <glyph unicode="&#x137;" horiz-adv-x="1062"
                   d="M1033 1065h-284l-274 -352q-46 -59 -84 -123h-6v964h-236v-1554h236v377l90 110l322 -487h290l-447 627zM364 -395l42 -105q126 5 209 63q93 65 93 184q0 53 -24.5 95.5t-60.5 69.5l-171 -33q69 -65 69 -132q0 -59 -44.5 -94t-112.5 -48z"/>
            <glyph unicode="&#x138;" horiz-adv-x="1062" d="M1033 1065h-284l-274 -352q-46 -59 -84 -123h-6v475h-236v-1065h236v377l90 110l322 -487h290l-447 627z"/>
            <glyph unicode="&#x139;" horiz-adv-x="1042" d="M178 1558h190l276 261h-270zM395 199v1278h-238v-1477h840v199h-602z"/>
            <glyph unicode="&#x13a;" horiz-adv-x="533" d="M134 1624h190l276 260h-269zM149 1554v-1554h236v1554h-236z"/>
            <glyph unicode="&#x13b;" horiz-adv-x="1042"
                   d="M395 199v1278h-238v-1477h840v199h-602zM357 -391l42 -104q126 5 209 63q93 64 93 183q0 53 -25 96.5t-61 66.5l-170 -33q70 -62 70 -130q0 -60 -44.5 -94.5t-113.5 -47.5z"/>
            <glyph unicode="&#x13c;" horiz-adv-x="533"
                   d="M149 1554v-1554h236v1554h-236zM65 -395l42 -105q127 5 210 63q93 64 93 184q0 52 -24.5 95t-61.5 70l-171 -33q71 -61 71 -132q0 -59 -45.5 -94t-113.5 -48z"/>
            <glyph unicode="&#x13d;" horiz-adv-x="1042"
                   d="M552 1196l40 -105q130 7 212 63q93 65 93 185q0 100 -88 164l-171 -33q31 -25 51.5 -60.5t20.5 -70.5q0 -59 -45 -94.5t-113 -48.5zM395 199v1278h-238v-1477h840v199h-602z"/>
            <glyph unicode="&#x13e;" horiz-adv-x="554"
                   d="M473 1196l110 -71q57 54 82 90q58 84 58 194q0 56 -23 103t-52 66l-161 -33q61 -71 61 -144q0 -99 -75 -205zM149 1554v-1554h236v1554h-236z"/>
            <glyph unicode="&#x13f;" horiz-adv-x="1042"
                   d="M395 199v1278h-238v-1477h840v199h-602zM938 887q0 68 -41.5 113t-107.5 45q-65 0 -107 -46t-42 -112q0 -68 40.5 -112.5t105.5 -44.5q69 0 110.5 43t41.5 114z"/>
            <glyph unicode="&#x140;" horiz-adv-x="880"
                   d="M149 1554v-1554h236v1554h-236zM851 887q0 68 -42 113t-108 45q-64 0 -106.5 -46t-42.5 -112q0 -68 41 -112.5t106 -44.5q68 0 110 43t42 114z"/>
            <glyph unicode="&#x141;" horiz-adv-x="1053" d="M406 199v524l282 204v177l-282 -203v576h-237v-737l-175 -127v-176l175 128v-565h839v199h-602z"/>
            <glyph unicode="&#x142;" horiz-adv-x="554" d="M397 951v603h-237v-780l-147 -126v-179l147 123v-592h237v769l153 132v182z"/>
            <glyph unicode="&#x143;" horiz-adv-x="1437"
                   d="M581 1558h193l274 261h-270zM1060 1477v-550q0 -335 25 -613l-4 -3q-113 258 -253 489l-407 677h-264v-1477h220v561q0 399 -15 627l6 2q104 -237 263 -504l408 -686h243v1477h-222z"/>
            <glyph unicode="&#x144;" horiz-adv-x="1217"
                   d="M483 1209h165l268 321h-241zM1074 0v638q0 113 -30 201t-82 141t-118 80t-141 27q-119 0 -214 -59q-75 -43 -123 -127h-6l-11 164h-209q9 -200 9 -304v-761h236v633q0 104 67 184q67 78 171 78q214 -1 214 -284v-611h237z"/>
            <glyph unicode="&#x145;" horiz-adv-x="1437"
                   d="M1060 1477v-550q0 -335 25 -613l-4 -3q-113 258 -253 489l-407 677h-264v-1477h220v561q0 399 -15 627l6 2q104 -237 263 -504l408 -686h243v1477h-222zM541 -391l42 -107q124 7 209 66q93 64 93 183q0 103 -85 163l-171 -33q70 -62 70 -130q0 -60 -44.5 -94.5 t-113.5 -47.5z"/>
            <glyph unicode="&#x146;" horiz-adv-x="1217"
                   d="M1074 0v638q0 113 -30 201t-82 141t-118 80t-141 27q-119 0 -214 -59q-75 -43 -123 -127h-6l-11 164h-209q9 -200 9 -304v-761h236v633q0 104 67 184q67 78 171 78q214 -1 214 -284v-611h237zM427 -393l42 -107q122 5 210 65q92 64 92 182q0 53 -24.5 97.5t-60.5 67.5 l-171 -33q70 -62 70 -132q0 -58 -44.5 -92.5t-113.5 -47.5z"/>
            <glyph unicode="&#x147;" horiz-adv-x="1437"
                   d="M1056 1804h-180l-129 -148h-4l-132 148h-184l226 -257h179zM1060 1477v-550q0 -335 25 -613l-4 -3q-113 258 -253 489l-407 677h-264v-1477h220v561q0 399 -15 627l6 2q104 -237 263 -504l408 -686h243v1477h-222z"/>
            <glyph unicode="&#x148;" horiz-adv-x="1217"
                   d="M914 1525h-169l-122 -204h-5l-125 204h-171l213 -320h168zM1074 0v638q0 113 -30 201t-82 141t-118 80t-141 27q-119 0 -214 -59q-75 -43 -123 -127h-6l-11 164h-209q9 -200 9 -304v-761h236v633q0 104 67 184q67 78 171 78q214 -1 214 -284v-611h237z"/>
            <glyph unicode="&#x149;" horiz-adv-x="1447"
                   d="M437 1516l-234 -21q-43 -275 -138 -537l148 15q130 216 224 543zM1304 0v638q0 113 -30 201t-82 141t-118 80t-141 27q-119 0 -214 -59q-75 -43 -123 -127h-6l-11 164h-209q9 -200 9 -304v-761h236v633q0 104 67 184q67 78 171 78q214 -1 214 -284v-611h237z"/>
            <glyph unicode="&#x14a;" horiz-adv-x="1437"
                   d="M1060 1477v-550q0 -335 25 -613l-4 -3q-113 258 -253 489l-407 677h-264v-1477h220v561q0 399 -15 627l6 2q104 -237 263 -504l406 -684q-18 -154 -71 -212t-192 -68l23 -186q230 4 345.5 117t135.5 347h4v1477h-222z"/>
            <glyph unicode="&#x14b;" horiz-adv-x="1217"
                   d="M1074 0v638q0 113 -30 201t-82 141t-118 80t-141 27q-119 0 -214 -59q-75 -43 -123 -127h-6l-11 164h-209q9 -200 9 -304v-761h236v633q0 104 67 184q67 78 171 78q214 -1 214 -284v-477q-3 -104 -14.5 -174t-30.5 -115.5t-53 -71t-73.5 -36.5t-100.5 -15l25 -186 q230 4 345 117t134 347h5z"/>
            <glyph unicode="&#x14c;" horiz-adv-x="1493"
                   d="M480 1615h536v140h-536v-140zM1418 754q0 158 -45.5 294.5t-129 237t-209 158t-278.5 57.5q-317 0 -503 -232q-115 -143 -156.5 -341.5t-2 -394t150.5 -332.5q180 -226 491 -226q213 0 369 102.5t234.5 277t78.5 399.5zM1166 745q0 -230 -95 -385q-112 -193 -326 -193 q-80 0 -149 30.5t-118.5 84t-84.5 125.5t-52 155t-17 172q0 223 97 383q113 194 326 194q98 0 179 -47t132.5 -126.5t79.5 -180.5t28 -212z"/>
            <glyph unicode="&#x14d;" horiz-adv-x="1198"
                   d="M347 1282h510v142h-510v-142zM1122 541q0 237 -135 390q-94 102 -238.5 138.5t-289 -1t-238.5 -139.5q-142 -160 -142 -406q0 -240 141.5 -394t371.5 -154q159 0 280 73t185.5 201t64.5 292zM876 535q0 -101 -31 -186.5t-95.5 -141.5t-151.5 -56q-89 0 -154 55.5 t-94.5 140t-29.5 184.5q0 102 29.5 187t94.5 140.5t156 55.5q88 0 152.5 -55.5t94 -140t29.5 -183.5z"/>
            <glyph unicode="&#x14e;" horiz-adv-x="1493"
                   d="M1014 1878h-122q-10 -142 -147 -142q-121 0 -140 142h-125q0 -126 70.5 -197t196.5 -71q124 0 195.5 73t71.5 195zM1418 754q0 158 -45.5 294.5t-129 237t-209 158t-278.5 57.5q-317 0 -503 -232q-115 -143 -156.5 -341.5t-2 -394t150.5 -332.5q180 -226 491 -226 q213 0 369 102.5t234.5 277t78.5 399.5zM1166 745q0 -230 -95 -385q-112 -193 -326 -193q-80 0 -149 30.5t-118.5 84t-84.5 125.5t-52 155t-17 172q0 223 97 383q113 194 326 194q98 0 179 -47t132.5 -126.5t79.5 -180.5t28 -212z"/>
            <glyph unicode="&#x14f;" horiz-adv-x="1198"
                   d="M868 1464h-123q-11 -143 -147 -143q-120 0 -140 143h-125q0 -126 70.5 -197t196.5 -71q124 0 196 73t72 195zM1122 541q0 237 -135 390q-94 102 -238.5 138.5t-289 -1t-238.5 -139.5q-142 -160 -142 -406q0 -240 141.5 -394t371.5 -154q159 0 280 73t185.5 201t64.5 292z M876 535q0 -101 -31 -186.5t-95.5 -141.5t-151.5 -56q-89 0 -154 55.5t-94.5 140t-29.5 184.5q0 102 29.5 187t94.5 140.5t156 55.5q88 0 152.5 -55.5t94 -140t29.5 -183.5z"/>
            <glyph unicode="&#x150;" horiz-adv-x="1493"
                   d="M508 1573h169l237 250h-241zM855 1573h168l240 250h-244zM1418 754q0 158 -45.5 294.5t-129 237t-209 158t-278.5 57.5q-317 0 -503 -232q-115 -143 -156.5 -341.5t-2 -394t150.5 -332.5q180 -226 491 -226q213 0 369 102.5t234.5 277t78.5 399.5zM1166 745 q0 -230 -95 -385q-112 -193 -326 -193q-80 0 -149 30.5t-118.5 84t-84.5 125.5t-52 155t-17 172q0 223 97 383q113 194 326 194q98 0 179 -47t132.5 -126.5t79.5 -180.5t28 -212z"/>
            <glyph unicode="&#x151;" horiz-adv-x="1198"
                   d="M333 1217h142l233 308h-213zM669 1217h142l232 308h-213zM1122 541q0 237 -135 390q-94 102 -238.5 138.5t-289 -1t-238.5 -139.5q-142 -160 -142 -406q0 -240 141.5 -394t371.5 -154q159 0 280 73t185.5 201t64.5 292zM876 535q0 -101 -31 -186.5t-95.5 -141.5 t-151.5 -56q-89 0 -154 55.5t-94.5 140t-29.5 184.5q0 102 29.5 187t94.5 140.5t156 55.5q88 0 152.5 -55.5t94 -140t29.5 -183.5z"/>
            <glyph unicode="&#x152;" horiz-adv-x="1947"
                   d="M1253 195v476h548v192h-548v419h581v195h-712q-64 0 -161 12t-164 12q-324 0 -520 -208q-200 -213 -200 -565q0 -339 194 -544q198 -209 518 -209q46 0 158 14q101 11 153 11h767v195h-614zM1016 1278v-1083q-62 -28 -188 -28q-233 0 -366 156q-136 160 -136 415 q0 259 134 417q132 156 349 156q121 0 207 -33z"/>
            <glyph unicode="&#x153;" horiz-adv-x="1859"
                   d="M1786 585q0 231 -115 366q-119 138 -316 138q-254 0 -376 -230h-4q-51 110 -152 170t-233 60q-224 0 -367 -154q-144 -155 -144 -406q0 -247 140 -400q137 -150 356 -150q279 0 398 228h4q47 -87 124.5 -142t162 -73t175 -15t166 23.5t131.5 51.5l-40 165 q-147 -57 -283 -57q-145 0 -233.5 85.5t-90.5 234.5h690q7 43 7 105zM1560 644h-475q9 126 76 202t171 76q110 0 169 -75t59 -203zM866 535q0 -162 -71 -272q-72 -110 -199 -110q-120 0 -198 112q-76 108 -76 268q0 171 74 276t198 105q129 0 200.5 -102.5t71.5 -276.5z"/>
            <glyph unicode="&#x154;" horiz-adv-x="1200"
                   d="M449 1562h191l276 261h-270zM910 0h245q-19 36 -51 153q-20 71 -63 255q-59 236 -209 293v4q123 46 196.5 143t73.5 231q0 195 -135.5 302t-425.5 107q-220 0 -384 -31v-1457h236v621h146q119 0 181 -61t93 -209q31 -150 55 -231q24 -87 42 -120zM866 1054 q0 -119 -83 -189t-224 -70h-166v498q49 16 170 16q303 -6 303 -255z"/>
            <glyph unicode="&#x155;" horiz-adv-x="742"
                   d="M293 1194h165l265 318h-240zM713 857v226q-25 4 -60 4q-89 0 -170 -57q-81 -60 -119 -169h-7l-8 204h-207q9 -130 9 -335l-2 -730h236v559q1 133 66.5 218.5t186.5 85.5q38 0 75 -6z"/>
            <glyph unicode="&#x156;" horiz-adv-x="1200"
                   d="M910 0h245q-19 36 -51 153q-20 71 -63 255q-59 236 -209 293v4q123 46 196.5 143t73.5 231q0 195 -135.5 302t-425.5 107q-220 0 -384 -31v-1457h236v621h146q119 0 181 -61t93 -209q31 -150 55 -231q24 -87 42 -120zM866 1054q0 -119 -83 -189t-224 -70h-166v498 q49 16 170 16q303 -6 303 -255zM434 -381l41 -108q124 5 210 65q93 64 93 183q0 99 -86 164l-171 -32q71 -65 71 -132q0 -59 -44.5 -93t-113.5 -47z"/>
            <glyph unicode="&#x157;" horiz-adv-x="742"
                   d="M713 857v226q-25 4 -60 4q-89 0 -170 -57q-81 -60 -119 -169h-7l-8 204h-207q9 -130 9 -335l-2 -730h236v559q1 133 66.5 218.5t186.5 85.5q38 0 75 -6zM94 -395l42 -105q128 5 209 63q94 65 94 184q0 52 -25.5 95t-62.5 70l-171 -33q31 -25 52 -60.5t21 -71.5 q0 -59 -45.5 -94t-113.5 -48z"/>
            <glyph unicode="&#x158;" horiz-adv-x="1200"
                   d="M907 1817h-182l-127 -147h-4l-132 147h-184l226 -257h180zM910 0h245q-19 36 -51 153q-20 71 -63 255q-59 236 -209 293v4q123 46 196.5 143t73.5 231q0 195 -135.5 302t-425.5 107q-220 0 -384 -31v-1457h236v621h146q119 0 181 -61t93 -209q31 -150 55 -231 q24 -87 42 -120zM866 1054q0 -119 -83 -189t-224 -70h-166v498q49 16 170 16q303 -6 303 -255z"/>
            <glyph unicode="&#x159;" horiz-adv-x="742"
                   d="M688 1525h-169l-122 -204h-4l-123 204h-172l213 -320h166zM713 857v226q-25 4 -60 4q-89 0 -170 -57q-81 -60 -119 -169h-7l-8 204h-207q9 -130 9 -335l-2 -730h236v559q1 133 66.5 218.5t186.5 85.5q38 0 75 -6z"/>
            <glyph unicode="&#x15a;" horiz-adv-x="1092"
                   d="M443 1562h193l274 261h-270zM1006 414q0 152 -88.5 255.5t-281.5 181.5q-159 63 -215 113q-68 56 -68 145q0 77 59 133q66 63 210.5 61.5t266.5 -67.5l60 192q-137 71 -336 71q-223 0 -361.5 -115.5t-138.5 -298.5q1 -279 389 -424q144 -52 204.5 -112t60.5 -152 q0 -103 -75 -162.5t-207 -59.5q-190 0 -343 93l-54 -197q145 -92 383 -92q251 -1 393 120t142 315z"/>
            <glyph unicode="&#x15b;" horiz-adv-x="880"
                   d="M326 1194h165l265 318h-241zM800 307q0 217 -277 322q-109 39 -144 72q-44 38 -44 90q0 56 42 90.5t116 34.5q117 0 217 -61l51 168q-115 64 -270 64q-172 0 -278 -92q-44 -38 -72.5 -89.5t-33.5 -112.5t17.5 -120.5t91 -117t177.5 -97.5q99 -36 139 -75.5t40 -97.5 q0 -134 -181 -134q-140 0 -262 75l-50 -176q127 -71 308 -71q193 0 303 88t110 240z"/>
            <glyph unicode="&#x15c;" horiz-adv-x="1092"
                   d="M469 1926l-208 -318h162l118 198h5l121 -198h163l-209 318h-152zM1006 414q0 152 -88.5 255.5t-281.5 181.5q-159 63 -215 113q-68 56 -68 145q0 77 59 133q66 63 210.5 61.5t266.5 -67.5l60 192q-137 71 -336 71q-223 0 -361.5 -115.5t-138.5 -298.5q1 -279 389 -424 q144 -52 204.5 -112t60.5 -152q0 -103 -75 -162.5t-207 -59.5q-190 0 -343 93l-54 -197q145 -92 383 -92q251 -1 393 120t142 315z"/>
            <glyph unicode="&#x15d;" horiz-adv-x="880"
                   d="M362 1514l-209 -318h163l118 198h5l120 -198h164l-210 318h-151zM800 307q0 217 -277 322q-109 39 -144 72q-44 38 -44 90q0 56 42 90.5t116 34.5q117 0 217 -61l51 168q-115 64 -270 64q-172 0 -278 -92q-44 -38 -72.5 -89.5t-33.5 -112.5t17.5 -120.5t91 -117 t177.5 -97.5q99 -36 139 -75.5t40 -97.5q0 -134 -181 -134q-140 0 -262 75l-50 -176q127 -71 308 -71q193 0 303 88t110 240z"/>
            <glyph unicode="&#x15e;" horiz-adv-x="1092"
                   d="M1006 414q0 152 -88.5 255.5t-281.5 181.5q-159 63 -215 113q-68 56 -68 145q0 77 59 133q66 63 210.5 61.5t266.5 -67.5l60 192q-137 71 -336 71q-223 0 -361.5 -115.5t-138.5 -298.5q1 -279 389 -424q144 -52 204.5 -112t60.5 -152q0 -103 -75 -162.5t-207 -59.5 q-190 0 -343 93l-54 -197q145 -92 383 -92h6l-84 -157q169 -17 170 -87q0 -41 -37 -57t-85 -8t-86 31l-35 -102q61 -40 157 -40q240 0 240 182q0 61 -44.5 103t-109.5 51l52 96q155 25 259 116q132 119 132 307z"/>
            <glyph unicode="&#x15f;" horiz-adv-x="880"
                   d="M800 307q0 217 -277 322q-109 39 -144 72q-44 38 -44 90q0 56 42 90.5t116 34.5q117 0 217 -61l51 168q-115 64 -270 64q-172 0 -278 -92q-44 -38 -72.5 -89.5t-33.5 -112.5t17.5 -120.5t91 -117t177.5 -97.5q99 -36 139 -75.5t40 -97.5q0 -134 -181 -134q-140 0 -262 75 l-50 -176q119 -70 285 -71l-84 -157q168 -15 169 -87q0 -41 -37 -57t-84.5 -8t-84.5 31l-36 -102q64 -40 157 -40q238 0 238 182q0 61 -44 103.5t-109 50.5l53 92q59 10 110.5 33t94.5 61t68 96t25 130z"/>
            <glyph unicode="&#x160;" horiz-adv-x="1092"
                   d="M887 1821h-182l-126 -146h-4l-132 146h-184l226 -257h179zM1006 414q0 152 -88.5 255.5t-281.5 181.5q-159 63 -215 113q-68 56 -68 145q0 77 59 133q66 63 210.5 61.5t266.5 -67.5l60 192q-137 71 -336 71q-223 0 -361.5 -115.5t-138.5 -298.5q1 -279 389 -424 q144 -52 204.5 -112t60.5 -152q0 -103 -75 -162.5t-207 -59.5q-190 0 -343 93l-54 -197q145 -92 383 -92q251 -1 393 120t142 315z"/>
            <glyph unicode="&#x161;" horiz-adv-x="880"
                   d="M743 1530h-166l-125 -204h-5l-123 204h-171l213 -321h167zM800 307q0 217 -277 322q-109 39 -144 72q-44 38 -44 90q0 56 42 90.5t116 34.5q117 0 217 -61l51 168q-115 64 -270 64q-172 0 -278 -92q-44 -38 -72.5 -89.5t-33.5 -112.5t17.5 -120.5t91 -117t177.5 -97.5 q99 -36 139 -75.5t40 -97.5q0 -134 -181 -134q-140 0 -262 75l-50 -176q127 -71 308 -71q193 0 303 88t110 240z"/>
            <glyph unicode="&#x162;" horiz-adv-x="1104"
                   d="M632 0l-63 -105q65 -8 109.5 -51.5t44.5 -102.5q0 -182 -238 -182q-98 0 -159 40l36 102q37 -23 85 -31t85 8t37 57q0 70 -170 87l98 178h-66v1278h-420v199h1083v-199h-423v-1278h-39z"/>
            <glyph unicode="&#x163;" horiz-adv-x="742"
                   d="M425 887v-517q0 -197 138 -197q54 0 106 11l6 -180q-40 -15 -98 -23l-51 -86q65 -8 109 -51t44 -103q0 -182 -238 -182q-97 0 -159 40l36 102q37 -23 85 -31t85.5 8t37.5 57q0 71 -171 87l88 160q-112 17 -171 82q-79 85 -79 287v536h-156v178h156v195l232 70v-265h261 v-178h-261z"/>
            <glyph unicode="&#x164;" horiz-adv-x="1104" d="M866 1810h-182l-128 -147h-4l-131 147h-185l226 -256h180zM11 1477v-199h420v-1278h240v1278h423v199h-1083z"/>
            <glyph unicode="&#x165;" horiz-adv-x="751"
                   d="M579 1278l63 -90q71 27 121 78q74 78 74 176q0 48 -22.5 90t-51.5 61l-163 -31q57 -54 57 -127q0 -51 -22.5 -92.5t-55.5 -64.5zM425 1065v265l-232 -70v-195h-156v-178h156v-536q0 -202 79 -287q37 -40 93.5 -62t113.5 -24t107.5 5t88.5 21l-6 180q-52 -11 -106 -11 q-138 0 -138 197v517h261v178h-261z"/>
            <glyph unicode="&#x166;" horiz-adv-x="1104" d="M671 920v358h423v199h-1083v-199h420v-358h-197v-177h197v-743h240v743h212v177h-212z"/>
            <glyph unicode="&#x167;" horiz-adv-x="742"
                   d="M425 657v230h261v178h-261v265l-232 -70v-195h-156v-178h156v-230h-156v-177h156v-129q0 -202 79 -287q37 -40 93.5 -62t113.5 -24t107.5 5t88.5 21l-6 180q-52 -11 -106 -11q-138 0 -138 197v110h261v177h-261z"/>
            <glyph unicode="&#x168;" horiz-adv-x="1415"
                   d="M989 1808h-115q-6 -92 -61 -92q-16 0 -104 43q-86 42 -132 42q-70 0 -110 -56t-40 -156v-23h117q8 95 54 95q11 0 38 -13q28 -14 63 -27q96 -41 133 -41q83 0 120 56t37 172zM1023 1477v-875q0 -433 -320 -433q-150 0 -230 113t-80 320v875h-238v-862q0 -640 539 -640 q276 0 421 165t145 481v856h-237z"/>
            <glyph unicode="&#x169;" horiz-adv-x="1209"
                   d="M881 1466h-110q-6 -92 -56 -92q-10 0 -43 14q-8 3 -31.5 13t-37.5 16q-100 42 -126 42q-73 0 -112 -63.5t-39 -170.5h115q6 99 57 99q11 0 40 -13q30 -14 64 -29q97 -42 126 -42q80 0 116.5 55.5t36.5 170.5zM861 0h208q-9 185 -9 307v758h-236v-651q0 -113 -72 -182 q-65 -61 -162 -61q-106 -1 -158.5 75.5t-52.5 230.5v588h-237v-626q0 -224 93 -344q37 -48 96.5 -78.5t129 -38t139.5 6.5t135 60t108 118h6z"/>
            <glyph unicode="&#x16a;" horiz-adv-x="1415"
                   d="M441 1608h536v140h-536v-140zM1023 1477v-875q0 -433 -320 -433q-143 0 -223 105q-87 109 -87 328v875h-238v-862q0 -640 539 -640q270 1 418 163t148 483v856h-237z"/>
            <glyph unicode="&#x16b;" horiz-adv-x="1209"
                   d="M347 1282h510v142h-510v-142zM861 0h208q-9 185 -9 307v758h-236v-651q0 -52 -15 -90q-20 -50 -60.5 -87.5t-88 -55t-97.5 -10t-91 38.5t-67 100t-26 167v588h-237v-626q2 -244 113 -364q47 -50 124 -76.5t160.5 -23.5t167 51t136.5 137h6z"/>
            <glyph unicode="&#x16c;" horiz-adv-x="1415"
                   d="M975 1854h-122q-4 -46 -25 -79t-51 -48t-64.5 -15t-65 15t-53.5 48.5t-29 78.5h-124q0 -126 70.5 -196.5t196.5 -70.5q123 0 195 73t72 194zM1023 1477v-875q0 -433 -320 -433q-143 0 -223 105q-87 109 -87 328v875h-238v-862q0 -640 539 -640q270 1 418 163t148 483v856 h-237z"/>
            <glyph unicode="&#x16d;" horiz-adv-x="1209"
                   d="M872 1442h-123q-4 -55 -32.5 -91.5t-67.5 -45.5t-78.5 0t-70 46t-38.5 91h-125q0 -126 70 -196.5t198 -70.5q124 0 195.5 72.5t71.5 194.5zM861 0h208q-9 185 -9 307v758h-236v-651q0 -52 -15 -90q-20 -50 -60.5 -87.5t-88 -55t-97.5 -10t-91 38.5t-67 100t-26 167v588 h-237v-626q2 -244 113 -364q47 -50 124 -76.5t160.5 -23.5t167 51t136.5 137h6z"/>
            <glyph unicode="&#x16e;" horiz-adv-x="1415"
                   d="M471 1729q0 -98 69 -165q71 -69 165 -69q95 0 166 69q70 68 70 165q0 98 -70 166t-166 68q-95 0 -165 -68q-69 -67 -69 -166zM817 1727q0 -46 -33 -78t-79 -32t-78.5 32t-32.5 78t32.5 79.5t78.5 33.5t79 -33.5t33 -79.5zM1023 1477v-875q0 -433 -320 -433 q-143 0 -223 105q-87 109 -87 328v875h-238v-862q0 -640 539 -640q270 1 418 163t148 483v856h-237z"/>
            <glyph unicode="&#x16f;" horiz-adv-x="1209"
                   d="M811 1378q0 88 -61.5 149.5t-149.5 61.5q-83 0 -146 -61q-61 -59 -61 -150q0 -87 61 -146q63 -61 146 -61q89 0 150 61t61 146zM694 1378q0 -37 -27.5 -64.5t-66.5 -27.5q-37 0 -64.5 27.5t-27.5 64.5q0 39 27.5 66.5t64.5 27.5q40 0 67 -27t27 -67zM861 0h208 q-9 185 -9 307v758h-236v-651q0 -52 -15 -90q-20 -50 -60.5 -87.5t-88 -55t-97.5 -10t-91 38.5t-67 100t-26 167v588h-237v-626q2 -244 113 -364q47 -50 124 -76.5t160.5 -23.5t167 51t136.5 137h6z"/>
            <glyph unicode="&#x170;" horiz-adv-x="1415"
                   d="M439 1569h168l236 250h-241zM784 1569h169l237 250h-241zM1023 1477v-875q0 -433 -320 -433q-143 0 -223 105q-87 109 -87 328v875h-238v-862q0 -640 539 -640q270 1 418 163t148 483v856h-237z"/>
            <glyph unicode="&#x171;" horiz-adv-x="1209"
                   d="M328 1205h139l232 307h-208zM659 1205h141l233 307h-211zM861 0h208q-9 185 -9 307v758h-236v-651q0 -52 -15 -90q-20 -50 -60.5 -87.5t-88 -55t-97.5 -10t-91 38.5t-67 100t-26 167v588h-237v-626q2 -244 113 -364q47 -50 124 -76.5t160.5 -23.5t167 51t136.5 137h6z "/>
            <glyph unicode="&#x172;" horiz-adv-x="1415"
                   d="M1023 1477v-875q0 -433 -320 -433q-143 0 -223 105q-87 109 -87 328v875h-238v-862q0 -637 533 -640q-46 -46 -84 -113q-41 -72 -41 -138q0 -84 54 -132t152 -48q52 0 106.5 15.5t90.5 41.5l-33 117q-46 -21 -98 -21q-42 0 -69.5 23.5t-27.5 66.5q0 90 130 209 q138 34 234 133q158 166 158 492v856h-237z"/>
            <glyph unicode="&#x173;" horiz-adv-x="1209"
                   d="M1002 4l67 -4q-9 185 -9 307v758h-236v-651q0 -52 -15 -90q-20 -50 -60.5 -87.5t-88 -55t-97.5 -10t-91 38.5t-67 100t-26 167v588h-237v-626q2 -244 113 -364q47 -50 124 -76.5t160.5 -23.5t167 51t136.5 137h6l12 -159q-36 -51 -59 -105q-35 -77 -35 -158 q0 -99 58 -150t159 -51q49 0 102 14t89 40l-35 119q-44 -20 -99 -20q-49 0 -81.5 33t-30.5 86q0 81 73 192z"/>
            <glyph unicode="&#x174;" horiz-adv-x="1855"
                   d="M857 1905l-209 -318h163l118 197h4l121 -197h165l-211 318h-151zM1426 782l-8 -37q-60 -248 -97 -475h-4q-32 232 -94 504l-156 703h-245l-171 -697q-85 -352 -112 -515h-4q-51 293 -98 513l-152 699h-252l360 -1477h251l184 719q69 256 103 473h4q20 -162 88 -473 l163 -719h249l399 1477h-241z"/>
            <glyph unicode="&#x175;" horiz-adv-x="1606"
                   d="M728 1493l-209 -318h163l118 197h5l119 -197h165l-211 318h-150zM1343 1065l-129 -498q-51 -188 -72 -350h-7q-45 208 -85 350l-145 498h-192l-152 -509q-60 -196 -88 -339h-4q-30 161 -72 342l-121 506h-243l314 -1065h218l148 462q53 165 84 345h5q34 -174 85 -345 l138 -462h217l334 1065h-233z"/>
            <glyph unicode="&#x176;" horiz-adv-x="1204"
                   d="M535 1905l-209 -318h163l118 197h4l121 -197h165l-211 318h-151zM933 1477l-186 -388q-65 -135 -132 -300h-4q-29 74 -134 300l-184 388h-268l458 -859v-618h236v625l482 852h-268z"/>
            <glyph unicode="&#x177;" horiz-adv-x="1051"
                   d="M452 1493l-209 -318h163l117 197h6l119 -197h165l-211 318h-150zM607 473l-59 -212h-4q-44 154 -64 210l-202 594h-261l386 -979q13 -36 13 -51q0 -12 -17 -48q-54 -108 -138.5 -177t-170.5 -92l57 -201q139 26 261 134q168 153 361 675l270 739h-253z"/>
            <glyph unicode="&#x178;" horiz-adv-x="1204"
                   d="M526 1696q0 51 -33 87t-83 36t-85.5 -36.5t-35.5 -86.5q0 -51 34.5 -87t84.5 -36t84 35.5t34 87.5zM938 1696q0 51 -33 87t-83 36q-52 0 -86.5 -36t-34.5 -87t33 -87t83 -36q53 0 87 35.5t34 87.5zM933 1477l-186 -388q-65 -135 -132 -300h-4q-41 105 -134 300l-184 388 h-268l458 -859v-618h236v625l482 852h-268z"/>
            <glyph unicode="&#x179;" horiz-adv-x="1200" d="M464 1558h191l276 261h-270zM372 197l753 1137v143h-1000v-197h695l-761 -1146v-134h1076v197h-763z"/>
            <glyph unicode="&#x17a;" horiz-adv-x="950" d="M370 1205h167l268 320h-242zM337 190v5q61 68 146 173l416 550v147h-816v-191h528v-4q-127 -148 -144 -173l-425 -559v-138h868v190h-573z"/>
            <glyph unicode="&#x17b;" horiz-adv-x="1200"
                   d="M605 1569h2q49 0 85 38t36 87q0 51 -34.5 87t-84.5 36q-54 0 -89 -36t-35 -87q0 -49 35 -87t85 -38zM372 197l753 1137v143h-1000v-197h695l-761 -1146v-134h1076v197h-763z"/>
            <glyph unicode="&#x17c;" horiz-adv-x="950"
                   d="M489 1234h2q53 0 86.5 36.5t33.5 88.5q0 55 -33.5 91t-86.5 36q-52 0 -88.5 -36.5t-36.5 -90.5q0 -51 36 -88t87 -37zM337 190v5q61 68 146 173l416 550v147h-816v-191h528v-4q-127 -148 -144 -173l-425 -559v-138h868v190h-573z"/>
            <glyph unicode="&#x17d;" horiz-adv-x="1200" d="M943 1817h-182l-128 -147h-4l-131 147h-184l225 -257h180zM372 197l753 1137v143h-1000v-197h695l-761 -1146v-134h1076v197h-763z"/>
            <glyph unicode="&#x17e;" horiz-adv-x="950"
                   d="M793 1530h-168l-123 -204h-4l-124 204h-171l213 -321h167zM337 190v5q61 68 146 173l416 550v147h-816v-191h528v-4q-127 -148 -144 -173l-425 -559v-138h868v190h-573z"/>
            <glyph unicode="&#x17f;" horiz-adv-x="667" d="M713 1365l21 184q-72 29 -167 29q-174 -1 -283 -118t-109 -347v-48h-144v-178h144v-887h235v1120q0 267 186 267q67 0 117 -22z"/>
            <glyph unicode="&#x192;" horiz-adv-x="1136"
                   d="M1010 1244l42 172q-63 33 -160 33q-377 -2 -432 -470l-11 -92h-208v-170h188l-46 -393q-22 -181 -64.5 -255.5t-132.5 -74.5q-68 0 -115 21l-38 -166q64 -37 178 -37q177 0 269 107q95 110 125 368l52 430h267v170h-247l13 110q33 268 211 268q52 -1 109 -21z"/>
            <glyph unicode="&#x1a0;" horiz-adv-x="1493"
                   d="M1418 754q0 299 -155 499q112 -6 171 53t59 158q0 98 -44 192l-178 -32q40 -71 40 -147q0 -47 -21.5 -71t-70.5 -24q-29 0 -56 10q-52 16 -124 48q-26 12 -57 22q-115 39 -226 39q-149 0 -275 -57.5t-217 -161.5q-90 -104 -138.5 -246t-48.5 -308q0 -163 47.5 -301.5 t135.5 -238.5q89 -102 210.5 -157.5t265.5 -55.5q309 0 499 217q183 208 183 562zM1166 745q0 -254 -114 -415q-117 -163 -307 -163q-92 0 -170.5 43.5t-134.5 121.5q-116 162 -116 402q0 250 116 414q116 163 307 163q92 0 170.5 -43.5t134.5 -120.5q114 -160 114 -402z "/>
            <glyph unicode="&#x1a1;" horiz-adv-x="1198"
                   d="M609 1087q-241 0 -387 -157q-143 -155 -143 -407q0 -117 36 -218.5t103 -173.5q145 -156 374 -156q116 0 215 41.5t169 117.5q146 159 146 407q0 201 -99 331q100 0 154.5 55t54.5 149q0 82 -42 175l-174 -30q38 -68 38 -138q0 -84 -84 -84q-50 0 -95 22q-39 19 -89 35 q-88 31 -177 31zM876 535q0 -162 -76 -271q-79 -113 -202 -113q-122 0 -201 108q-77 105 -77 272q0 166 76 275q75 108 204 108q125 0 201 -108q75 -108 75 -271z"/>
            <glyph unicode="&#x1af;" horiz-adv-x="1489"
                   d="M1260 621v720q126 9 184.5 58t58.5 148q0 84 -41 178l-174 -31q38 -64 38 -134q0 -45 -22.5 -64t-82.5 -19h-198v-875q0 -433 -320 -433q-150 0 -230 113t-80 320v875h-238v-862q0 -640 539 -640q276 0 421 165t145 481z"/>
            <glyph unicode="&#x1b0;" horiz-adv-x="1209"
                   d="M1060 307v636q94 0 154.5 53.5t60.5 145.5q0 80 -41 171l-176 -29q42 -77 42 -134q0 -41 -24.5 -63t-82.5 -22h-169v-651q0 -113 -72 -182q-65 -61 -162 -61q-106 -1 -158.5 75.5t-52.5 230.5v588h-237v-626q0 -224 93 -344q37 -48 96.5 -78.5t129 -38t139.5 6.5t135 60 t108 118h6l12 -163h208q-9 185 -9 307z"/>
            <glyph unicode="&#x1c0;" horiz-adv-x="547" d="M186 1477v-1477h176v1477h-176z"/>
            <glyph unicode="&#x1c1;" horiz-adv-x="1095" d="M186 1477v-1477h176v1477h-176zM734 1477v-1477h176v1477h-176z"/>
            <glyph unicode="&#x1c3;" horiz-adv-x="527"
                   d="M171 443h184l36 1034h-255zM414 132q0 68 -42 112.5t-109 44.5q-65 0 -107.5 -45t-42.5 -112t41.5 -112t106.5 -45q67 0 110 44.5t43 112.5z"/>
            <glyph unicode="&#x1c4;" horiz-adv-x="2651"
                   d="M2049 1702h-4l-121 203h-169l213 -318h160l210 318h-166zM1372 774q0 351 -209 532.5t-598 181.5q-214 0 -408 -31v-1453q150 -17 347 -17q410 0 629 186q239 200 239 601zM1823 197l751 1137v143h-998v-197h695l-761 -1146v-134h1076v197h-763zM1122 767 q0 -290 -146.5 -441t-421.5 -151q-120 0 -159 7v1104q71 16 190 16q265 0 401 -137.5t136 -397.5z"/>
            <glyph unicode="&#x1c5;" horiz-adv-x="2401"
                   d="M1928 1290h-4l-120 203h-169l212 -318h160l211 318h-167zM1372 774q0 351 -209 532.5t-598 181.5q-214 0 -408 -31v-1453q150 -17 347 -17q410 0 629 186q239 200 239 601zM1122 767q0 -290 -146.5 -441t-421.5 -151q-120 0 -159 7v1104q71 16 190 16q265 0 401 -137.5 t136 -397.5zM1788 190v5q58 66 144 173l417 550v147h-815v-191h528v-4q-96 -110 -145 -173l-424 -559v-138h867v190h-572z"/>
            <glyph unicode="&#x1c6;" horiz-adv-x="2186"
                   d="M885 0h211q-9 112 -9 287v1267h-236v-611h-5q-86 144 -300 144q-192 0 -329 -149q-138 -162 -138 -419q0 -243 128 -392q62 -75 155.5 -114.5t187 -38t181.5 52t137 144.5h6zM1714 1290h-5l-120 203h-169l213 -318h159l211 318h-167zM1573 190v5q68 76 145 173l417 550 v147h-816v-191h528v-4q-96 -110 -145 -173l-424 -559v-138h867v190h-572zM851 627v-178q-2 -113 -69 -194q-67 -88 -186 -88q-131 0 -205 105q-73 98 -73 257q0 163 75 269q74 105 207 105q90 0 157 -57.5t86 -144.5q8 -32 8 -74z"/>
            <glyph unicode="&#x1c7;" horiz-adv-x="1866"
                   d="M395 199v1278h-238v-1477h840v199h-602zM1488 1477v-964q-1 -188 -66 -268q-37 -44 -102 -60t-126 -10t-115 26l-31 -190q86 -36 212 -36q465 0 465 527v975h-237z"/>
            <glyph unicode="&#x1c8;" horiz-adv-x="1601"
                   d="M1483 1382q0 61 -40.5 101t-101.5 40q-63 0 -105 -40t-42 -101t40.5 -101.5t101.5 -40.5q65 0 106 39.5t41 102.5zM395 199v1278h-238v-1477h840v199h-602zM1221 1065v-887q0 -300 -71 -377q-58 -68 -201 -79l24 -186q233 4 351 123q133 130 133 444v962h-236z"/>
            <glyph unicode="&#x1c9;" horiz-adv-x="1092"
                   d="M149 1554v-1554h236v1554h-236zM975 1382q0 61 -41 101t-102 40q-63 0 -104.5 -40t-41.5 -101t40.5 -101.5t101.5 -40.5q64 0 105.5 39.5t41.5 102.5zM713 1065v-887q0 -300 -71 -377q-58 -68 -201 -79l23 -186q232 4 351 123q134 131 134 444v962h-236z"/>
            <glyph unicode="&#x1ca;" horiz-adv-x="2260"
                   d="M1060 1477v-550q0 -335 25 -613l-4 -3q-113 258 -253 489l-407 677h-264v-1477h220v561q0 399 -15 627l6 2q104 -237 263 -504l408 -686h243v1477h-222zM1882 1477v-964q0 -188 -65 -268q-37 -44 -102 -60t-126.5 -10t-116.5 26l-30 -190q86 -36 212 -36q465 0 465 527 v975h-237z"/>
            <glyph unicode="&#x1cb;" horiz-adv-x="1995"
                   d="M1878 1382q0 61 -40.5 101t-101.5 40q-64 0 -105.5 -40t-41.5 -101t40.5 -101.5t101.5 -40.5q64 0 105.5 40t41.5 102zM1060 1477v-550q0 -335 25 -613l-4 -3q-113 258 -253 489l-407 677h-264v-1477h220v561q0 399 -15 627l6 2q104 -237 263 -504l408 -686h243v1477 h-222zM1615 1065v-887q1 -299 -70 -377q-60 -69 -202 -79l24 -186q233 4 351 123q134 131 134 444v962h-237z"/>
            <glyph unicode="&#x1cc;" horiz-adv-x="1776"
                   d="M1658 1382q0 61 -40.5 101t-101.5 40q-63 0 -104.5 -40t-41.5 -101t40.5 -101.5t101.5 -40.5q64 0 105 39.5t41 102.5zM1074 0v638q0 113 -30 201t-82 141t-118 80t-141 27q-119 0 -214 -59q-75 -43 -123 -127h-6l-11 164h-209q9 -200 9 -304v-761h236v633q0 104 67 184 q67 78 171 78q214 -1 214 -284v-611h237zM1396 1065v-887q0 -301 -70 -377q-58 -68 -201 -79l23 -186q232 4 351 123q134 131 134 444v962h-237z"/>
            <glyph unicode="&#x1cd;" horiz-adv-x="1347"
                   d="M673 1702h-4l-121 203h-169l213 -318h159l211 318h-167zM523 1477l-475 -1477h245l132 434h480l138 -434h252l-478 1477h-294zM467 615l123 387q16 67 41 161q4 16 10 41.5t10.5 43.5t7.5 32h5q33 -130 46 -179q20 -75 28 -99l125 -387h-396z"/>
            <glyph unicode="&#x1ce;" horiz-adv-x="1073"
                   d="M510 1313h-4l-121 201h-168l212 -318h161l210 318h-167zM734 0h213q-16 87 -16 255v391q0 441 -418 441q-220 0 -366 -92l48 -156q49 32 113.5 54t132 25.5t124 -12.5t93 -67t36.5 -131v-20q-298 2 -459 -100q-77 -49 -118.5 -120.5t-44.5 -143.5t19 -138.5t64 -112.5 q63 -66 165.5 -89.5t212 11.5t177.5 128h7zM701 531v-165q0 -22 -4 -42q-15 -76 -81.5 -125.5t-146.5 -49.5q-73 0 -117.5 43t-44.5 124q-1 110 98 164t296 51z"/>
            <glyph unicode="&#x1cf;" horiz-adv-x="552" d="M278 1702h-4l-121 203h-168l212 -318h160l210 318h-166zM157 1477v-1477h238v1477h-238z"/>
            <glyph unicode="&#x1d0;" horiz-adv-x="533" d="M270 1290h-5l-121 203h-169l213 -318h161l210 318h-166zM149 1065v-1065h236v1065h-236z"/>
            <glyph unicode="&#x1d1;" horiz-adv-x="1493"
                   d="M749 1727h-4l-120 201h-169l213 -318h159l211 318h-167zM1418 754q0 158 -45.5 294.5t-129 237t-209 158t-278.5 57.5q-317 0 -503 -232q-115 -143 -156.5 -341.5t-2 -394t150.5 -332.5q180 -226 491 -226q213 0 369 102.5t234.5 277t78.5 399.5zM1166 745 q0 -230 -95 -385q-112 -193 -326 -193q-80 0 -149 30.5t-118.5 84t-84.5 125.5t-52 155t-17 172q0 223 97 383q113 194 326 194q98 0 179 -47t132.5 -126.5t79.5 -180.5t28 -212z"/>
            <glyph unicode="&#x1d2;" horiz-adv-x="1198"
                   d="M602 1313h-4l-121 201h-168l212 -318h161l210 318h-167zM1122 541q0 237 -135 390q-94 102 -238.5 138.5t-289 -1t-238.5 -139.5q-142 -160 -142 -406q0 -240 141.5 -394t371.5 -154q159 0 280 73t185.5 201t64.5 292zM876 535q0 -101 -31 -186.5t-95.5 -141.5 t-151.5 -56q-89 0 -154 55.5t-94.5 140t-29.5 184.5q0 102 29.5 187t94.5 140.5t156 55.5q88 0 152.5 -55.5t94 -140t29.5 -183.5z"/>
            <glyph unicode="&#x1d3;" horiz-adv-x="1415"
                   d="M710 1702h-5l-120 203h-169l213 -318h160l210 318h-167zM1023 1477v-875q0 -433 -320 -433q-143 0 -223 105q-87 109 -87 328v875h-238v-862q0 -640 539 -640q270 1 418 163t148 483v856h-237z"/>
            <glyph unicode="&#x1d4;" horiz-adv-x="1209"
                   d="M607 1290h-5l-119 203h-169l212 -318h160l211 318h-167zM861 0h208q-9 185 -9 307v758h-236v-651q0 -52 -15 -90q-20 -50 -60.5 -87.5t-88 -55t-97.5 -10t-91 38.5t-67 100t-26 167v588h-237v-626q2 -244 113 -364q47 -50 124 -76.5t160.5 -23.5t167 51t136.5 137h6z"/>
            <glyph unicode="&#x1d5;" horiz-adv-x="1415"
                   d="M456 2078v-136h506v136h-506zM623 1709q0 51 -33.5 87t-83.5 36q-51 0 -87 -36t-36 -87t35.5 -86.5t85.5 -35.5q51 0 85 34.5t34 87.5zM1035 1709q0 51 -33.5 87t-83.5 36q-51 0 -87 -36t-36 -87t34 -86.5t85 -35.5q52 0 86.5 34.5t34.5 87.5zM1023 1477v-875 q0 -433 -320 -433q-143 0 -223 105q-87 109 -87 328v875h-238v-862q0 -640 539 -640q270 1 418 163t148 483v856h-237z"/>
            <glyph unicode="&#x1d6;" horiz-adv-x="1209"
                   d="M353 1665v-135h506v135h-506zM519 1297q0 51 -33 87t-83 36q-51 0 -87 -36t-36 -87q0 -50 35.5 -86t85.5 -36q51 0 84.5 34.5t33.5 87.5zM931 1297q0 51 -33 87t-83 36q-51 0 -87 -36t-36 -87t34.5 -86.5t84.5 -35.5q52 0 86 34.5t34 87.5zM861 0h208q-9 185 -9 307v758 h-236v-651q0 -52 -15 -90q-20 -50 -60.5 -87.5t-88 -55t-97.5 -10t-91 38.5t-67 100t-26 167v588h-237v-626q2 -244 113 -364q47 -50 124 -76.5t160.5 -23.5t167 51t136.5 137h6z"/>
            <glyph unicode="&#x1d7;" horiz-adv-x="1415"
                   d="M600 1942h165l265 317h-241zM623 1709q0 51 -33.5 87t-83.5 36q-51 0 -87 -36t-36 -87t35.5 -86.5t85.5 -35.5q51 0 85 34.5t34 87.5zM1035 1709q0 51 -33.5 87t-83.5 36q-51 0 -87 -36t-36 -87t34 -86.5t85 -35.5q52 0 86.5 34.5t34.5 87.5zM1023 1477v-875 q0 -433 -320 -433q-143 0 -223 105q-87 109 -87 328v875h-238v-862q0 -640 539 -640q270 1 418 163t148 483v856h-237z"/>
            <glyph unicode="&#x1d8;" horiz-adv-x="1209"
                   d="M491 1530h164l265 317h-241zM519 1297q0 51 -33 87t-83 36q-51 0 -87 -36t-36 -87q0 -50 35.5 -86t85.5 -36q51 0 84.5 34.5t33.5 87.5zM931 1297q0 51 -33 87t-83 36q-51 0 -87 -36t-36 -87t34.5 -86.5t84.5 -35.5q52 0 86 34.5t34 87.5zM861 0h208q-9 185 -9 307v758 h-236v-651q0 -52 -15 -90q-20 -50 -60.5 -87.5t-88 -55t-97.5 -10t-91 38.5t-67 100t-26 167v588h-237v-626q2 -244 113 -364q47 -50 124 -76.5t160.5 -23.5t167 51t136.5 137h6z"/>
            <glyph unicode="&#x1d9;" horiz-adv-x="1415"
                   d="M710 2058h-5l-120 201h-169l213 -317h160l210 317h-167zM623 1709q0 51 -33.5 87t-83.5 36q-51 0 -87 -36t-36 -87t35.5 -86.5t85.5 -35.5q51 0 85 34.5t34 87.5zM1035 1709q0 51 -33.5 87t-83.5 36q-51 0 -87 -36t-36 -87t34 -86.5t85 -35.5q52 0 86.5 34.5t34.5 87.5z M1023 1477v-875q0 -433 -320 -433q-143 0 -223 105q-87 109 -87 328v875h-238v-862q0 -640 539 -640q270 1 418 163t148 483v856h-237z"/>
            <glyph unicode="&#x1da;" horiz-adv-x="1209"
                   d="M607 1646h-5l-119 201h-169l212 -317h160l211 317h-167zM519 1297q0 51 -33 87t-83 36q-51 0 -87 -36t-36 -87q0 -50 35.5 -86t85.5 -36q51 0 84.5 34.5t33.5 87.5zM931 1297q0 51 -33 87t-83 36q-51 0 -87 -36t-36 -87t34.5 -86.5t84.5 -35.5q52 0 86 34.5t34 87.5z M861 0h208q-9 185 -9 307v758h-236v-651q0 -52 -15 -90q-20 -50 -60.5 -87.5t-88 -55t-97.5 -10t-91 38.5t-67 100t-26 167v588h-237v-626q2 -244 113 -364q47 -50 124 -76.5t160.5 -23.5t167 51t136.5 137h6z"/>
            <glyph unicode="&#x1db;" horiz-adv-x="1415"
                   d="M370 2259l266 -317h164l-191 317h-239zM623 1709q0 51 -33.5 87t-83.5 36q-51 0 -87 -36t-36 -87t35.5 -86.5t85.5 -35.5q51 0 85 34.5t34 87.5zM1035 1709q0 51 -33.5 87t-83.5 36q-51 0 -87 -36t-36 -87t34 -86.5t85 -35.5q52 0 86.5 34.5t34.5 87.5zM1023 1477v-875 q0 -433 -320 -433q-143 0 -223 105q-87 109 -87 328v875h-238v-862q0 -640 539 -640q270 1 418 163t148 483v856h-237z"/>
            <glyph unicode="&#x1dc;" horiz-adv-x="1209"
                   d="M282 1847l266 -317h165l-192 317h-239zM519 1297q0 51 -33 87t-83 36q-51 0 -87 -36t-36 -87q0 -50 35.5 -86t85.5 -36q51 0 84.5 34.5t33.5 87.5zM931 1297q0 51 -33 87t-83 36q-51 0 -87 -36t-36 -87t34.5 -86.5t84.5 -35.5q52 0 86 34.5t34 87.5zM861 0h208 q-9 185 -9 307v758h-236v-651q0 -52 -15 -90q-20 -50 -60.5 -87.5t-88 -55t-97.5 -10t-91 38.5t-67 100t-26 167v588h-237v-626q2 -244 113 -364q47 -50 124 -76.5t160.5 -23.5t167 51t136.5 137h6z"/>
            <glyph unicode="&#x1dd;" horiz-adv-x="1097"
                   d="M79 487q0 -103 26.5 -192.5t78.5 -160.5t139 -112t198 -41q153 0 268.5 76t175.5 205t60 290q0 245 -142 391q-67 70 -166 107t-202.5 39.5t-200.5 -15t-176 -51.5l37 -164q132 51 287 51q149 0 240 -81.5t95 -234.5h-709q-9 -37 -9 -107zM305 425h492q-8 -108 -69 -184 q-72 -97 -189 -97q-127 0 -188 99q-50 78 -46 182z"/>
            <glyph unicode="&#x1de;" horiz-adv-x="1347"
                   d="M418 2078v-136h506v136h-506zM585 1709q0 51 -33 87t-83 36q-52 0 -87 -36t-35 -87t34.5 -86.5t85.5 -35.5t84.5 34.5t33.5 87.5zM997 1709q0 51 -33 87t-83 36q-52 0 -87 -36t-35 -87t33.5 -86.5t83.5 -35.5q53 0 87 34.5t34 87.5zM523 1477l-475 -1477h245l132 434h480 l138 -434h252l-478 1477h-294zM467 615l123 387q16 67 41 161q4 16 10 41.5t10.5 43.5t7.5 32h5q33 -130 46 -179q20 -75 28 -99l125 -387h-396z"/>
            <glyph unicode="&#x1df;" horiz-adv-x="1073"
                   d="M257 1687v-135h506v135h-506zM423 1319q0 52 -33 87.5t-83 35.5q-52 0 -87.5 -36t-35.5 -87q0 -50 35.5 -86.5t85.5 -36.5t84 35.5t34 87.5zM835 1319q0 52 -33 87.5t-83 35.5q-52 0 -87.5 -36t-35.5 -87t34.5 -87t84.5 -36q51 0 85.5 35.5t34.5 87.5zM734 0h213 q-16 87 -16 255v391q0 441 -418 441q-220 0 -366 -92l48 -156q49 32 113.5 54t132 25.5t124 -12.5t93 -67t36.5 -131v-20q-298 2 -459 -100q-77 -49 -118.5 -120.5t-44.5 -143.5t19 -138.5t64 -112.5q63 -66 165.5 -89.5t212 11.5t177.5 128h7zM701 531v-165q0 -22 -4 -42 q-15 -76 -81.5 -125.5t-146.5 -49.5q-73 0 -117.5 43t-44.5 124q-1 110 98 164t296 51z"/>
            <glyph unicode="&#x1e0;" horiz-adv-x="1347"
                   d="M418 2078v-136h506v136h-506zM791 1709q0 51 -33.5 87t-84.5 36q-50 0 -85.5 -36.5t-35.5 -86.5q0 -51 34.5 -86.5t84.5 -35.5q52 0 86 34.5t34 87.5zM523 1477l-475 -1477h245l132 434h480l138 -434h252l-478 1477h-294zM467 615l123 387q16 67 41 161q4 16 10 41.5 t10.5 43.5t7.5 32h5q33 -130 46 -179q20 -75 28 -99l125 -387h-396z"/>
            <glyph unicode="&#x1e1;" horiz-adv-x="1073"
                   d="M257 1687v-135h506v135h-506zM629 1319q0 52 -33.5 87.5t-85.5 35.5q-50 0 -84.5 -36t-34.5 -87t33.5 -87t83.5 -36q53 0 87 35.5t34 87.5zM734 0h213q-16 87 -16 255v391q0 441 -418 441q-220 0 -366 -92l48 -156q49 32 113.5 54t132 25.5t124 -12.5t93 -67t36.5 -131 v-20q-298 2 -459 -100q-77 -49 -118.5 -120.5t-44.5 -143.5t19 -138.5t64 -112.5q63 -66 165.5 -89.5t212 11.5t177.5 128h7zM701 531v-165q0 -22 -4 -42q-15 -76 -81.5 -125.5t-146.5 -49.5q-73 0 -117.5 43t-44.5 124q-1 110 98 164t296 51z"/>
            <glyph unicode="&#x1e2;" horiz-adv-x="1748"
                   d="M590 1723v-136h506v136h-506zM1091 667h511v192h-542l-48 423h607v195h-973l-646 -1477h243l206 480h436l60 -480h738v195h-535zM521 671l171 405q33 76 88 233h9l24 -235l46 -403h-338z"/>
            <glyph unicode="&#x1e3;" horiz-adv-x="1686"
                   d="M590 1334v-136h506v136h-506zM1612 587q0 223 -113 361q-117 141 -305 141q-240 0 -362 -206h-4q-78 206 -339 206q-180 0 -342 -96l52 -154q115 79 270 79q104 0 167 -57t63 -142v-42q-303 0 -464.5 -97.5t-161.5 -288.5q0 -138 95 -225t244 -87q275 -2 388 218h7 q47 -106 153 -161q72 -38 176 -52t219 3t205 65l-40 165q-134 -57 -282 -57t-233 87.5t-85 243.5l686 -2q6 53 6 98zM1389 657h-469q5 113 73 189q71 81 175 81q102 0 161.5 -76.5t59.5 -193.5zM703 523v-144q0 -101 -66 -162q-69 -66 -166 -66q-75 0 -120.5 44t-45.5 114 q0 214 366 214h32z"/>
            <glyph unicode="&#x1e6;" horiz-adv-x="1410"
                   d="M857 1718h-4l-121 202h-169l213 -318h159l211 318h-167zM793 797v-186h270v-400q-66 -31 -214 -31q-242 0 -382.5 148t-140.5 410q0 264 151 412q151 143 395 143q193 0 322 -61l53 192q-138 69 -371 69q-361 0 -581 -211q-106 -102 -162.5 -253t-57 -304.5t52.5 -301.5 t154 -245q95 -92 229 -141t272 -53t267 17t240 64v732h-497z"/>
            <glyph unicode="&#x1e7;" horiz-adv-x="1221"
                   d="M583 1313h-4l-121 201h-169l213 -318h159l211 318h-167zM866 918h-5q-96 169 -311 169q-96 0 -182 -40t-150 -111.5t-101.5 -177.5t-37.5 -232q-1 -226 124 -373t318 -147q215 0 314 163h4v-104q1 -337 -313 -337q-169 0 -302 82l-55 -182q137 -84 357 -84q254 0 394 128 q154 136 154 481v610q0 151 9 302h-209zM837 644v-188q0 -58 -13 -96q-27 -81 -89 -128.5t-141 -47.5q-125 0 -200.5 98t-75.5 253q0 168 77 269t199 101q106 0 176 -77q67 -73 67 -184z"/>
            <glyph unicode="&#x1e8;" horiz-adv-x="1219"
                   d="M583 1702h-4l-121 203h-169l213 -318h159l211 318h-167zM1201 1477h-291l-402 -532q-56 -78 -109 -161h-6v693h-236v-1477h236v537l133 157l432 -694h278l-544 849z"/>
            <glyph unicode="&#x1e9;" horiz-adv-x="1062"
                   d="M531 1779h-5l-120 202h-170l213 -318h160l211 318h-167zM1033 1065h-284l-274 -352q-46 -59 -84 -123h-6v964h-236v-1554h236v377l90 110l322 -487h290l-447 627z"/>
            <glyph unicode="&#x1ea;" horiz-adv-x="1493"
                   d="M805 -22q-85 -45 -141.5 -111t-56.5 -122q0 -92 92 -92q60 0 106 23l19 -99q-68 -35 -167 -35q-87 0 -140 46.5t-53 124.5q0 71 71 158q59 72 136 107q-266 21 -426 223q-111 137 -150.5 332.5t2 394t156.5 341.5q186 232 503 232q153 0 278.5 -57.5t209 -158t129 -237 t45.5 -294.5q0 -213 -70.5 -381t-210.5 -273t-332 -122zM324 734q0 -89 17 -172t52 -155t84.5 -125.5t118.5 -84t149 -30.5q214 0 326 193q95 155 95 385q0 111 -28 212t-79.5 180.5t-132.5 126.5t-179 47q-213 0 -326 -194q-97 -160 -97 -383z"/>
            <glyph unicode="&#x1eb;" horiz-adv-x="1198"
                   d="M651 -22q-85 -46 -141 -111.5t-56 -121.5q0 -92 92 -92q61 0 105 23l20 -99q-68 -35 -167 -35q-87 0 -140 46.5t-53 124.5q0 71 71 158q61 75 139 108q-201 25 -321.5 174.5t-120.5 369.5q0 246 142 406q94 102 238.5 139.5t289 1t238.5 -138.5q135 -153 135 -390 q0 -233 -128 -388t-343 -175zM320 531q0 -100 29.5 -184.5t94.5 -140t154 -55.5q87 0 151.5 56t95.5 141.5t31 186.5q0 99 -29.5 183.5t-94 140t-152.5 55.5q-91 0 -156 -55.5t-94.5 -140.5t-29.5 -187z"/>
            <glyph unicode="&#x1ec;" horiz-adv-x="1493"
                   d="M1002 1610h-507v136h507v-136zM796 -23q-83 -45 -138.5 -109.5t-55.5 -120.5q0 -92 92 -92q60 0 106 23l20 -99q-68 -35 -167 -35q-87 0 -140 46.5t-53 124.5q0 71 71 158q58 73 133 105q-260 24 -419 223q-111 137 -150.5 332.5t2 394t156.5 341.5q186 232 503 232 q153 0 278.5 -57.5t209 -158t129 -237t45.5 -294.5q0 -214 -71.5 -383.5t-213.5 -274t-337 -119.5zM324 734q0 -89 17 -172t52 -155t84.5 -125.5t118.5 -84t149 -30.5q214 0 326 193q95 155 95 385q0 111 -28 212t-79.5 180.5t-132.5 126.5t-179 47q-213 0 -326 -194 q-97 -160 -97 -383z"/>
            <glyph unicode="&#x1ed;" horiz-adv-x="1198"
                   d="M855 1196h-506v136h506v-136zM651 -22q-83 -46 -138 -111t-55 -120q0 -92 92 -92q61 0 105 23l20 -99q-68 -35 -167 -35q-86 0 -139 46.5t-53 124.5q0 73 70 158q58 74 135 106q-201 25 -321.5 174.5t-120.5 369.5q0 246 142 406q94 102 238.5 139.5t289 1t238.5 -138.5 q135 -153 135 -390q0 -233 -128 -388t-343 -175zM320 531q0 -100 29.5 -184.5t94.5 -140t154 -55.5q87 0 151.5 56t95.5 141.5t31 186.5q0 99 -29.5 183.5t-94 140t-152.5 55.5q-91 0 -156 -55.5t-94.5 -140.5t-29.5 -187z"/>
            <glyph unicode="&#x1f0;" horiz-adv-x="558"
                   d="M287 1311h-5l-119 201h-169l213 -318h159l211 318h-167zM178 1065v-887q0 -300 -71 -377q-58 -68 -201 -79l23 -186q233 4 351 123q134 131 134 444v962h-236z"/>
            <glyph unicode="&#x1f1;" horiz-adv-x="2651"
                   d="M1372 774q0 351 -209 532.5t-598 181.5q-214 0 -408 -31v-1453q150 -17 347 -17q410 0 629 186q239 200 239 601zM1823 197l751 1137v143h-998v-197h695l-761 -1146v-134h1076v197h-763zM1122 767q0 -290 -146.5 -441t-421.5 -151q-120 0 -159 7v1104q71 16 190 16 q265 0 401 -137.5t136 -397.5z"/>
            <glyph unicode="&#x1f2;" horiz-adv-x="2401"
                   d="M1372 774q0 351 -209 532.5t-598 181.5q-214 0 -408 -31v-1453q150 -17 347 -17q410 0 629 186q239 200 239 601zM1122 767q0 -290 -146.5 -441t-421.5 -151q-120 0 -159 7v1104q71 16 190 16q265 0 401 -137.5t136 -397.5zM1788 190v5q58 66 144 173l417 550v147h-815 v-191h528v-4q-96 -110 -145 -173l-424 -559v-138h867v190h-572z"/>
            <glyph unicode="&#x1f3;" horiz-adv-x="2186"
                   d="M885 0h211q-9 112 -9 287v1267h-236v-611h-5q-86 144 -300 144q-192 0 -329 -149q-138 -162 -138 -419q0 -243 128 -392q62 -75 155.5 -114.5t187 -38t181.5 52t137 144.5h6zM1573 190v5q68 76 145 173l417 550v147h-816v-191h528v-4q-96 -110 -145 -173l-424 -559v-138 h867v190h-572zM851 627v-178q-2 -113 -69 -194q-67 -88 -186 -88q-131 0 -205 105q-73 98 -73 257q0 163 75 269q74 105 207 105q90 0 157 -57.5t86 -144.5q8 -32 8 -74z"/>
            <glyph unicode="&#x1f4;" horiz-adv-x="1410"
                   d="M791 1602h165l265 318h-242zM793 797v-186h270v-400q-66 -31 -214 -31q-242 0 -382.5 148t-140.5 410q0 264 151 412q151 143 395 143q193 0 322 -61l53 192q-138 69 -371 69q-361 0 -581 -211q-106 -102 -162.5 -253t-57 -304.5t52.5 -301.5t154 -245q95 -92 229 -141 t272 -53t267 17t240 64v732h-497z"/>
            <glyph unicode="&#x1f5;" horiz-adv-x="1221"
                   d="M449 1196h164l265 318h-240zM866 918h-5q-96 169 -311 169q-96 0 -182 -40t-150 -111.5t-101.5 -177.5t-37.5 -232q-1 -226 124 -373t318 -147q215 0 314 163h4v-104q1 -337 -313 -337q-169 0 -302 82l-55 -182q137 -84 357 -84q254 0 394 128q154 136 154 481v610 q0 151 9 302h-209zM837 644v-188q0 -58 -13 -96q-27 -81 -89 -128.5t-141 -47.5q-125 0 -200.5 98t-75.5 253q0 168 77 269t199 101q106 0 176 -77q67 -73 67 -184z"/>
            <glyph unicode="&#x1f8;" horiz-adv-x="1437"
                   d="M403 1905l266 -318h163l-190 318h-239zM1060 1477v-550q0 -335 25 -613l-4 -3q-113 258 -253 489l-407 677h-264v-1477h220v561q0 399 -15 627l6 2q104 -237 263 -504l408 -686h243v1477h-222z"/>
            <glyph unicode="&#x1f9;" horiz-adv-x="1217"
                   d="M368 1514l265 -318h164l-190 318h-239zM1074 0v638q0 113 -30 201t-82 141t-118 80t-141 27q-119 0 -214 -59q-75 -43 -123 -127h-6l-11 164h-209q9 -200 9 -304v-761h236v633q0 104 67 184q67 78 171 78q214 -1 214 -284v-611h237z"/>
            <glyph unicode="&#x1fa;" horiz-adv-x="1347"
                   d="M575 2114h163l266 318h-241zM881 1794q0 88 -61 149.5t-149 61.5q-86 0 -147 -61q-62 -62 -62 -150q0 -82 62 -146q59 -61 147 -61t149 61t61 146zM765 1794q0 -37 -27.5 -64.5t-66.5 -27.5q-38 0 -65 27.5t-27 64.5q0 40 27 67.5t65 27.5q39 0 66.5 -27.5t27.5 -67.5z M523 1477l-475 -1477h245l132 434h480l138 -434h252l-478 1477h-294zM467 615l123 387q16 67 41 161q4 16 10 41.5t10.5 43.5t7.5 32h5q33 -130 46 -179q20 -75 28 -99l125 -387h-396z"/>
            <glyph unicode="&#x1fb;" horiz-adv-x="1073"
                   d="M397 1725h164l265 318h-241zM719 1405q0 88 -61.5 149t-149.5 61q-85 0 -146 -61t-61 -149t61 -147q64 -62 146 -62q88 0 150 62q61 61 61 147zM602 1405q0 -38 -27 -65t-67 -27q-37 0 -64.5 27t-27.5 65q0 39 27.5 66.5t64.5 27.5q40 0 67 -27.5t27 -66.5zM734 0h213 q-16 87 -16 255v391q0 441 -418 441q-220 0 -366 -92l48 -156q49 32 113.5 54t132 25.5t124 -12.5t93 -67t36.5 -131v-20q-298 2 -459 -100q-77 -49 -118.5 -120.5t-44.5 -143.5t19 -138.5t64 -112.5q63 -66 165.5 -89.5t212 11.5t177.5 128h7zM701 531v-165q0 -22 -4 -42 q-15 -76 -81.5 -125.5t-146.5 -49.5q-73 0 -117.5 43t-44.5 124q-1 110 98 164t296 51z"/>
            <glyph unicode="&#x1fc;" horiz-adv-x="1748"
                   d="M723 1587h164l265 318h-240zM1091 667h511v192h-542l-48 423h607v195h-973l-646 -1477h243l206 480h436l60 -480h738v195h-535zM521 671l171 405q33 76 88 233h9l24 -235l46 -403h-338z"/>
            <glyph unicode="&#x1fd;" horiz-adv-x="1686"
                   d="M738 1198h165l265 318h-241zM1612 587q0 223 -113 361q-117 141 -305 141q-240 0 -362 -206h-4q-78 206 -339 206q-180 0 -342 -96l52 -154q115 79 270 79q104 0 167 -57t63 -142v-42q-303 0 -464.5 -97.5t-161.5 -288.5q0 -138 95 -225t244 -87q275 -2 388 218h7 q47 -106 153 -161q72 -38 176 -52t219 3t205 65l-40 165q-134 -57 -282 -57t-233 87.5t-85 243.5l686 -2q6 53 6 98zM1389 657h-469q5 113 73 189q71 81 175 81q102 0 161.5 -76.5t59.5 -193.5zM703 523v-144q0 -101 -66 -162q-69 -66 -166 -66q-75 0 -120.5 44t-45.5 114 q0 214 366 214h32z"/>
            <glyph unicode="&#x1fe;" horiz-adv-x="1493"
                   d="M596 1685h165l264 318h-241zM1418 751q0 337 -186 544l127 188l-138 93l-123 -175q-146 100 -344 100q-145 0 -269 -56t-216 -160q-92 -103 -142 -244.5t-50 -306.5q0 -338 195 -552l-132 -191l132 -100l131 188q149 -104 346 -104q148 0 272 56t213 159q184 214 184 561 zM408 391l-5 -4q-85 166 -85 353q0 255 118 412q58 77 138.5 119t174.5 42q138 0 238 -88zM1177 745q0 -253 -117 -417q-115 -163 -313 -163q-138 0 -232 88l576 830h5q81 -149 81 -338z"/>
            <glyph unicode="&#x1ff;" horiz-adv-x="1198"
                   d="M473 1265h165l265 318h-242zM1122 539q0 255 -164 410l96 140l-98 66l-93 -136q-115 68 -258 68h-3q-234 0 -378 -155q-145 -158 -145 -403q-1 -264 166 -418l-92 -136l92 -71l96 140q108 -69 259 -69q230 0 374 157q148 161 148 407zM377 299h-5q-61 94 -61 232 q0 164 79 275q78 108 210 108q98 0 161 -57zM895 531q0 -84 -21 -153q-42 -139 -155 -198q-39 -20 -85 -27t-97 6t-90 48l383 552h5q60 -99 60 -228z"/>
            <glyph unicode="&#x200;" horiz-adv-x="1347"
                   d="M550 1587h140l-161 306h-211zM883 1587h138l-162 306h-208zM523 1477l-475 -1477h245l132 434h480l138 -434h252l-478 1477h-294zM467 615l123 387q16 67 41 161q4 16 10 41.5t10.5 43.5t7.5 32h5q33 -130 46 -179q20 -75 28 -99l125 -387h-396z"/>
            <glyph unicode="&#x201;" horiz-adv-x="1073"
                   d="M387 1196h142l-163 307h-211zM721 1196h138l-162 307h-208zM734 0h213q-16 87 -16 255v391q0 441 -418 441q-220 0 -366 -92l48 -156q49 32 113.5 54t132 25.5t124 -12.5t93 -67t36.5 -131v-20q-298 2 -459 -100q-77 -49 -118.5 -120.5t-44.5 -143.5t19 -138.5t64 -112.5 q63 -66 165.5 -89.5t212 11.5t177.5 128h7zM701 531v-165q0 -22 -4 -42q-15 -76 -81.5 -125.5t-146.5 -49.5q-73 0 -117.5 43t-44.5 124q-1 110 98 164t296 51z"/>
            <glyph unicode="&#x202;" horiz-adv-x="1347"
                   d="M403 1587h123q10 142 147 142q121 0 140 -142h125q0 124 -70.5 195.5t-196.5 71.5q-124 0 -196 -72.5t-72 -194.5zM523 1477l-475 -1477h245l132 434h480l138 -434h252l-478 1477h-294zM467 615l123 387q16 67 41 161q4 16 10 41.5t10.5 43.5t7.5 32h5q33 -130 46 -179 q20 -75 28 -99l125 -387h-396z"/>
            <glyph unicode="&#x203;" horiz-adv-x="1073"
                   d="M241 1196h123q11 143 146 143q121 0 141 -143h125q0 126 -70 197t-198 71q-124 0 -195.5 -73t-71.5 -195zM734 0h213q-16 87 -16 255v391q0 441 -418 441q-220 0 -366 -92l48 -156q49 32 113.5 54t132 25.5t124 -12.5t93 -67t36.5 -131v-20q-298 2 -459 -100 q-77 -49 -118.5 -120.5t-44.5 -143.5t19 -138.5t64 -112.5q63 -66 165.5 -89.5t212 11.5t177.5 128h7zM701 531v-165q0 -22 -4 -42q-15 -76 -81.5 -125.5t-146.5 -49.5q-73 0 -117.5 43t-44.5 124q-1 110 98 164t296 51z"/>
            <glyph unicode="&#x204;" horiz-adv-x="1086" d="M462 1587h140l-161 306h-211zM795 1587h138l-162 306h-208zM395 195v476h550v195h-550v416h582v195h-820v-1477h851v195h-613z"/>
            <glyph unicode="&#x205;" horiz-adv-x="1097"
                   d="M431 1198h141l-162 307h-211zM765 1198h138l-163 307h-207zM1025 583q0 103 -26.5 192.5t-78.5 160.5t-139 112t-198 41q-152 0 -268 -77t-176 -206.5t-60 -288.5q0 -244 140 -392q141 -144 390 -144q204 0 357 65l-37 165q-132 -51 -287 -51q-148 -1 -239.5 80.5 t-95.5 234.5h709q9 40 9 108zM800 644h-493q9 108 70 184q71 96 188 96q80 0 136 -41.5t79.5 -103.5t19.5 -135z"/>
            <glyph unicode="&#x206;" horiz-adv-x="1086"
                   d="M316 1587h123q10 142 146 142q121 0 140 -142h126q0 124 -71 195.5t-197 71.5q-124 0 -195.5 -72.5t-71.5 -194.5zM395 195v476h550v195h-550v416h582v195h-820v-1477h851v195h-613z"/>
            <glyph unicode="&#x207;" horiz-adv-x="1097"
                   d="M285 1198h123q11 143 146 143q120 0 140 -143h126q0 126 -70.5 197t-197.5 71q-124 0 -195.5 -73t-71.5 -195zM1025 583q0 103 -26.5 192.5t-78.5 160.5t-139 112t-198 41q-152 0 -268 -77t-176 -206.5t-60 -288.5q0 -244 140 -392q141 -144 390 -144q204 0 357 65 l-37 165q-132 -51 -287 -51q-148 -1 -239.5 80.5t-95.5 234.5h709q9 40 9 108zM800 644h-493q9 108 70 184q71 96 188 96q80 0 136 -41.5t79.5 -103.5t19.5 -135z"/>
            <glyph unicode="&#x208;" horiz-adv-x="552" d="M155 1587h140l-161 306h-211zM489 1587h138l-163 306h-207zM157 1477v-1477h238v1477h-238z"/>
            <glyph unicode="&#x209;" horiz-adv-x="533" d="M147 1175h140l-162 306h-211zM480 1175h138l-162 306h-209zM149 1065v-1065h236v1065h-236z"/>
            <glyph unicode="&#x20a;" horiz-adv-x="552"
                   d="M9 1587h123q10 142 146 142q121 0 140 -142h126q0 124 -71 195.5t-197 71.5q-124 0 -195.5 -72.5t-71.5 -194.5zM157 1477v-1477h238v1477h-238z"/>
            <glyph unicode="&#x20b;" horiz-adv-x="533"
                   d="M0 1175h123q10 142 147 142q121 0 140 -142h125q0 124 -70.5 195.5t-196.5 71.5q-125 0 -196.5 -72.5t-71.5 -194.5zM149 1065v-1065h236v1065h-236z"/>
            <glyph unicode="&#x20c;" horiz-adv-x="1493"
                   d="M627 1610h140l-162 307h-210zM960 1610h138l-163 307h-207zM1418 754q0 158 -45.5 294.5t-129 237t-209 158t-278.5 57.5q-317 0 -503 -232q-115 -143 -156.5 -341.5t-2 -394t150.5 -332.5q180 -226 491 -226q213 0 369 102.5t234.5 277t78.5 399.5zM1166 745 q0 -230 -95 -385q-112 -193 -326 -193q-80 0 -149 30.5t-118.5 84t-84.5 125.5t-52 155t-17 172q0 223 97 383q113 194 326 194q98 0 179 -47t132.5 -126.5t79.5 -180.5t28 -212z"/>
            <glyph unicode="&#x20d;" horiz-adv-x="1198"
                   d="M480 1196h141l-163 307h-211zM813 1196h138l-162 307h-208zM1122 541q0 237 -135 390q-94 102 -238.5 138.5t-289 -1t-238.5 -139.5q-142 -160 -142 -406q0 -240 141.5 -394t371.5 -154q159 0 280 73t185.5 201t64.5 292zM876 535q0 -101 -31 -186.5t-95.5 -141.5 t-151.5 -56q-89 0 -154 55.5t-94.5 140t-29.5 184.5q0 102 29.5 187t94.5 140.5t156 55.5q88 0 152.5 -55.5t94 -140t29.5 -183.5z"/>
            <glyph unicode="&#x20e;" horiz-adv-x="1493"
                   d="M480 1610h122q11 143 147 143q120 0 140 -143h125q0 126 -70.5 197t-196.5 71q-123 0 -195 -73t-72 -195zM1418 754q0 158 -45.5 294.5t-129 237t-209 158t-278.5 57.5q-317 0 -503 -232q-115 -143 -156.5 -341.5t-2 -394t150.5 -332.5q180 -226 491 -226 q213 0 369 102.5t234.5 277t78.5 399.5zM1166 745q0 -230 -95 -385q-112 -193 -326 -193q-80 0 -149 30.5t-118.5 84t-84.5 125.5t-52 155t-17 172q0 223 97 383q113 194 326 194q98 0 179 -47t132.5 -126.5t79.5 -180.5t28 -212z"/>
            <glyph unicode="&#x20f;" horiz-adv-x="1198"
                   d="M333 1196h123q11 143 146 143q121 0 141 -143h125q0 126 -70 197t-198 71q-124 0 -195.5 -73t-71.5 -195zM1122 541q0 237 -135 390q-94 102 -238.5 138.5t-289 -1t-238.5 -139.5q-142 -160 -142 -406q0 -240 141.5 -394t371.5 -154q159 0 280 73t185.5 201t64.5 292z M876 535q0 -101 -31 -186.5t-95.5 -141.5t-151.5 -56q-89 0 -154 55.5t-94.5 140t-29.5 184.5q0 102 29.5 187t94.5 140.5t156 55.5q88 0 152.5 -55.5t94 -140t29.5 -183.5z"/>
            <glyph unicode="&#x210;" horiz-adv-x="1200"
                   d="M535 1598h140l-162 307h-210zM868 1598h138l-163 307h-207zM910 0h245q-19 36 -51 153q-20 71 -63 255q-59 236 -209 293v4q123 46 196.5 143t73.5 231q0 195 -135.5 302t-425.5 107q-220 0 -384 -31v-1457h236v621h146q119 0 181 -61t93 -209q31 -150 55 -231 q24 -87 42 -120zM866 1054q0 -119 -83 -189t-224 -70h-166v498q49 16 170 16q303 -6 303 -255z"/>
            <glyph unicode="&#x211;" horiz-adv-x="742"
                   d="M307 1196h140l-162 307h-210zM640 1196h138l-163 307h-207zM713 857v226q-25 4 -60 4q-89 0 -170 -57q-81 -60 -119 -169h-7l-8 204h-207q9 -130 9 -335l-2 -730h236v559q1 133 66.5 218.5t186.5 85.5q38 0 75 -6z"/>
            <glyph unicode="&#x212;" horiz-adv-x="1200"
                   d="M387 1598h123q10 142 147 142q121 0 140 -142h125q0 126 -70.5 196.5t-196.5 70.5q-123 0 -195.5 -73t-72.5 -194zM910 0h245q-19 36 -51 153q-20 71 -63 255q-59 236 -209 293v4q123 46 196.5 143t73.5 231q0 195 -135.5 302t-425.5 107q-220 0 -384 -31v-1457h236v621 h146q119 0 181 -61t93 -209q31 -150 55 -231q24 -87 42 -120zM866 1054q0 -119 -83 -189t-224 -70h-166v498q49 16 170 16q303 -6 303 -255z"/>
            <glyph unicode="&#x213;" horiz-adv-x="742"
                   d="M160 1196h122q11 143 147 143q120 0 140 -143h125q0 126 -70.5 197t-196.5 71q-123 0 -195 -73t-72 -195zM713 857v226q-25 4 -60 4q-89 0 -170 -57q-81 -60 -119 -169h-7l-8 204h-207q9 -130 9 -335l-2 -730h236v559q1 133 66.5 218.5t186.5 85.5q38 0 75 -6z"/>
            <glyph unicode="&#x214;" horiz-adv-x="1415"
                   d="M587 1587h141l-163 306h-210zM920 1587h138l-161 306h-209zM1023 1477v-875q0 -433 -320 -433q-143 0 -223 105q-87 109 -87 328v875h-238v-862q0 -640 539 -640q270 1 418 163t148 483v856h-237z"/>
            <glyph unicode="&#x215;" horiz-adv-x="1209"
                   d="M485 1175h140l-163 306h-209zM817 1175h139l-163 306h-208zM861 0h208q-9 185 -9 307v758h-236v-651q0 -52 -15 -90q-20 -50 -60.5 -87.5t-88 -55t-97.5 -10t-91 38.5t-67 100t-26 167v588h-237v-626q2 -244 113 -364q47 -50 124 -76.5t160.5 -23.5t167 51t136.5 137h6z "/>
            <glyph unicode="&#x216;" horiz-adv-x="1415"
                   d="M441 1587h122q12 142 147 142q122 0 141 -142h124q0 125 -70 196t-197 71q-124 0 -195.5 -72.5t-71.5 -194.5zM1023 1477v-875q0 -433 -320 -433q-143 0 -223 105q-87 109 -87 328v875h-238v-862q0 -640 539 -640q270 1 418 163t148 483v856h-237z"/>
            <glyph unicode="&#x217;" horiz-adv-x="1209"
                   d="M337 1175h123q10 142 147 142q121 0 140 -142h125q0 124 -70.5 195.5t-196.5 71.5q-124 0 -196 -72.5t-72 -194.5zM861 0h208q-9 185 -9 307v758h-236v-651q0 -52 -15 -90q-20 -50 -60.5 -87.5t-88 -55t-97.5 -10t-91 38.5t-67 100t-26 167v588h-237v-626 q2 -244 113 -364q47 -50 124 -76.5t160.5 -23.5t167 51t136.5 137h6z"/>
            <glyph unicode="&#x218;" horiz-adv-x="1092"
                   d="M1006 414q0 152 -88.5 255.5t-281.5 181.5q-159 63 -215 113q-68 56 -68 145q0 77 59 133q66 63 210.5 61.5t266.5 -67.5l60 192q-137 71 -336 71q-223 0 -361.5 -115.5t-138.5 -298.5q1 -279 389 -424q144 -52 204.5 -112t60.5 -152q0 -103 -75 -162.5t-207 -59.5 q-190 0 -343 93l-54 -197q145 -92 383 -92q251 -1 393 120t142 315zM679 -132l-169 -15q-27 -197 -98 -390l105 11q89 143 162 394z"/>
            <glyph unicode="&#x219;" horiz-adv-x="880"
                   d="M800 307q0 217 -277 322q-109 39 -144 72q-44 38 -44 90q0 56 42 90.5t116 34.5q117 0 217 -61l51 168q-115 64 -270 64q-172 0 -278 -92q-44 -38 -72.5 -89.5t-33.5 -112.5t17.5 -120.5t91 -117t177.5 -97.5q99 -36 139 -75.5t40 -97.5q0 -134 -181 -134q-140 0 -262 75 l-50 -176q127 -71 308 -71q193 0 303 88t110 240zM572 -132l-169 -15q-27 -197 -98 -390l105 11q89 143 162 394z"/>
            <glyph unicode="&#x21a;" horiz-adv-x="1104" d="M11 1477v-199h420v-1278h240v1278h423v199h-1083zM686 -109l-169 -16q-29 -199 -99 -390l105 11q89 141 163 395z"/>
            <glyph unicode="&#x21b;" horiz-adv-x="742"
                   d="M425 1065v265l-232 -70v-195h-156v-178h156v-536q0 -202 79 -287q37 -40 93.5 -62t113.5 -24t107.5 5t88.5 21l-6 180q-52 -11 -106 -11q-138 0 -138 197v517h261v178h-261zM495 -132l-169 -15q-27 -197 -98 -390l105 11q89 143 162 394z"/>
            <glyph unicode="&#x21e;" horiz-adv-x="1428" d="M717 1702h-4l-121 203h-169l213 -318h159l211 318h-167zM1035 1477v-603h-640v603h-238v-1477h238v667h640v-667h236v1477h-236z"/>
            <glyph unicode="&#x21f;" horiz-adv-x="1217"
                   d="M510 1779h-4l-121 202h-168l212 -318h161l210 318h-167zM1074 0v633q0 115 -29 203.5t-80 142.5t-115.5 81t-139.5 27q-208 0 -319 -173h-6v640h-236v-1554h236v642q1 45 12 86q20 54 61 94t89.5 58.5t100 12.5t93.5 -35.5t69 -94.5t27 -156v-607h237z"/>
            <glyph unicode="&#x226;" horiz-adv-x="1347"
                   d="M791 1709q0 51 -33.5 87t-84.5 36q-50 0 -85.5 -36.5t-35.5 -86.5q0 -51 34.5 -86.5t84.5 -35.5q52 0 86 34.5t34 87.5zM523 1477l-475 -1477h245l132 434h480l138 -434h252l-478 1477h-294zM467 615l123 387q16 67 41 161q4 16 10 41.5t10.5 43.5t7.5 32h5 q33 -130 46 -179q20 -75 28 -99l125 -387h-396z"/>
            <glyph unicode="&#x227;" horiz-adv-x="1073"
                   d="M629 1319q0 52 -33.5 87.5t-85.5 35.5q-50 0 -84.5 -36t-34.5 -87t33.5 -87t83.5 -36q53 0 87 35.5t34 87.5zM734 0h213q-16 87 -16 255v391q0 441 -418 441q-220 0 -366 -92l48 -156q49 32 113.5 54t132 25.5t124 -12.5t93 -67t36.5 -131v-20q-298 2 -459 -100 q-77 -49 -118.5 -120.5t-44.5 -143.5t19 -138.5t64 -112.5q63 -66 165.5 -89.5t212 11.5t177.5 128h7zM701 531v-165q0 -22 -4 -42q-15 -76 -81.5 -125.5t-146.5 -49.5q-73 0 -117.5 43t-44.5 124q-1 110 98 164t296 51z"/>
            <glyph unicode="&#x228;" horiz-adv-x="1086"
                   d="M694 0l-65 -111q65 -9 109 -52t44 -102q0 -182 -238 -182q-98 0 -159 39l36 103q37 -23 85 -31t85.5 7.5t37.5 56.5q0 71 -171 88l101 184h-402v1477h820v-195h-582v-416h550v-195h-550v-476h613v-195h-314z"/>
            <glyph unicode="&#x229;" horiz-adv-x="1097"
                   d="M1025 583q0 103 -26.5 192.5t-78.5 160.5t-139 112t-198 41q-152 0 -268 -77t-176 -206.5t-60 -288.5q0 -244 140 -392q141 -144 390 -144q204 0 357 65l-37 165q-132 -51 -287 -51q-148 -1 -239.5 80.5t-95.5 234.5h709q9 40 9 108zM800 644h-493q9 108 70 184 q71 96 188 96q80 0 136 -41.5t79.5 -103.5t19.5 -135zM751 -285q0 59 -44 102t-109 51l66 113h-135l-102 -184q171 -17 171 -88q0 -66 -88 -66q-65 0 -119 33l-36 -103q61 -40 158 -40q238 0 238 182z"/>
            <glyph unicode="&#x22a;" horiz-adv-x="1493"
                   d="M495 2101v-135h507v135h-507zM661 1733q0 52 -32.5 87.5t-82.5 35.5q-53 0 -88 -35.5t-35 -87.5q0 -51 35 -87t86 -36q50 0 83.5 35.5t33.5 87.5zM1074 1733q0 52 -33 87.5t-83 35.5q-53 0 -88 -35.5t-35 -87.5q0 -51 34 -87t84 -36q53 0 87 35.5t34 87.5zM1418 754 q0 158 -45.5 294.5t-129 237t-209 158t-278.5 57.5q-317 0 -503 -232q-115 -143 -156.5 -341.5t-2 -394t150.5 -332.5q180 -226 491 -226q213 0 369 102.5t234.5 277t78.5 399.5zM1166 745q0 -230 -95 -385q-112 -193 -326 -193q-80 0 -149 30.5t-118.5 84t-84.5 125.5 t-52 155t-17 172q0 223 97 383q113 194 326 194q98 0 179 -47t132.5 -126.5t79.5 -180.5t28 -212z"/>
            <glyph unicode="&#x22b;" horiz-adv-x="1198"
                   d="M349 1687v-135h506v135h-506zM515 1319q0 52 -33 87.5t-83 35.5q-52 0 -87.5 -36t-35.5 -87q0 -50 35.5 -86.5t85.5 -36.5t84 35.5t34 87.5zM927 1319q0 52 -33 87.5t-83 35.5q-52 0 -87.5 -36t-35.5 -87t34.5 -87t84.5 -36q51 0 85.5 35.5t34.5 87.5zM1122 541 q0 237 -135 390q-94 102 -238.5 138.5t-289 -1t-238.5 -139.5q-142 -160 -142 -406q0 -240 141.5 -394t371.5 -154q159 0 280 73t185.5 201t64.5 292zM876 535q0 -101 -31 -186.5t-95.5 -141.5t-151.5 -56q-89 0 -154 55.5t-94.5 140t-29.5 184.5q0 102 29.5 187t94.5 140.5 t156 55.5q88 0 152.5 -55.5t94 -140t29.5 -183.5z"/>
            <glyph unicode="&#x22c;" horiz-adv-x="1493"
                   d="M495 2097v-136h507v136h-507zM1025 1852h-111q-8 -92 -57 -92q-16 0 -112 43q-94 42 -124 42q-73 0 -111.5 -63.5t-38.5 -171.5h114q7 99 55 99q9 0 105 -41q94 -42 127 -42q153 0 153 226zM1418 754q0 158 -45.5 294.5t-129 237t-209 158t-278.5 57.5q-317 0 -503 -232 q-115 -143 -156.5 -341.5t-2 -394t150.5 -332.5q180 -226 491 -226q213 0 369 102.5t234.5 277t78.5 399.5zM1166 745q0 -230 -95 -385q-112 -193 -326 -193q-80 0 -149 30.5t-118.5 84t-84.5 125.5t-52 155t-17 172q0 223 97 383q113 194 326 194q98 0 179 -47 t132.5 -126.5t79.5 -180.5t28 -212z"/>
            <glyph unicode="&#x22d;" horiz-adv-x="1198"
                   d="M349 1683v-136h506v136h-506zM878 1437h-111q-6 -92 -57 -92q-12 0 -43 14l-68 30q-95 42 -126 42q-72 0 -110.5 -63.5t-38.5 -171.5h115q6 99 54 99q9 0 105 -41q94 -42 127 -42q153 -2 153 225zM1122 541q0 237 -135 390q-94 102 -238.5 138.5t-289 -1t-238.5 -139.5 q-142 -160 -142 -406q0 -240 141.5 -394t371.5 -154q159 0 280 73t185.5 201t64.5 292zM876 535q0 -101 -31 -186.5t-95.5 -141.5t-151.5 -56q-89 0 -154 55.5t-94.5 140t-29.5 184.5q0 102 29.5 187t94.5 140.5t156 55.5q88 0 152.5 -55.5t94 -140t29.5 -183.5z"/>
            <glyph unicode="&#x22e;" horiz-adv-x="1493"
                   d="M868 1733q0 52 -34 87.5t-85 35.5q-50 0 -85 -36t-35 -87t34 -87t84 -36q53 0 87 35.5t34 87.5zM1418 754q0 158 -45.5 294.5t-129 237t-209 158t-278.5 57.5q-317 0 -503 -232q-115 -143 -156.5 -341.5t-2 -394t150.5 -332.5q180 -226 491 -226q213 0 369 102.5 t234.5 277t78.5 399.5zM1166 745q0 -230 -95 -385q-112 -193 -326 -193q-80 0 -149 30.5t-118.5 84t-84.5 125.5t-52 155t-17 172q0 223 97 383q113 194 326 194q98 0 179 -47t132.5 -126.5t79.5 -180.5t28 -212z"/>
            <glyph unicode="&#x22f;" horiz-adv-x="1198"
                   d="M721 1319q0 52 -33.5 87.5t-85.5 35.5q-50 0 -84.5 -36t-34.5 -87t33.5 -87t83.5 -36q53 0 87 35.5t34 87.5zM1122 541q0 237 -135 390q-94 102 -238.5 138.5t-289 -1t-238.5 -139.5q-142 -160 -142 -406q0 -240 141.5 -394t371.5 -154q159 0 280 73t185.5 201t64.5 292z M876 535q0 -101 -31 -186.5t-95.5 -141.5t-151.5 -56q-89 0 -154 55.5t-94.5 140t-29.5 184.5q0 102 29.5 187t94.5 140.5t156 55.5q88 0 152.5 -55.5t94 -140t29.5 -183.5z"/>
            <glyph unicode="&#x230;" horiz-adv-x="1493"
                   d="M495 2101v-135h507v135h-507zM868 1733q0 52 -34 87.5t-85 35.5q-50 0 -85 -36t-35 -87t34 -87t84 -36q53 0 87 35.5t34 87.5zM1418 754q0 158 -45.5 294.5t-129 237t-209 158t-278.5 57.5q-317 0 -503 -232q-115 -143 -156.5 -341.5t-2 -394t150.5 -332.5 q180 -226 491 -226q213 0 369 102.5t234.5 277t78.5 399.5zM1166 745q0 -230 -95 -385q-112 -193 -326 -193q-80 0 -149 30.5t-118.5 84t-84.5 125.5t-52 155t-17 172q0 223 97 383q113 194 326 194q98 0 179 -47t132.5 -126.5t79.5 -180.5t28 -212z"/>
            <glyph unicode="&#x231;" horiz-adv-x="1198"
                   d="M349 1687v-135h506v135h-506zM721 1319q0 52 -33.5 87.5t-85.5 35.5q-50 0 -84.5 -36t-34.5 -87t33.5 -87t83.5 -36q53 0 87 35.5t34 87.5zM1122 541q0 237 -135 390q-94 102 -238.5 138.5t-289 -1t-238.5 -139.5q-142 -160 -142 -406q0 -240 141.5 -394t371.5 -154 q159 0 280 73t185.5 201t64.5 292zM876 535q0 -101 -31 -186.5t-95.5 -141.5t-151.5 -56q-89 0 -154 55.5t-94.5 140t-29.5 184.5q0 102 29.5 187t94.5 140.5t156 55.5q88 0 152.5 -55.5t94 -140t29.5 -183.5z"/>
            <glyph unicode="&#x232;" horiz-adv-x="1204"
                   d="M360 1723v-136h506v136h-506zM933 1477l-186 -388q-65 -135 -132 -300h-4q-29 74 -134 300l-184 388h-268l458 -859v-618h236v625l482 852h-268z"/>
            <glyph unicode="&#x233;" horiz-adv-x="1051"
                   d="M276 1311v-136h506v136h-506zM607 473l-59 -212h-4q-44 154 -64 210l-202 594h-261l386 -979q13 -36 13 -51q0 -12 -17 -48q-54 -108 -138.5 -177t-170.5 -92l57 -201q139 26 261 134q168 153 361 675l270 739h-253z"/>
            <glyph unicode="&#x2b9;" horiz-adv-x="485" d="M65 958l148 15l224 543l-234 -21z"/>
            <glyph unicode="&#x2ba;" horiz-adv-x="838" d="M65 958l148 15l224 543l-236 -21zM421 958l146 15l224 543l-235 -21z"/>
            <glyph unicode="&#x2bb;" horiz-adv-x="485" d="M439 1516l-148 -15q-126 -210 -224 -543l236 19q44 286 136 539z"/>
            <glyph unicode="&#x2bc;" horiz-adv-x="485" d="M437 1516l-234 -21q-43 -275 -138 -537l148 15q130 216 224 543z"/>
            <glyph unicode="&#x2bd;" horiz-adv-x="485" d="M299 1495l-234 21q95 -332 224 -543l148 -15q-95 262 -138 537z"/>
            <glyph unicode="&#x2c6;" horiz-adv-x="656" d="M253 1512l-209 -318h163l117 197h4l121 -197h164l-210 318h-150z"/>
            <glyph unicode="&#x2c7;" horiz-adv-x="656" d="M331 1311h-5l-119 201h-170l212 -318h161l211 318h-167z"/>
            <glyph unicode="&#x2c9;" horiz-adv-x="656" d="M77 1413v-135h506v135h-506z"/>
            <glyph unicode="&#x2d8;" horiz-adv-x="656" d="M596 1495h-123q-11 -143 -147 -143q-120 0 -140 143h-125q0 -126 70.5 -197t196.5 -71q125 0 196.5 73t71.5 195z"/>
            <glyph unicode="&#x2d9;" horiz-adv-x="656" d="M414 1334q0 52 -33.5 87.5t-85.5 35.5q-50 0 -85 -36t-35 -87t34 -86.5t84 -35.5q53 0 87 35t34 87z"/>
            <glyph unicode="&#x2da;" horiz-adv-x="876"
                   d="M646 1378q0 88 -61 149.5t-148 61.5q-86 0 -147 -61q-62 -62 -62 -150q0 -84 62 -146q61 -61 147 -61q87 0 148 61t61 146zM531 1378q0 -37 -27.5 -64.5t-66.5 -27.5q-38 0 -65 27.5t-27 64.5q0 40 27 67t65 27q39 0 66.5 -27.5t27.5 -66.5z"/>
            <glyph unicode="&#x2db;" horiz-adv-x="656"
                   d="M498 -403l-21 98q-43 -21 -105 -21q-92 0 -92 92q0 56 59 122.5t146 111.5h-132q-76 -26 -144 -110q-71 -85 -71 -158q0 -78 53 -124.5t140 -46.5q99 0 167 36z"/>
            <glyph unicode="&#x2dc;" horiz-adv-x="656"
                   d="M607 1466h-112q-6 -92 -56 -92q-13 0 -44 14q-4 2 -28.5 12.5t-39.5 16.5q-100 42 -126 42q-72 0 -110.5 -63t-38.5 -171h115q6 99 54 99q12 0 41 -13q34 -16 65 -29q99 -42 127 -42q153 0 153 226z"/>
            <glyph unicode="&#x2dd;" horiz-adv-x="656" d="M65 1205h138l234 307h-209zM397 1205h140l232 307h-210z"/>
            <glyph unicode="&#x2ee;" horiz-adv-x="838" d="M437 1516l-236 -21q-43 -283 -136 -537l148 15q130 216 224 543zM791 1516l-235 -21q-44 -287 -135 -537l146 15q129 211 224 543z"/>
            <glyph unicode="&#x300;" d="M40 1512l265 -318h164l-191 318h-238z"/>
            <glyph unicode="&#x301;" d="M207 1194h163l266 318h-241z"/>
            <glyph unicode="&#x302;" d="M253 1512l-209 -318h163l117 197h4l121 -197h164l-210 318h-150z"/>
            <glyph unicode="&#x303;"
                   d="M607 1466h-112q-6 -92 -56 -92q-13 0 -44 14q-4 2 -28.5 12.5t-39.5 16.5q-100 42 -126 42q-72 0 -110.5 -63t-38.5 -171h115q6 99 54 99q12 0 41 -13q34 -16 65 -29q99 -42 127 -42q153 0 153 226z"/>
            <glyph unicode="&#x304;" d="M77 1413v-135h506v135h-506z"/>
            <glyph unicode="&#x306;" d="M596 1495h-123q-11 -143 -147 -143q-120 0 -140 143h-125q0 -126 70.5 -197t196.5 -71q125 0 196.5 73t71.5 195z"/>
            <glyph unicode="&#x307;" d="M414 1334q0 52 -33.5 87.5t-85.5 35.5q-50 0 -85 -36t-35 -87t34 -86.5t84 -35.5q53 0 87 35t34 87z"/>
            <glyph unicode="&#x308;"
                   d="M241 1334q0 52 -33 87.5t-83 35.5q-52 0 -87.5 -36t-35.5 -87q0 -50 35.5 -86t85.5 -36t84 35t34 87zM653 1334q0 52 -33 87.5t-83 35.5q-52 0 -87.5 -36t-35.5 -87t34.5 -86.5t84.5 -35.5q52 0 86 35t34 87z"/>
            <glyph unicode="&#x309;"
                   d="M239 1188l121 -29q20 40 48 68q29 29 55 58q63 68 63 143q0 77 -54.5 125.5t-138.5 48.5q-151 0 -232 -155l85 -51q46 74 103 74q31 0 51 -19.5t20 -52.5q0 -19 -9.5 -38.5t-15.5 -27t-27 -31.5q-58 -64 -69 -113z"/>
            <glyph unicode="&#x30a;"
                   d="M646 1378q0 88 -61 149.5t-148 61.5q-86 0 -147 -61q-62 -62 -62 -150q0 -84 62 -146q61 -61 147 -61q87 0 148 61t61 146zM531 1378q0 -37 -27.5 -64.5t-66.5 -27.5q-38 0 -65 27.5t-27 64.5q0 40 27 67t65 27q39 0 66.5 -27.5t27.5 -66.5z"/>
            <glyph unicode="&#x30b;" d="M65 1205h138l234 307h-209zM397 1205h140l232 307h-210z"/>
            <glyph unicode="&#x30c;" d="M331 1311h-5l-119 201h-170l212 -318h161l211 318h-167z"/>
            <glyph unicode="&#x30d;" d="M-531 1512h-136v-318h136v318z"/>
            <glyph unicode="&#x30e;" d="M-684 1512h-136v-318h136v318zM-377 1512h-136v-318h136v318z"/>
            <glyph unicode="&#x30f;" d="M-717 1205h140l-161 307h-211zM-383 1205h138l-163 307h-207z"/>
            <glyph unicode="&#x311;" d="M-866 1227h123q11 143 147 143q120 0 140 -143h125q0 126 -70.5 197t-196.5 71q-124 0 -196 -73t-72 -195z"/>
            <glyph unicode="&#x312;" d="M-732 1109l169 16q28 198 99 389l-105 -11q-88 -140 -163 -394z"/>
            <glyph unicode="&#x313;" d="M-464 1514l-169 -15q-29 -199 -99 -390l105 11q86 136 163 394z"/>
            <glyph unicode="&#x314;" d="M-563 1499l-169 15q73 -250 163 -394l105 -11q-70 191 -99 390z"/>
            <glyph unicode="&#x316;" d="M-813 -65l265 -318h165l-192 318h-238z"/>
            <glyph unicode="&#x317;" d="M-813 -383h165l265 318h-242z"/>
            <glyph unicode="&#x31b;" d="M-738 1065l67 -122q94 0 154.5 53.5t60.5 145.5q0 82 -42 171l-175 -29q42 -77 42 -134q0 -41 -24.5 -63t-82.5 -22z"/>
            <glyph unicode="&#x323;" d="M447 -299q0 52 -33.5 88t-85.5 36q-50 0 -84.5 -36.5t-34.5 -87.5t33.5 -86.5t83.5 -35.5q53 0 87 35t34 87z"/>
            <glyph unicode="&#x324;"
                   d="M-684 -243q0 51 -33 86.5t-83 35.5q-53 0 -87.5 -35.5t-34.5 -86.5t34.5 -87t85.5 -36t84.5 35.5t33.5 87.5zM-272 -243q0 51 -32.5 86.5t-82.5 35.5q-53 0 -88 -35.5t-35 -86.5t33.5 -87t83.5 -36q53 0 87 35.5t34 87.5z"/>
            <glyph unicode="&#x325;"
                   d="M-387 -199q0 88 -61.5 149t-149.5 61t-147 -61q-62 -64 -62 -149q0 -87 62 -147q64 -62 147 -62q87 0 149 62t62 147zM-504 -199q0 -37 -27.5 -64.5t-66.5 -27.5q-38 0 -65 27.5t-27 64.5q0 39 27 66.5t65 27.5q39 0 66.5 -27t27.5 -67z"/>
            <glyph unicode="&#x326;" d="M-464 -63l-169 -16q-29 -199 -99 -390l105 11q87 140 163 395z"/>
            <glyph unicode="&#x327;" d="M513 -259q0 59 -44 102.5t-109 51.5l65 111h-136l-101 -184q172 -16 172 -87q0 -41 -37.5 -57t-86 -8t-85.5 31l-34 -102q61 -40 157 -40q239 0 239 182z"/>
            <glyph unicode="&#x328;"
                   d="M498 -403l-21 98q-43 -21 -105 -21q-92 0 -92 92q0 56 59 122.5t146 111.5h-132q-76 -26 -144 -110q-71 -85 -71 -158q0 -78 53 -124.5t140 -46.5q99 0 167 36z"/>
            <glyph unicode="&#x329;" d="M-531 -65h-136v-318h136v318z"/>
            <glyph unicode="&#x32c;" d="M-596 -268h-4l-121 203h-168l212 -318h160l210 318h-166z"/>
            <glyph unicode="&#x32d;" d="M-675 -65l-208 -318h162l119 197h4l121 -197h163l-209 318h-152z"/>
            <glyph unicode="&#x32e;" d="M-331 -83h-123q-11 -143 -146 -143q-120 0 -140 143h-126q0 -126 70.5 -197t197.5 -71q124 0 195.5 73t71.5 195z"/>
            <glyph unicode="&#x32f;" d="M-866 -351h123q10 142 147 142q121 0 140 -142h125q0 126 -70.5 197t-196.5 71q-124 0 -196 -73t-72 -195z"/>
            <glyph unicode="&#x330;" d="M-320 -111h-111q-8 -92 -58 -92q-20 0 -111 42t-125 42q-73 0 -111 -63t-38 -171h113q8 98 56 98q9 0 105 -40q94 -42 127 -42q153 0 153 226z"/>
            <glyph unicode="&#x331;" d="M-851 -165v-136h506v136h-506z"/>
            <glyph unicode="&#x340;" d="M40 1512l265 -318h164l-191 318h-238z"/>
            <glyph unicode="&#x341;" d="M207 1194h163l266 318h-241z"/>
            <glyph unicode="&#x34f;"/>
            <glyph unicode="&#x351;" d="M-493 1472v117q-88 0 -149 -61.5t-61 -149.5q0 -87 61 -146q63 -61 149 -61v115q-39 0 -66.5 27.5t-27.5 64.5q0 40 27 67t67 27z"/>
            <glyph unicode="&#x357;" d="M-703 1589v-117q39 0 66.5 -27t27.5 -67q0 -37 -27.5 -64.5t-66.5 -27.5v-115q88 0 149 61t61 146q0 88 -61 149.5t-149 61.5z"/>
            <glyph unicode="&#xa00;" horiz-adv-x="516"/>
            <glyph unicode="&#xe00;" horiz-adv-x="426"/>
            <glyph unicode="&#xe01;" horiz-adv-x="1342"
                   d="M1190 0v767q0 219 -133 349q-141 135 -390 135q-212 0 -375 -115q-75 -53 -127 -121.5t-71 -140.5l178 -149q-54 -31 -85.5 -87t-31.5 -121v-517h238v531q0 145 126 199l-174 153q31 72 121 123q88 50 198 50q140 0 214.5 -73t74.5 -216v-767h237z"/>
            <glyph unicode="&#xe02;" horiz-adv-x="1228"
                   d="M360 401v143q0 32 15.5 67.5t34 60t50.5 62.5q47 56 73 105t26 104v59q0 113 -56.5 169t-193.5 56h-171v-192h142q53 0 53 -53v-41q0 -14 -5 -30t-9.5 -27t-18.5 -30t-20 -26.5t-26 -31.5l-25 -30q-49 -60 -76.5 -111t-27.5 -111v-141q0 -202 118 -315t359 -113 q474 0 474 450v802h-237v-804q0 -140 -56.5 -198t-180.5 -58q-242 0 -242 234z"/>
            <glyph unicode="&#xe03;" horiz-adv-x="1244"
                   d="M374 401v158q0 12 1.5 23.5t6.5 23.5t8.5 21.5t12 23t13 20.5t16 22t16 20.5l18 22t17.5 21.5q34 41 53.5 68.5t37.5 71t18 85.5v41q0 105 -49 162t-144 57q-112 0 -169 -76l-169 85v-191l182 -85q26 81 77 81q44 0 44 -46v-35q0 -12 -3 -25.5t-6.5 -23.5t-12 -24.5 t-13.5 -23t-18 -24.5t-18 -22.5t-21 -25t-20 -23.5q-35 -41 -55 -69t-38.5 -71t-18.5 -84v-156q0 -201 118 -314.5t357 -113.5q246 0 361 114t115 336v802h-236v-804q0 -140 -58 -198t-182 -58q-241 0 -241 234z"/>
            <glyph unicode="&#xe04;" horiz-adv-x="1378"
                   d="M391 529v240q0 130 77 208.5t220 78.5q145 0 223 -78.5t78 -208.5v-769h236v769q0 211 -142 344q-148 138 -395 138q-248 0 -394 -138q-68 -64 -104.5 -153.5t-36.5 -190.5v-769h238v289q47 173 234 173h142v202h-140q-88 0 -148 -37.5t-88 -97.5z"/>
            <glyph unicode="&#xe05;" horiz-adv-x="1399"
                   d="M391 529v326q0 146 111 182l197 -117l198 117q111 -33 111 -182v-855h236v849q0 159 -80.5 261.5t-236.5 140.5l-228 -145l-226 145q-157 -37 -238.5 -139.5t-81.5 -262.5v-849h238v289q50 173 238 173h145v202h-141q-89 0 -150.5 -37.5t-91.5 -97.5z"/>
            <glyph unicode="&#xe06;" horiz-adv-x="1342"
                   d="M401 395v153q0 34 17.5 73t31 59t50.5 70q46 62 72 117.5t26 121.5v34q0 106 -48.5 162.5t-143.5 56.5q-113 0 -170 -76l-169 85v-191l182 -85q26 81 77 81q44 0 44 -46v-35q0 -33 -17.5 -71.5t-32.5 -59t-52 -68.5q-49 -63 -76 -116t-27 -112v-548h214l22 165 q140 -190 368 -190q206 0 313.5 122.5t107.5 351.5v778h-237v-771q0 -143 -55.5 -214t-174.5 -71q-99 0 -187.5 64t-134.5 160z"/>
            <glyph unicode="&#xe07;" horiz-adv-x="1235"
                   d="M383 0h198q244 0 399 175q160 181 160 473q0 276 -130 445q-123 158 -328 158q-116 0 -205 -42l36 -179q69 26 140 26q115 0 182.5 -98.5t67.5 -309.5q0 -205 -96 -332q-92 -121 -220 -121h-26l-312 1032h-236z"/>
            <glyph unicode="&#xe08;" horiz-adv-x="1194"
                   d="M366 0h193q113 0 211.5 48.5t171.5 136.5q156 189 156 466q0 285 -147.5 442.5t-427.5 157.5q-143 0 -273 -49.5t-229 -130.5l73 -174q88 76 198.5 117.5t224.5 41.5q169 0 256.5 -97.5t87.5 -305.5q0 -207 -89 -332q-88 -121 -205 -126h-26l-83 346q-23 95 -74 131 t-145 36h-130v-195h84q49 0 60 -51z"/>
            <glyph unicode="&#xe09;" horiz-adv-x="1301"
                   d="M81 513h68q41 0 41 -49v-111q0 -378 356 -378q139 0 231 58q74 45 135 132l19 -165h217v734q0 246 -136 381.5t-403 135.5q-291 0 -544 -175l86 -179q95 71 213 115t241 44q154 0 230.5 -82.5t76.5 -239.5v-339q-43 -100 -119.5 -162t-181.5 -62q-96 0 -141 43.5 t-45 149.5v149q0 195 -193 195h-151v-195z"/>
            <glyph unicode="&#xe0a;" horiz-adv-x="1228"
                   d="M360 401v143q0 32 15.5 67.5t34 60t50.5 62.5q47 56 73 105t26 104v59q0 113 -56.5 169t-193.5 56h-171v-192h142q53 0 53 -53v-41q0 -14 -5 -30t-9.5 -27t-18.5 -30t-20 -26.5t-26 -31.5l-25 -30q-49 -60 -76.5 -111t-27.5 -111v-141q0 -201 118.5 -314.5t358.5 -113.5 q246 0 361.5 114t115.5 336v219q0 98 -52 168.5t-140 94.5l248 320h-252l-232 -338l35 -92h37q59 0 88.5 -35.5t29.5 -115.5v-223q0 -140 -57.5 -198t-181.5 -58q-242 0 -242 234z"/>
            <glyph unicode="&#xe0b;" horiz-adv-x="1242"
                   d="M1091 425v219q0 99 -51 169t-139 94l247 320h-251l-233 -338l35 -92h37q59 0 89 -36t30 -115v-223q0 -140 -58 -198t-182 -58q-241 0 -241 234v158q0 12 1.5 23.5t6.5 23.5t8.5 21.5t12 23t13 20.5t16 22t16 20.5l18 22t17.5 21.5q34 41 53.5 68.5t37.5 71t18 85.5v41 q0 105 -49 162t-144 57q-112 0 -169 -76l-169 85v-191l182 -85q26 81 77 81q44 0 44 -46v-35q0 -11 -1.5 -22t-6.5 -22.5t-8.5 -20.5t-12.5 -22t-13.5 -20t-16.5 -22t-16.5 -20t-19 -21.5t-18.5 -21.5q-54 -62 -83.5 -114t-29.5 -110l2 -156q0 -201 118 -314.5t357 -113.5 q246 0 361 114t115 336z"/>
            <glyph unicode="&#xe0c;" horiz-adv-x="2035"
                   d="M1646 1227v-771q2 -285 -206 -285q-88 0 -172 64.5t-128 159.5v372q0 220 -126 349q-135 135 -372 135q-202 0 -358 -115q-72 -53 -121.5 -121.5t-68.5 -140.5l178 -149q-54 -31 -85.5 -87t-31.5 -121v-298q0 -100 57.5 -159.5t161.5 -59.5h182v190h-122q-41 0 -41 46 v295q0 145 126 199l-174 153q30 71 116 123q81 50 177 50q127 0 196 -73t69 -216v-767h217l20 165q61 -84 150 -137t196 -53q192 0 294 122.5t102 351.5v778h-236z"/>
            <glyph unicode="&#xe0d;" horiz-adv-x="2035"
                   d="M1644 188v-85q0 -163 -85 -228q-72 -55 -223 -55q-81 0 -169.5 22.5t-160.5 61.5l-59 -172q189 -100 416 -100q234 0 369 116q146 125 146 361v1118h-237v-830q-46 -90 -125 -146t-182 -56q-197 0 -197 234v338q0 221 -125 349q-135 135 -370 135q-202 0 -358 -115 q-72 -53 -121.5 -121.5t-68.5 -140.5l178 -149q-54 -31 -85.5 -87t-31.5 -121v-298q0 -100 57.5 -159.5t161.5 -59.5h182v190h-122q-41 0 -41 46v295q0 145 126 199l-174 153q30 71 116 123q81 50 177 50q127 0 195 -73t68 -216v-344q0 -214 112 -323q101 -100 280 -100 q119 0 219 63q83 51 132 125z"/>
            <glyph unicode="&#xe0e;" horiz-adv-x="1362"
                   d="M1209 -439v1206q0 221 -133 349q-141 135 -390 135q-214 0 -377 -115q-155 -109 -198 -262l200 -161q-52 -29 -82 -84t-30 -121v-272q0 -46 -42 -46h-98v-190h156q103 0 162.5 60.5t59.5 158.5v304q0 77 29 122t93 72l-197 166q34 75 122.5 124t197.5 49q140 0 215.5 -73 t75.5 -216v-1030q-50 56 -146 99q-91 41 -194 41q-215 0 -363 -138l63 -184q83 68 159 96.5t175 28.5q76 0 148.5 -33.5t127.5 -85.5h266z"/>
            <glyph unicode="&#xe0f;" horiz-adv-x="1362"
                   d="M1209 -439v1206q0 221 -133 349q-141 135 -390 135q-214 0 -377 -115q-155 -109 -198 -262l200 -161q-52 -29 -82 -84t-30 -121v-272q0 -46 -42 -46h-98v-190h156q107 0 164.5 59.5t57.5 159.5v304q0 77 29 122t93 72l-197 166q34 75 122.5 124t197.5 49q140 0 215.5 -73 t75.5 -216v-1010l-276 170q-20 -91 -83 -143t-156 -52q-101 0 -203 71l-60 -190q109 -67 265 -67q91 0 163.5 43.5t112.5 117.5l237 -146h236z"/>
            <glyph unicode="&#xe10;" horiz-adv-x="1194"
                   d="M366 0h193q113 0 211.5 48.5t171.5 136.5q156 189 156 466q0 257 -151 425l199 237h-265l-99 -117q-120 55 -259 55q-145 0 -275 -49t-227 -131l73 -174q88 76 198.5 117.5t224.5 41.5q167 0 255.5 -101t88.5 -302q0 -207 -89 -332q-88 -121 -205 -126h-26l-83 346 q-23 95 -74 131t-145 36h-130v-195h84q49 0 60 -51zM1021 -121h-216v-124h-95q-66 0 -111 25.5t-93 81.5q-81 -107 -217 -107h-162v-194h158q70 0 131 30t90 81q32 -50 90.5 -80.5t128.5 -30.5h296v318z"/>
            <glyph unicode="&#xe11;" horiz-adv-x="1357"
                   d="M395 0v500q0 89 35.5 186t96.5 181q63 86 142 137.5t159 51.5q73 0 105.5 -50t32.5 -169v-837h237v843q0 197 -96 310q-85 98 -235 98q-100 0 -182 -44t-129 -111q-5 66 -47 106t-115 40q-112 0 -169 -76l-157 85v-191l170 -85q26 81 77 81q44 0 44 -46v-65 q-78 -76 -137 -190q-70 -135 -70 -260v-495h238z"/>
            <glyph unicode="&#xe12;" horiz-adv-x="2171"
                   d="M1782 1227v-771q0 -140 -53 -212.5t-169 -72.5q-98 0 -185 64t-133 160v454q0 160 -80 262t-238 140l-201 -138l-188 138q-196 -42 -318 -222q-119 -175 -119 -420q0 -312 149 -476q135 -148 355 -148q126 0 218 46l-44 178q-59 -29 -155 -29q-114 0 -194 93 q-92 107 -92 336q0 170 59.5 281t161.5 145l167 -106l172 108q111 -33 111 -182v-855h217l19 165q140 -190 364 -190q205 0 308.5 121.5t103.5 352.5v778h-236z"/>
            <glyph unicode="&#xe13;" horiz-adv-x="2035"
                   d="M1140 403v364q0 220 -126 349q-135 135 -372 135q-202 0 -358 -115q-72 -53 -121.5 -121.5t-68.5 -140.5l178 -149q-54 -31 -85.5 -87t-31.5 -121v-298q0 -100 57.5 -159.5t161.5 -59.5h182v190h-122q-41 0 -41 46v295q0 145 126 199l-174 153q30 71 116 123 q81 50 177 50q127 0 196 -73t69 -216v-370q0 -206 99 -314t286 -108q215 0 353 190l20 -165h217v1227h-237v-832q-45 -97 -131.5 -160.5t-190.5 -63.5q-179 0 -179 232z"/>
            <glyph unicode="&#xe14;" horiz-adv-x="1391"
                   d="M1247 0v734q0 227 -137 367q-147 150 -411 150q-286 0 -448 -188q-153 -177 -153 -465q0 -300 155 -465q139 -148 354 -148q125 0 217 46l-44 178q-57 -29 -155 -29q-119 0 -196 91q-94 111 -94 327q0 214 97 336t273 122q146 0 225.5 -88t79.5 -232v-736h237z"/>
            <glyph unicode="&#xe15;" horiz-adv-x="1419"
                   d="M736 1113l-197 138q-198 -43 -321 -222q-120 -175 -120 -424q0 -308 151 -474q133 -146 358 -146q125 0 217 46l-44 178q-57 -29 -155 -29q-116 0 -196 93q-94 109 -94 332q0 173 61 286.5t165 147.5l175 -110l180 112q112 -33 112 -186v-855h237v849q0 159 -80.5 261.5 t-237.5 140.5z"/>
            <glyph unicode="&#xe16;" horiz-adv-x="1344"
                   d="M393 236v295q0 145 126 199l-174 153q31 72 121 123q88 50 198 50q140 0 216 -73t76 -216v-767h236v767q0 221 -133 349q-141 135 -390 135q-214 0 -377 -115q-75 -53 -127 -121.5t-71 -140.5l178 -149q-54 -31 -85.5 -87t-31.5 -121v-298q0 -100 57.5 -159.5 t161.5 -59.5h182v190h-122q-41 0 -41 46z"/>
            <glyph unicode="&#xe17;" horiz-adv-x="1362"
                   d="M1209 0v795q0 214 -103 335t-286 121q-131 0 -246 -60q-104 -54 -179 -131l-23 167h-215v-1227h238v839q69 97 170.5 157t216.5 60q191 0 191 -267v-789h236z"/>
            <glyph unicode="&#xe18;" horiz-adv-x="1228"
                   d="M1125 353v99q0 137 -75 208.5t-222 93.5l-397 57q-113 20 -113 111q0 62 73 104q74 41 218 41q236 0 419 -97l43 180q-196 101 -466 101q-243 0 -378 -91t-135 -248q0 -250 303 -294l400 -55q52 -7 78 -32.5t26 -74.5v-103q0 -109 -65 -151q-57 -37 -223 -37 q-157 0 -221 44.5t-64 162.5v128h-228v-128q0 -207 120 -299t393 -92q272 0 393 88t121 284z"/>
            <glyph unicode="&#xe19;" horiz-adv-x="1342"
                   d="M153 1227v-800q0 -226 104.5 -339t305.5 -113q129 0 226 52.5t160 137.5l21 -165h216v1227h-237v-832q-45 -96 -136.5 -160t-191.5 -64q-118 0 -174 62t-56 201v793h-238z"/>
            <glyph unicode="&#xe1a;" horiz-adv-x="1344"
                   d="M673 -25q251 0 385 123t134 360v769h-236v-769q0 -137 -73 -212t-210 -75t-209.5 75t-72.5 212v769h-238v-769q0 -237 134.5 -360t385.5 -123z"/>
            <glyph unicode="&#xe1b;" horiz-adv-x="1344"
                   d="M673 -25q251 0 385 123t134 360v1186h-236v-1186q0 -137 -73 -212t-210 -75t-209.5 75t-72.5 212v769h-238v-769q0 -237 134.5 -360t385.5 -123z"/>
            <glyph unicode="&#xe1c;" horiz-adv-x="1474"
                   d="M1317 0v1227h-228v-650q0 -161 26 -345h-4q-2 9 -10 37t-10.5 37t-9.5 32t-10.5 33.5t-10 29.5t-11.5 31t-12 27t-14 28l-201 396h-163l-190 -373q-62 -116 -105 -278h-7q28 168 28 347v410q0 46 44 46h110v192h-162q-125 0 -175 -78q-45 -70 -45 -198v-951h257l263 526 q47 106 61 182h5q22 -88 64 -182l253 -526h257z"/>
            <glyph unicode="&#xe1d;" horiz-adv-x="1474"
                   d="M1317 0v1644h-228v-1067q0 -161 26 -345h-4q-2 9 -10 37t-10.5 37t-9.5 32t-10.5 33.5t-10 29.5t-11.5 31t-12 27t-14 28l-201 396h-163l-190 -373q-62 -116 -105 -278h-7q28 168 28 347v410q0 46 44 46h110v192h-162q-125 0 -175 -78q-45 -70 -45 -198v-951h257l263 526 q47 106 61 182h5q22 -88 64 -182l253 -526h257z"/>
            <glyph unicode="&#xe1e;" horiz-adv-x="1592"
                   d="M690 1166l-188 -631q-25 -95 -59 -326h-6l-5 95q-4 61 -5 81q-4 60 -17 156l-109 686h-236l207 -1227h261l186 594q49 156 74 388h7q25 -238 74 -388l186 -594h261l206 1227h-234l-110 -688q-2 -13 -3.5 -27t-3.5 -29.5t-3 -23.5q-12 -96 -13 -155l-3 -95h-7 q-24 160 -26 178q-11 76 -30 146l-191 633h-213z"/>
            <glyph unicode="&#xe1f;" horiz-adv-x="1592"
                   d="M692 1166l-186 -631q-41 -139 -61 -326h-6q-4 88 -11 174q-8 94 -16 143q-14 86 -34 215q-37 224 -53 340q-11 76 -24 146h-236q81 -462 207 -1227h261l192 594q49 155 72 370h5q24 -196 85 -370l198 -594h256l186 1644h-218l-111 -1067q-8 -102 -12 -170 q-7 -100 -7 -198h-6q-34 223 -82 372l-184 585h-215z"/>
            <glyph unicode="&#xe20;" horiz-adv-x="1362"
                   d="M437 219v304q0 77 29 122t93 72l-197 166q34 75 122.5 124t197.5 49q140 0 215.5 -73t75.5 -216v-767h236v767q0 221 -133 349q-141 135 -390 135q-214 0 -377 -115q-155 -109 -198 -262l200 -161q-52 -29 -82 -84t-30 -121v-272q0 -46 -42 -46h-98v-190h156 q106 -2 164 58t58 161z"/>
            <glyph unicode="&#xe21;" horiz-adv-x="1342"
                   d="M953 1227v-771q0 -285 -232 -285q-100 0 -190 64.5t-136 159.5v832h-238v-1227h215l23 165q63 -85 157 -137.5t215 -52.5q206 0 314.5 122.5t108.5 351.5v778h-237z"/>
            <glyph unicode="&#xe22;" horiz-adv-x="1292"
                   d="M903 1227v-760q0 -143 -78 -219.5t-231 -76.5q-116 0 -189 56q-81 61 -81 160q0 86 57 137t150 51h161l-19 190h-178q-71 0 -119 39q-56 46 -56 114q0 59 40 93t115 34q63 0 138 -31l27 187q-96 41 -224 41q-150 0 -238 -83q-86 -80 -86 -206q0 -109 65 -190 q59 -75 148 -99q-97 -24 -155 -101t-58 -184q0 -194 133 -299t362 -105q287 0 426 136q127 124 127 353v763h-237z"/>
            <glyph unicode="&#xe23;" horiz-adv-x="1095"
                   d="M502 169q-184 0 -349 84l-57 -182q162 -96 421 -96q238 0 361.5 94t123.5 253q0 163 -111 260q-89 78 -306 150q-131 40 -188 76q-77 49 -77 114q0 64 66 99t179 35q192 0 334 -77l61 176q-189 96 -410 96q-206 0 -334 -91q-126 -89 -126 -236q0 -158 114 -253 q82 -68 281 -132q87 -30 103 -35q51 -17 92 -42q91 -55 91 -131q0 -77 -69.5 -119.5t-199.5 -42.5z"/>
            <glyph unicode="&#xe24;" horiz-adv-x="1344"
                   d="M393 236v295q0 145 126 199l-174 153q31 72 121 123q88 50 198 50q140 0 216 -73t76 -216v-1206h236v1206q0 221 -133 349q-141 135 -390 135q-214 0 -377 -115q-75 -53 -127 -121.5t-71 -140.5l178 -149q-54 -31 -85.5 -87t-31.5 -121v-298q0 -100 57.5 -159.5 t161.5 -59.5h182v190h-122q-41 0 -41 46z"/>
            <glyph unicode="&#xe25;" horiz-adv-x="1284"
                   d="M1131 0v791q0 213 -131.5 336.5t-368.5 123.5q-148 0 -300 -50q-117 -38 -212 -110l76 -164q199 136 423 136q279 0 279 -274v-35h-266q-556 0 -556 -399q0 -93 32 -165q62 -141 215 -188q53 -16 117 -21.5t140.5 4t143.5 36.5l-37 182q-88 -36 -180 -36q-87 0 -143 50 t-56 140q0 206 302 206h288v-563h234z"/>
            <glyph unicode="&#xe26;" horiz-adv-x="1362"
                   d="M437 219v304q0 77 29 122t93 72l-197 166q34 75 122.5 124t197.5 49q140 0 215.5 -73t75.5 -216v-1206h236v1206q0 221 -133 349q-141 135 -390 135q-214 0 -377 -115q-155 -109 -198 -262l200 -161q-52 -29 -82 -84t-30 -121v-272q0 -46 -42 -46h-98v-190h156 q106 -2 164 58t58 161z"/>
            <glyph unicode="&#xe27;" horiz-adv-x="1154"
                   d="M123 278l-56 -188q164 -115 420 -115q275 0 422 165.5t147 484.5q0 298 -145 462t-413 164q-229 0 -433 -129l56 -181q87 58 170.5 86.5t183.5 28.5q167 0 256 -110t89 -337q0 -215 -90 -326.5t-255 -111.5q-171 0 -352 107z"/>
            <glyph unicode="&#xe28;" horiz-adv-x="1378"
                   d="M391 529v240q0 130 78 208.5t221 78.5q144 0 221.5 -83t77.5 -214v-759h236v759q0 208 -134 326l191 228h-266l-94 -112q-105 50 -232 50q-247 0 -395 -138q-142 -133 -142 -344v-769h238v289q47 173 234 173h138v202h-136q-88 0 -148 -37.5t-88 -97.5z"/>
            <glyph unicode="&#xe29;" horiz-adv-x="1373"
                   d="M673 -25q251 0 385 123t134 360v165h142l48 190h-190v414h-236v-414h-274v-190h274v-165q0 -137 -73 -212t-210 -75t-209.5 75t-72.5 212v769h-238v-769q0 -237 134.5 -360t385.5 -123z"/>
            <glyph unicode="&#xe2a;" horiz-adv-x="1284"
                   d="M1131 0v791q0 189 -115 309l176 213h-263l-86 -104q-89 42 -216 42q-153 0 -291 -49t-217 -111l76 -164q199 136 426 136q141 0 212 -79q64 -71 64 -195v-35h-266q-556 0 -556 -399q0 -93 32 -165q62 -141 215 -188q53 -16 117 -21.5t140.5 4t143.5 36.5l-37 182 q-88 -36 -180 -36q-87 0 -143 50t-56 140q0 206 302 206h288v-563h234z"/>
            <glyph unicode="&#xe2b;" horiz-adv-x="1307"
                   d="M1260 0l-184 583q-38 117 -102 188.5t-172 94.5l438 361h-307l-538 -449v449h-238v-1227h238v523l243 207q149 -4 208 -191l166 -539h248z"/>
            <glyph unicode="&#xe2c;" horiz-adv-x="1474"
                   d="M1317 0v931q0 125 -56.5 209.5t-162.5 101.5l311 402h-238l-297 -417l36 -92h25q154 0 154 -192v-316q0 -213 26 -395h-4q-42 165 -136 347l-162 304h-162l-199 -396q-53 -110 -88 -255h-7q28 186 28 397v598h-228v-1227h257l255 526q25 48 61 182h4q16 -52 25 -84 q12 -49 38 -98l42 -85q122 -246 221 -441h257z"/>
            <glyph unicode="&#xe2d;" horiz-adv-x="1309"
                   d="M559 708h-239q-224 -2 -224 -231v-50q0 -217 135.5 -334.5t404.5 -117.5q277 0 427.5 162t150.5 476q0 304 -158 471t-433 167q-164 0 -309 -52q-125 -45 -218 -118l77 -176q201 151 440 151q170 0 267 -112.5t97 -320.5q0 -239 -94 -345q-31 -35 -84.5 -62t-115 -40 t-125 -5.5t-114.5 33.5t-83.5 83.5t-32.5 139.5v33q0 53 49 53h182v195z"/>
            <glyph unicode="&#xe2e;" horiz-adv-x="1309"
                   d="M559 708h-239q-224 -2 -224 -231v-50q0 -217 135.5 -334.5t404.5 -117.5q277 0 427.5 162t150.5 476q0 301 -177 478l186 222h-263l-94 -110q-114 48 -243 48q-164 0 -309 -52q-125 -45 -218 -118l77 -176q201 151 440 151q163 0 261 -115q103 -121 103 -318 q0 -239 -94 -345q-31 -35 -84.5 -62t-115 -40t-125 -5.5t-114.5 33.5t-83.5 83.5t-32.5 139.5v33q0 53 49 53h182v195z"/>
            <glyph unicode="&#xe2f;" horiz-adv-x="1211"
                   d="M1054 1227h-230v-52q0 -124 -103 -217q-98 -90 -221 -90q-191 0 -191 252v107h-232v-107q0 -196 93 -313q98 -125 288 -125q118 0 217 54t142 140v-876h237v1227z"/>
            <glyph unicode="&#xe30;" horiz-adv-x="682"
                   d="M92 1081v-106q0 -111 59.5 -161.5t162.5 -50.5h269v184h-223q-46 0 -46 46v88h-222zM92 483v-106q0 -111 59.5 -161.5t162.5 -50.5h269v184h-223q-46 0 -46 46v88h-222z"/>
            <glyph unicode="&#xe31;" d="M-661 1711v-99q0 -223 234 -223h580v184h-538q-56 2 -56 58v80h-220z"/>
            <glyph unicode="&#xe32;" horiz-adv-x="1053" d="M901 0v780q0 224 -114 347.5t-331 123.5q-120 0 -238 -42.5t-203 -104.5l62 -173q75 55 169 90t188 35q230 0 230 -267v-789h237z"/>
            <glyph unicode="&#xe33;" horiz-adv-x="1053"
                   d="M-276 1357q102 0 165 66q67 72 67 166q0 98 -67 164t-165 66t-165 -66t-67 -164q0 -95 68 -166q61 -66 164 -66zM-276 1499q-38 0 -63 27t-25 65t25 64t63 26q37 0 63.5 -26t26.5 -64q0 -37 -26.5 -64.5t-63.5 -27.5zM901 0v780q0 224 -114 347.5t-331 123.5 q-120 0 -238 -42.5t-203 -104.5l62 -173q75 55 169 90t188 35q230 0 230 -267v-789h237z"/>
            <glyph unicode="&#xe34;" d="M-153 1573h-969v-184h969v184z"/>
            <glyph unicode="&#xe35;" d="M-153 1777h-217v-204h-752v-184h969v388z"/>
            <glyph unicode="&#xe36;"
                   d="M-1122 1389h813q83 0 146 60q65 63 65 149q0 89 -61.5 148.5t-149.5 59.5q-96 0 -152 -66.5t-56 -166.5h-605v-184zM-309 1520q-31 0 -53.5 23.5t-22.5 56.5t22.5 55t53.5 22q33 0 55 -22t22 -55q0 -34 -22 -57t-55 -23z"/>
            <glyph unicode="&#xe37;" d="M-153 1777h-178v-213h-106v213h-176v-204h-509v-184h969v388z"/>
            <glyph unicode="&#xe38;" d="M-153 -596v255q0 103 -45.5 147.5t-146.5 44.5h-163v-184h85q49 0 49 -48v-215h221z"/>
            <glyph unicode="&#xe39;"
                   d="M-460 -618q148 0 227.5 63.5t79.5 175.5v230h-215v-230q0 -42 -26 -62.5t-66 -20.5q-41 0 -66.5 20.5t-25.5 62.5v230h-335v-177h124v-53q0 -114 77 -176.5t226 -62.5z"/>
            <glyph unicode="&#xe3a;" d="M-117 -289q0 63 -46.5 109t-112.5 46q-63 0 -112 -46q-49 -47 -49 -109q0 -61 49 -110q46 -46 112 -46t112.5 46t46.5 110z"/>
            <glyph unicode="&#xe3f;" horiz-adv-x="1270"
                   d="M723 -219v221q226 13 352 129q113 103 113 285q0 145 -81 232q-74 79 -185 103q83 36 138 102q69 85 69 190q0 166 -102 266t-304 115v220h-131v-218h-435v-1426h435v-219h131zM383 1229h209v-397h-209v397zM905 1041q0 -88 -49.5 -139.5t-132.5 -64.5v388 q86 -13 134 -60t48 -124zM383 640h209v-445h-209v445zM962 423q0 -96 -63 -153.5t-176 -70.5v437q239 -24 239 -213z"/>
            <glyph unicode="&#xe40;" horiz-adv-x="556" d="M160 0h237v1227h-237v-1227z"/>
            <glyph unicode="&#xe41;" horiz-adv-x="1018" d="M160 0h235v1227h-235v-1227zM625 0h234v1227h-234v-1227z"/>
            <glyph unicode="&#xe42;" horiz-adv-x="630"
                   d="M464 0v1313q0 154 -61 269.5t-173 179.5q41 46 119 72.5t180 26.5q188 0 330 -73l38 197q-169 68 -384 68q-180 0 -320.5 -70.5t-211.5 -192.5l4 -57q31 -11 71.5 -42t76.5 -77q93 -120 93 -284v-1330h238z"/>
            <glyph unicode="&#xe43;" horiz-adv-x="630"
                   d="M464 0v1125q0 42 10 81t34 81t39 64.5t50 69.5q33 44 49.5 68.5t39.5 65.5t33.5 81t10.5 82q0 145 -95 237q-103 98 -271 98q-259 0 -429 -199l82 -152q80 78 154 117.5t155 39.5q83 0 124 -42t41 -110q0 -15 -3.5 -31t-7.5 -28.5t-14 -31t-16 -29t-21 -31.5t-21 -29.5 t-25 -33t-24 -31.5q-41 -55 -65.5 -93t-46 -97t-21.5 -117v-1155h238z"/>
            <glyph unicode="&#xe44;" horiz-adv-x="630" d="M464 0v1462q0 292 215 388v168h-752v-190h483q-184 -121 -184 -397v-1431h238z"/>
            <glyph unicode="&#xe45;" horiz-adv-x="1053" d="M901 -439v1219q0 224 -114 347.5t-331 123.5q-120 0 -238 -42.5t-203 -104.5l62 -173q75 55 169 90t188 35q230 0 230 -267v-1228h237z"/>
            <glyph unicode="&#xe46;" horiz-adv-x="1246"
                   d="M1094 -439v1334q0 151 -82.5 249t-235.5 109l-184 -133l-184 133q-129 -13 -217 -90q-97 -85 -97 -218q0 -84 25 -141q46 -111 162 -152q49 -20 120.5 -19.5t127.5 28.5l-29 169q-47 -15 -82 -15q-49 0 -83 35t-34 93q0 52 25.5 88t74.5 45l191 -123l177 123 q88 -16 88 -158v-1357h237z"/>
            <glyph unicode="&#xe47;"
                   d="M-230 1556h-161q-84 0 -102 66h-122q-9 -39 -37.5 -65.5t-68.5 -26.5q-41 0 -66.5 28t-25.5 68q0 42 28 69.5t82 27.5h471v168h-478q-145 0 -226 -81q-74 -74 -74 -181q0 -114 72.5 -183.5t192.5 -69.5q73 0 124 33t71 86q25 -49 69 -78.5t100 -29.5h151v169z"/>
            <glyph unicode="&#xe48;" d="M-153 2216h-217v-327h217v327z"/>
            <glyph unicode="&#xe49;" d="M-318 2097v44q0 111 -131 111h-191v-177h121q17 0 22.5 -8t5.5 -27v-55q0 -42 29.5 -69t74.5 -27h393v175h-293q-31 0 -31 33z"/>
            <glyph unicode="&#xe4a;"
                   d="M-345 1889h115q123 0 201 86q75 83 75 197q0 52 -21 105h-196q29 -56 29 -107q0 -131 -67 -178q8 27 8 53q-6 75 -53 123t-131 52l-113 -104l-123 102q-99 -10 -151 -70t-52 -130q0 -79 31 -134h170q-25 57 -25 101q0 24 13.5 42t34.5 22l100 -66l99 72q27 -5 45 -21 q18 -18 17 -55t-21 -55z"/>
            <glyph unicode="&#xe4b;" d="M-355 2036l-7 -147h197l-4 147l173 -7v160l-173 -4l4 147h-197l7 -147l-176 4v-160z"/>
            <glyph unicode="&#xe4c;" d="M-40 1999h-219q-120 0 -182.5 -57.5t-62.5 -159.5v-95h230v61q0 69 67 69h167v182z"/>
            <glyph unicode="&#xe4d;"
                   d="M-276 1357q102 0 165 66q67 72 67 166q0 98 -67 164t-165 66t-165 -66t-67 -164q0 -95 68 -166q61 -66 164 -66zM-276 1499q-38 0 -63 27t-25 65t25 64t63 26q37 0 63.5 -26t26.5 -64q0 -37 -26.5 -64.5t-63.5 -27.5z"/>
            <glyph unicode="&#xe4e;"
                   d="M-311 1416v127q-56 -23 -126 -23q-43 0 -69.5 18t-26.5 49q0 29 26 45t68 16q70 0 140 -22l40 97q-65 35 -65 63q0 15 9 26t22 11h155l-35 138h-155q-81 0 -120 -30.5t-39 -76.5q0 -48 35 -83q-128 14 -194.5 -41.5t-66.5 -149.5q0 -104 76 -155q69 -47 177 -47 q84 0 149 38z"/>
            <glyph unicode="&#xe4f;" horiz-adv-x="1196"
                   d="M598 57q94 0 180.5 37t151.5 102q64 64 99.5 149.5t35.5 180.5q0 194 -135 331q-65 64 -151 100t-181 36q-94 0 -180 -36t-151 -100q-135 -135 -135 -331q0 -96 35.5 -181t99.5 -149q65 -65 151 -102t180 -37zM598 142q-163 0 -270 112q-113 116 -113 272q0 154 113 270 q106 111 270 111q163 0 271 -111q110 -115 110 -270q0 -157 -110 -272q-109 -112 -271 -112zM598 257q110 0 190 78t80 191q0 112 -79 191q-78 78 -193 78q-112 0 -189 -77q-81 -79 -81 -195q0 -113 80 -188q81 -78 192 -78zM598 393q-56 0 -95 38.5t-39 91.5 q0 55 39.5 93.5t92.5 38.5q55 0 93.5 -38t38.5 -91q0 -56 -38 -94.5t-92 -38.5z"/>
            <glyph unicode="&#xe50;" horiz-adv-x="1410"
                   d="M96 531q0 -251 179 -407q165 -145 428 -145q264 0 433 145q179 153 179 407q0 253 -179 406q-172 146 -431 146q-125 0 -237 -37.5t-193 -108.5q-179 -156 -179 -406zM326 531q0 164 110 268q106 98 267 98q164 0 270 -98q110 -105 110 -268q0 -165 -110 -270 q-104 -98 -270 -98q-163 0 -267 98q-110 104 -110 270z"/>
            <glyph unicode="&#xe51;" horiz-adv-x="1430"
                   d="M550 -247h73q147 0 277.5 47t226.5 136q207 192 207 507q0 288 -175 466q-172 174 -467 174q-266 0 -432 -144q-168 -146 -168 -380q0 -228 142 -354q132 -117 331 -117q119 0 224 54l-22 169q-85 -39 -202 -39q-110 0 -178.5 76t-68.5 211q0 147 104 242q106 96 270 96 q184 0 296 -121q114 -123 114 -337q0 -241 -147 -380q-130 -124 -317 -124h-66z"/>
            <glyph unicode="&#xe52;" horiz-adv-x="1656"
                   d="M1514 434v250q0 184 -79.5 280.5t-255.5 118.5l-182 -161l-202 161q-136 -24 -211.5 -115.5t-75.5 -220.5q0 -144 85.5 -234t230.5 -112l52 149q-67 22 -109 72t-42 114q0 55 26 97.5t69 53.5l177 -126l169 124q62 -13 89 -59.5t27 -137.5v-254q0 -120 -57.5 -184 t-153.5 -64h-479q-99 0 -156 63.5t-57 184.5v793h-232v-793q0 -198 112 -313q116 -121 322 -121h500q207 0 322 121q111 117 111 313z"/>
            <glyph unicode="&#xe53;" horiz-adv-x="1468"
                   d="M841 395v318q0 184 138 184q66 0 94 -53q21 -42 21 -116v-728h232v725q0 162 -85.5 260t-234.5 98q-103 0 -165 -41t-101 -118q-67 159 -245 159q-179 0 -287 -153q-103 -147 -103 -397t111 -401q108 -147 299 -147q93 0 164 52l-43 149q-60 -23 -107 -23q-92 0 -143 99 t-51 273q0 167 44 264.5t138 97.5q65 0 92 -47t27 -137v-318h205z"/>
            <glyph unicode="&#xe54;" horiz-adv-x="1351"
                   d="M1297 182h-140q-113 0 -168.5 44.5t-55.5 124.5q0 59 34.5 92.5t86.5 33.5h83l40 182h-173q-127 0 -204 -65q-85 -72 -85 -207q0 -95 50 -172q-65 -55 -167 -55q-117 0 -191 99q-81 106 -81 264q0 349 364 349h259q175 0 267.5 76.5t92.5 226.5v52h-230v-52 q0 -59 -29 -84q-38 -33 -132 -33h-230q-262 0 -422 -134q-170 -143 -170 -405q0 -242 132 -397q124 -147 331 -147q190 0 284 113q51 -50 113 -69t166 -19h136z"/>
            <glyph unicode="&#xe55;" horiz-adv-x="1351"
                   d="M1297 182h-140q-113 0 -168.5 44.5t-55.5 124.5q0 59 34.5 92.5t86.5 33.5h83l40 182h-173q-127 0 -204 -65q-85 -72 -85 -207q0 -95 50 -172q-65 -55 -167 -55q-117 0 -191 99q-81 106 -81 264q0 349 364 349h259q177 0 268.5 76.5t91.5 226.5v52h-230v-52 q0 -59 -29 -84q-38 -33 -132 -33h-79q4 20 4 40q0 93 -64 157q-66 64 -156 64q-93 0 -157 -64q-65 -67 -65 -157q0 -43 17 -86q-152 -58 -237 -182t-85 -311q0 -242 132 -397q124 -147 331 -147q190 0 284 113q51 -50 113 -69t166 -19h136zM623 1019q-31 0 -54 24t-23 57 q0 34 22.5 56.5t54.5 22.5q33 0 55.5 -22t22.5 -57q0 -33 -22.5 -57t-55.5 -24z"/>
            <glyph unicode="&#xe56;" horiz-adv-x="1357"
                   d="M414 495l-165 120q-49 -42 -79 -106t-30 -139q0 -174 140 -284q141 -111 384 -111q295 0 457 174q142 151 142 390q0 238 -159 394q-74 71 -173.5 110.5t-207.5 39.5q-121 0 -223 -45.5t-161 -119.5l-96 331h-232l173 -504h178q114 154 324 154q154 0 251 -99 q93 -95 93 -254q0 -172 -90 -274q-96 -109 -276 -109q-142 0 -222 61q-78 58 -78 138t50 133z"/>
            <glyph unicode="&#xe57;" horiz-adv-x="1792"
                   d="M780 657v97q0 143 96 143q61 0 83.5 -44.5t22.5 -118.5v-734h274q192 0 291 103t99 282v842h-226v-861q0 -97 -44.5 -150t-122.5 -53h-48v562q0 162 -71.5 260t-195.5 98q-183 0 -248 -145q-45 145 -205 145q-171 0 -278 -153q-102 -148 -102 -397q0 -250 111 -401 q108 -147 299 -147q95 0 164 52l-43 149q-57 -23 -107 -23q-87 0 -140.5 100.5t-53.5 271.5t39 259q46 103 132 103q54 0 73 -35.5t19 -107.5v-97h182z"/>
            <glyph unicode="&#xe58;" horiz-adv-x="1437"
                   d="M646 872h301q176 0 267.5 76.5t91.5 226.5v52h-227v-52q0 -57 -33.5 -87t-127.5 -30h-285q-224 0 -360 -126q-135 -127 -135 -317v-260q0 -173 104.5 -267t292.5 -99l216 197l246 -199q65 2 128.5 33t113.5 83q111 114 111 259q0 139 -86 239q-85 100 -227 118l-71 -173 q72 -9 118.5 -56t46.5 -122q0 -64 -31.5 -111t-87.5 -64l-261 204l-245 -207q-62 5 -100 52t-38 128v235q0 121 72 194t206 73z"/>
            <glyph unicode="&#xe59;" horiz-adv-x="1388"
                   d="M1163 0l-271 786q0 49 27.5 85t73.5 36q92 0 129 -129h168l88 449h-203l-44 -261q-49 117 -173 117q-73 0 -119 -43t-42 -116q-41 78 -109.5 118.5t-179.5 40.5q-86 0 -162.5 -39t-133.5 -111q-122 -154 -122 -396q0 -261 123 -413q115 -145 293 -145q111 0 202 65 l-47 157q-74 -41 -144 -41q-37 0 -73 26t-63 73q-61 106 -61 280q0 152 54 255q53 101 145 101q66 0 99 -37t66 -124l259 -734h220z"/>
            <glyph unicode="&#xe5a;" horiz-adv-x="1704"
                   d="M1054 0v675q85 23 152.5 77.5t104.5 123.5v-876h236v1227h-230v-52q0 -110 -80 -203q-75 -90 -183 -113v368h-230v-52q0 -124 -103 -217q-98 -90 -221 -90q-191 0 -191 252v107h-232v-107q0 -196 93 -313q98 -125 288 -125q118 0 217 54t142 140v-876h237z"/>
            <glyph unicode="&#xe5b;" horiz-adv-x="2515"
                   d="M2482 408l-50 131q-75 -26 -134 -26q-101 0 -166.5 94t-78.5 265h-100l-99 -318l-129 368h-115l-111 -387l-151 433h-116q-7 -119 -42.5 -240.5t-98.5 -218.5q-154 -239 -399 -239q-160 0 -265 99q-107 101 -107 264q0 138 76 233q83 104 219 104q104 0 170 -75.5 t74 -195.5h174q-6 172 -115 300q-114 134 -300 134q-213 0 -352 -142q-134 -137 -134 -358q0 -230 151 -381q154 -154 401 -154q227 0 402 140q167 133 235 345l128 -362h100l128 408l136 -368h98l88 289q95 -180 280 -180q95 0 203 38z"/>
            <glyph unicode="&#x1e00;" horiz-adv-x="1347"
                   d="M523 1477l-475 -1477h245l132 434h480l138 -434h252l-478 1477h-294zM467 615l123 387q16 67 41 161q4 16 10 41.5t10.5 43.5t7.5 32h5q33 -130 46 -179q20 -75 28 -99l125 -387h-396zM881 -320q0 88 -61 149.5t-149 61.5q-86 0 -147 -61q-62 -62 -62 -150q0 -87 62 -147 q64 -62 147 -62q84 0 149 62q61 58 61 147zM765 -320q0 -37 -27.5 -64.5t-66.5 -27.5q-38 0 -65 27.5t-27 64.5q0 40 27 67t65 27q39 0 66.5 -27t27.5 -67z"/>
            <glyph unicode="&#x1e01;" horiz-adv-x="1073"
                   d="M734 0h213q-16 87 -16 255v391q0 441 -418 441q-220 0 -366 -92l48 -156q49 32 113.5 54t132 25.5t124 -12.5t93 -67t36.5 -131v-20q-298 2 -459 -100q-77 -49 -118.5 -120.5t-44.5 -143.5t19 -138.5t64 -112.5q63 -66 165.5 -89.5t212 11.5t177.5 128h7zM701 531v-165 q0 -22 -4 -42q-15 -76 -81.5 -125.5t-146.5 -49.5q-73 0 -117.5 43t-44.5 124q-1 110 98 164t296 51zM719 -345q0 88 -61.5 149.5t-149.5 61.5q-83 0 -146 -61q-61 -59 -61 -150q0 -86 61 -145q64 -62 146 -62q88 0 150 62q61 61 61 145zM602 -345q0 -37 -27.5 -64.5 t-66.5 -27.5q-37 0 -64.5 27.5t-27.5 64.5q0 39 27.5 67.5t64.5 28.5q40 0 67 -28t27 -68z"/>
            <glyph unicode="&#x1e02;" horiz-adv-x="1215"
                   d="M763 1721q0 51 -33.5 86.5t-85.5 35.5q-50 0 -85.5 -36t-35.5 -86q0 -51 34.5 -87t84.5 -36q52 0 86.5 35t34.5 88zM1129 423q0 146 -92 250q-85 90 -207 118v6q117 41 181.5 127t64.5 193q0 176 -140 273.5t-410 97.5q-218 0 -369 -31v-1453q147 -17 312 -17 q145 0 258.5 22.5t188 61.5t123.5 95t69.5 119t20.5 138zM837 1094q0 -105 -80.5 -168t-217.5 -63h-146v434q56 14 155 14q289 0 289 -217zM881 429q0 -131 -93.5 -196.5t-250.5 -65.5q-104 0 -144 8v515h140q160 0 254 -67t94 -194z"/>
            <glyph unicode="&#x1e03;" horiz-adv-x="1244"
                   d="M669 1786q0 51 -34 87t-85 36q-50 0 -85.5 -36.5t-35.5 -86.5q0 -51 34.5 -87t84.5 -36q52 0 86.5 35t34.5 88zM1166 548q0 239 -122.5 389t-313.5 150q-236 0 -339 -177h-6v644h-236v-1267q0 -136 -9 -287h201l14 165h5q109 -190 334 -190q96 0 181.5 40t150 112.5 t102.5 181.5t38 239zM924 539q0 -174 -74.5 -274t-207.5 -100q-108 -1 -182.5 77.5t-74.5 188.5v187q2 43 10 74q23 93 93 151t158 58q130 -1 204 -102.5t74 -259.5z"/>
            <glyph unicode="&#x1e04;" horiz-adv-x="1215"
                   d="M1129 423q0 146 -92 250q-85 90 -207 118v6q117 41 181.5 127t64.5 193q0 176 -140 273.5t-410 97.5q-218 0 -369 -31v-1453q147 -17 312 -17q145 0 258.5 22.5t188 61.5t123.5 95t69.5 119t20.5 138zM837 1094q0 -105 -80.5 -168t-217.5 -63h-146v434q56 14 155 14 q289 0 289 -217zM881 429q0 -131 -93.5 -196.5t-250.5 -65.5q-104 0 -144 8v515h140q160 0 254 -67t94 -194zM613 -245q0 51 -33 86.5t-85 35.5q-50 0 -85.5 -36t-35.5 -86q0 -51 34.5 -87t84.5 -36q53 0 86.5 35.5t33.5 87.5z"/>
            <glyph unicode="&#x1e05;" horiz-adv-x="1244"
                   d="M1166 548q0 239 -122.5 389t-313.5 150q-236 0 -339 -177h-6v644h-236v-1267q0 -136 -9 -287h201l14 165h5q109 -190 334 -190q96 0 181.5 40t150 112.5t102.5 181.5t38 239zM924 539q0 -174 -74.5 -274t-207.5 -100q-108 -1 -182.5 77.5t-74.5 188.5v187q2 43 10 74 q23 93 93 151t158 58q130 -1 204 -102.5t74 -259.5zM822 -257q0 51 -34 87t-85 36q-50 0 -85 -36t-35 -87t34 -86.5t84 -35.5q53 0 87 35t34 87z"/>
            <glyph unicode="&#x1e06;" horiz-adv-x="1215"
                   d="M1129 423q0 146 -92 250q-85 90 -207 118v6q117 41 181.5 127t64.5 193q0 176 -140 273.5t-410 97.5q-218 0 -369 -31v-1453q147 -17 312 -17q145 0 258.5 22.5t188 61.5t123.5 95t69.5 119t20.5 138zM837 1094q0 -105 -80.5 -168t-217.5 -63h-146v434q56 14 155 14 q289 0 289 -217zM881 429q0 -131 -93.5 -196.5t-250.5 -65.5q-104 0 -144 8v515h140q160 0 254 -67t94 -194zM261 -123v-136h506v136h-506z"/>
            <glyph unicode="&#x1e07;" horiz-adv-x="1244"
                   d="M1166 548q0 239 -122.5 389t-313.5 150q-236 0 -339 -177h-6v644h-236v-1267q0 -136 -9 -287h201l14 165h5q109 -190 334 -190q96 0 181.5 40t150 112.5t102.5 181.5t38 239zM924 539q0 -174 -74.5 -274t-207.5 -100q-108 -1 -182.5 77.5t-74.5 188.5v187q2 43 10 74 q23 93 93 151t158 58q130 -1 204 -102.5t74 -259.5zM464 -134v-136h506v136h-506z"/>
            <glyph unicode="&#x1e08;" horiz-adv-x="1263"
                   d="M710 1608h164l266 318h-241zM1135 1244l53 191q-121 64 -342 64q-169 0 -311.5 -55.5t-244.5 -158.5q-213 -213 -213 -562q0 -303 160 -500q159 -198 438 -236l-88 -165q169 -16 169 -90q0 -39 -36.5 -54.5t-84 -7.5t-85.5 31l-37 -102q65 -40 160 -40q239 0 239 178 q0 63 -44.5 106.5t-111.5 51.5l51 84q246 1 376 65l-43 188q-112 -54 -291 -54q-247 0 -385 146t-138 410q0 131 38 237q76 212 271 292q92 41 235 38.5t265 -57.5z"/>
            <glyph unicode="&#x1e09;" horiz-adv-x="961"
                   d="M469 1196h164l266 318h-242zM910 35l-38 176q-109 -44 -215 -44q-151 0 -242 99q-95 101 -95 267q0 163 90 264q93 104 247 104q118 0 206 -46l47 182q-117 50 -257 50q-259 0 -417 -158q-157 -157 -157 -406q0 -219 115 -362q116 -144 312 -174l-88 -165 q169 -16 169 -87q0 -41 -37 -57t-84.5 -8t-84.5 31l-36 -102q64 -40 157 -40q238 0 238 182q0 61 -44 103.5t-109 50.5l51 84q172 5 272 56z"/>
            <glyph unicode="&#x1e0a;" horiz-adv-x="1449"
                   d="M677 1721q0 51 -33.5 86.5t-84.5 35.5t-85.5 -35.5t-34.5 -86.5t33.5 -87t83.5 -36q53 0 87 35t34 88zM1372 774q0 351 -209 532.5t-598 181.5q-214 0 -408 -31v-1453q150 -17 347 -17q410 0 629 186q239 200 239 601zM1122 767q0 -290 -146.5 -441t-421.5 -151 q-120 0 -159 7v1104q71 16 190 16q265 0 401 -137.5t136 -397.5z"/>
            <glyph unicode="&#x1e0b;" horiz-adv-x="1235"
                   d="M778 1786q0 51 -33.5 87t-85.5 36q-50 0 -85 -36t-35 -87t34 -87t84 -36q53 0 87 35t34 88zM885 0h211q-9 112 -9 287v1267h-236v-611h-5q-86 144 -300 144q-192 0 -329 -149q-138 -162 -138 -419q0 -243 128 -392q62 -75 155.5 -114.5t187 -38t181.5 52t137 144.5h6z M851 627v-178q-2 -113 -69 -194q-67 -88 -186 -88q-131 0 -205 105q-73 98 -73 257q0 163 75 269q74 105 207 105q90 0 157 -57.5t86 -144.5q8 -32 8 -74z"/>
            <glyph unicode="&#x1e0c;" horiz-adv-x="1449"
                   d="M1372 774q0 351 -209 532.5t-598 181.5q-214 0 -408 -31v-1453q150 -17 347 -17q410 0 629 186q239 200 239 601zM1122 767q0 -290 -146.5 -441t-421.5 -151q-120 0 -159 7v1104q71 16 190 16q265 0 401 -137.5t136 -397.5zM629 -245q0 51 -33.5 86.5t-85.5 35.5 q-50 0 -84.5 -35.5t-34.5 -86.5t33.5 -87t83.5 -36q53 0 87 35.5t34 87.5z"/>
            <glyph unicode="&#x1e0d;" horiz-adv-x="1235"
                   d="M885 0h211q-9 112 -9 287v1267h-236v-611h-5q-86 144 -300 144q-192 0 -329 -149q-138 -162 -138 -419q0 -243 128 -392q62 -75 155.5 -114.5t187 -38t181.5 52t137 144.5h6zM851 627v-178q-2 -113 -69 -194q-67 -88 -186 -88q-131 0 -205 105q-73 98 -73 257 q0 163 75 269q74 105 207 105q90 0 157 -57.5t86 -144.5q8 -32 8 -74zM708 -257q0 51 -33.5 87t-84.5 36t-86 -36t-35 -87t34 -86.5t84 -35.5q53 0 87 35t34 87z"/>
            <glyph unicode="&#x1e0e;" horiz-adv-x="1449"
                   d="M1372 774q0 351 -209 532.5t-598 181.5q-214 0 -408 -31v-1453q150 -17 347 -17q410 0 629 186q239 200 239 601zM1122 767q0 -290 -146.5 -441t-421.5 -151q-120 0 -159 7v1104q71 16 190 16q265 0 401 -137.5t136 -397.5zM303 -123v-136h506v136h-506z"/>
            <glyph unicode="&#x1e0f;" horiz-adv-x="1235"
                   d="M885 0h211q-9 112 -9 287v1267h-236v-611h-5q-86 144 -300 144q-192 0 -329 -149q-138 -162 -138 -419q0 -243 128 -392q62 -75 155.5 -114.5t187 -38t181.5 52t137 144.5h6zM851 627v-178q-2 -113 -69 -194q-67 -88 -186 -88q-131 0 -205 105q-73 98 -73 257 q0 163 75 269q74 105 207 105q90 0 157 -57.5t86 -144.5q8 -32 8 -74zM335 -134v-136h506v136h-506z"/>
            <glyph unicode="&#x1e10;" horiz-adv-x="1449"
                   d="M1372 774q0 351 -209 532.5t-598 181.5q-214 0 -408 -31v-1453q150 -17 347 -17q410 0 629 186q239 200 239 601zM1122 767q0 -290 -146.5 -441t-421.5 -151q-120 0 -159 7v1104q71 16 190 16q265 0 401 -137.5t136 -397.5zM899 -123l-169 -15q-29 -201 -99 -391l105 12 q86 136 163 394z"/>
            <glyph unicode="&#x1e11;" horiz-adv-x="1235"
                   d="M885 0h211q-9 112 -9 287v1267h-236v-611h-5q-86 144 -300 144q-192 0 -329 -149q-138 -162 -138 -419q0 -243 128 -392q62 -75 155.5 -114.5t187 -38t181.5 52t137 144.5h6zM851 627v-178q-2 -113 -69 -194q-67 -88 -186 -88q-131 0 -205 105q-73 98 -73 257 q0 163 75 269q74 105 207 105q90 0 157 -57.5t86 -144.5q8 -32 8 -74zM721 -134l-169 -15q-29 -204 -98 -390l105 10q88 142 162 395z"/>
            <glyph unicode="&#x1e12;" horiz-adv-x="1449"
                   d="M1372 774q0 351 -209 532.5t-598 181.5q-214 0 -408 -31v-1453q150 -17 347 -17q410 0 629 186q239 200 239 601zM1122 767q0 -290 -146.5 -441t-421.5 -151q-120 0 -159 7v1104q71 16 190 16q265 0 401 -137.5t136 -397.5zM464 -123l-207 -318h161l119 198h4l120 -198 h165l-211 318h-151z"/>
            <glyph unicode="&#x1e13;" horiz-adv-x="1235"
                   d="M885 0h211q-9 112 -9 287v1267h-236v-611h-5q-86 144 -300 144q-192 0 -329 -149q-138 -162 -138 -419q0 -243 128 -392q62 -75 155.5 -114.5t187 -38t181.5 52t137 144.5h6zM851 627v-178q-2 -113 -69 -194q-67 -88 -186 -88q-131 0 -205 105q-73 98 -73 257 q0 163 75 269q74 105 207 105q90 0 157 -57.5t86 -144.5q8 -32 8 -74zM510 -134l-207 -318h161l119 197h4l121 -197h164l-211 318h-151z"/>
            <glyph unicode="&#x1e14;" horiz-adv-x="1086" d="M263 2150l266 -318h163l-190 318h-239zM331 1723v-136h506v136h-506zM395 195v476h550v195h-550v416h582v195h-820v-1477h851v195h-613z"/>
            <glyph unicode="&#x1e15;" horiz-adv-x="1097"
                   d="M249 1762l266 -318h164l-190 318h-240zM301 1334v-136h506v136h-506zM1025 583q0 103 -26.5 192.5t-78.5 160.5t-139 112t-198 41q-152 0 -268 -77t-176 -206.5t-60 -288.5q0 -244 140 -392q141 -144 390 -144q204 0 357 65l-37 165q-132 -51 -287 -51 q-148 -1 -239.5 80.5t-95.5 234.5h709q9 40 9 108zM800 644h-493q9 108 70 184q71 96 188 96q80 0 136 -41.5t79.5 -103.5t19.5 -135z"/>
            <glyph unicode="&#x1e16;" horiz-adv-x="1086" d="M456 1832h165l264 318h-241zM331 1723v-136h506v136h-506zM395 195v476h550v195h-550v416h582v195h-820v-1477h851v195h-613z"/>
            <glyph unicode="&#x1e17;" horiz-adv-x="1097"
                   d="M431 1444h165l265 318h-240zM301 1334v-136h506v136h-506zM1025 583q0 103 -26.5 192.5t-78.5 160.5t-139 112t-198 41q-152 0 -268 -77t-176 -206.5t-60 -288.5q0 -244 140 -392q141 -144 390 -144q204 0 357 65l-37 165q-132 -51 -287 -51q-148 -1 -239.5 80.5 t-95.5 234.5h709q9 40 9 108zM800 644h-493q9 108 70 184q71 96 188 96q80 0 136 -41.5t79.5 -103.5t19.5 -135z"/>
            <glyph unicode="&#x1e18;" horiz-adv-x="1086" d="M395 195v476h550v195h-550v416h582v195h-820v-1477h851v195h-613zM506 -109l-207 -318h161l119 197h4l120 -197h165l-211 318h-151z"/>
            <glyph unicode="&#x1e19;" horiz-adv-x="1097"
                   d="M1025 583q0 103 -26.5 192.5t-78.5 160.5t-139 112t-198 41q-152 0 -268 -77t-176 -206.5t-60 -288.5q0 -244 140 -392q141 -144 390 -144q204 0 357 65l-37 165q-132 -51 -287 -51q-148 -1 -239.5 80.5t-95.5 234.5h709q9 40 9 108zM800 644h-493q9 108 70 184 q71 96 188 96q80 0 136 -41.5t79.5 -103.5t19.5 -135zM475 -129l-207 -318h161l119 198h4l121 -198h164l-210 318h-152z"/>
            <glyph unicode="&#x1e1a;" horiz-adv-x="1086"
                   d="M395 195v476h550v195h-550v416h582v195h-820v-1477h851v195h-613zM861 -109h-112q-6 -92 -57 -92q-15 0 -111 43q-91 41 -125 41q-73 0 -111 -63t-38 -171h114q6 98 54 98q14 0 106 -40q92 -42 127 -42q153 0 153 226z"/>
            <glyph unicode="&#x1e1b;" horiz-adv-x="1097"
                   d="M1025 583q0 103 -26.5 192.5t-78.5 160.5t-139 112t-198 41q-152 0 -268 -77t-176 -206.5t-60 -288.5q0 -244 140 -392q141 -144 390 -144q204 0 357 65l-37 165q-132 -51 -287 -51q-148 -1 -239.5 80.5t-95.5 234.5h709q9 40 9 108zM800 644h-493q9 108 70 184 q71 96 188 96q80 0 136 -41.5t79.5 -103.5t19.5 -135zM830 -129h-111q-8 -92 -58 -92q-13 0 -111 42q-100 43 -125 43q-72 0 -110.5 -63t-38.5 -171h115q6 98 54 98q12 0 41 -13q36 -17 64 -28q99 -42 127 -42q153 0 153 226z"/>
            <glyph unicode="&#x1e1c;" horiz-adv-x="1086"
                   d="M583 1587q-126 0 -196.5 70.5t-70.5 196.5h125q6 -45 29 -78.5t53.5 -48.5t65 -15t64 15t50.5 48t25 79h123q0 -122 -72 -194.5t-196 -72.5zM694 0l-65 -111q65 -9 109 -52t44 -102q0 -182 -238 -182q-98 0 -159 39l36 103q37 -23 85 -31t85.5 7.5t37.5 56.5 q0 71 -171 88l101 184h-402v1477h820v-195h-582v-416h550v-195h-550v-476h613v-195h-314z"/>
            <glyph unicode="&#x1e1d;" horiz-adv-x="1097"
                   d="M820 1466h-123q-10 -142 -147 -142q-121 0 -140 142h-125q0 -126 70.5 -197t196.5 -71q124 0 196 73t72 195zM1025 583q0 103 -26.5 192.5t-78.5 160.5t-139 112t-198 41q-152 0 -268 -77t-176 -206.5t-60 -288.5q0 -244 140 -392q141 -144 390 -144q204 0 357 65 l-37 165q-132 -51 -287 -51q-148 -1 -239.5 80.5t-95.5 234.5h709q9 40 9 108zM800 644h-493q9 108 70 184q71 96 188 96q80 0 136 -41.5t79.5 -103.5t19.5 -135zM751 -285q0 59 -44 102t-109 51l66 113h-135l-102 -184q171 -17 171 -88q0 -66 -88 -66q-65 0 -119 33 l-36 -103q61 -40 158 -40q238 0 238 182z"/>
            <glyph unicode="&#x1e1e;" horiz-adv-x="1075"
                   d="M686 1709q0 51 -33.5 87t-85.5 36q-50 0 -85 -36t-35 -87t34 -86.5t84 -35.5q53 0 87 34.5t34 87.5zM157 1477v-1477h238v644h536v193h-536v445h578v195h-816z"/>
            <glyph unicode="&#x1e1f;" horiz-adv-x="667"
                   d="M653 1810q0 52 -33.5 87t-84.5 35q-50 0 -85.5 -35.5t-35.5 -86.5t34.5 -87t84.5 -36q51 0 85.5 35.5t34.5 87.5zM713 1365l21 184q-72 29 -167 29q-174 -1 -283 -118t-109 -347v-48h-144v-178h144v-887h237v887h236v178h-238v55q0 267 186 267q67 0 117 -22z"/>
            <glyph unicode="&#x1e20;" horiz-adv-x="1410"
                   d="M607 1738v-136h506v136h-506zM793 797v-186h270v-400q-66 -31 -214 -31q-242 0 -382.5 148t-140.5 410q0 264 151 412q151 143 395 143q193 0 322 -61l53 192q-138 69 -371 69q-361 0 -581 -211q-106 -102 -162.5 -253t-57 -304.5t52.5 -301.5t154 -245q95 -92 229 -141 t272 -53t267 17t240 64v732h-497z"/>
            <glyph unicode="&#x1e21;" horiz-adv-x="1221"
                   d="M328 1332v-136h507v136h-507zM866 918h-5q-96 169 -311 169q-96 0 -182 -40t-150 -111.5t-101.5 -177.5t-37.5 -232q-1 -226 124 -373t318 -147q215 0 314 163h4v-104q1 -337 -313 -337q-169 0 -302 82l-55 -182q137 -84 357 -84q254 0 394 128q154 136 154 481v610 q0 151 9 302h-209zM837 644v-188q0 -58 -13 -96q-27 -81 -89 -128.5t-141 -47.5q-125 0 -200.5 98t-75.5 253q0 168 77 269t199 101q106 0 176 -77q67 -73 67 -184z"/>
            <glyph unicode="&#x1e22;" horiz-adv-x="1428"
                   d="M835 1709q0 51 -33.5 87t-84.5 36q-50 0 -85.5 -36.5t-35.5 -86.5q0 -51 34 -86.5t85 -35.5q52 0 86 34.5t34 87.5zM1035 1477v-603h-640v603h-238v-1477h238v667h640v-667h236v1477h-236z"/>
            <glyph unicode="&#x1e23;" horiz-adv-x="1217"
                   d="M732 1786q0 51 -33.5 87t-85.5 36q-50 0 -85 -36t-35 -87t34 -87t84 -36q53 0 87 35t34 88zM1074 0v633q0 115 -29 203.5t-80 142.5t-115.5 81t-139.5 27q-208 0 -319 -173h-6v640h-236v-1554h236v642q1 45 12 86q20 54 61 94t89.5 58.5t100 12.5t93.5 -35.5t69 -94.5 t27 -156v-607h237z"/>
            <glyph unicode="&#x1e24;" horiz-adv-x="1428"
                   d="M1035 1477v-603h-640v603h-238v-1477h238v667h640v-667h236v1477h-236zM835 -232q0 51 -33.5 87t-84.5 36q-50 0 -85.5 -36.5t-35.5 -86.5q0 -51 34.5 -87t84.5 -36q52 0 86 35t34 88z"/>
            <glyph unicode="&#x1e25;" horiz-adv-x="1217"
                   d="M1074 0v633q0 115 -29 203.5t-80 142.5t-115.5 81t-139.5 27q-208 0 -319 -173h-6v640h-236v-1554h236v642q1 45 12 86q20 54 61 94t89.5 58.5t100 12.5t93.5 -35.5t69 -94.5t27 -156v-607h237zM732 -232q0 51 -33.5 87t-85.5 36q-50 0 -85 -36t-35 -87t34 -87t84 -36 q53 0 87 35t34 88z"/>
            <glyph unicode="&#x1e26;" horiz-adv-x="1428"
                   d="M629 1709q0 51 -33 87t-83 36q-52 0 -87 -36t-35 -87t34.5 -86.5t84.5 -35.5q51 0 85 34.5t34 87.5zM1041 1709q0 51 -33.5 87t-83.5 36q-51 0 -86.5 -36t-35.5 -87t34 -86.5t84 -35.5q53 0 87 34.5t34 87.5zM1035 1477v-603h-640v603h-238v-1477h238v667h640v-667h236 v1477h-236z"/>
            <glyph unicode="&#x1e27;" horiz-adv-x="1217"
                   d="M526 1786q0 51 -33 87t-83 36q-53 0 -88 -36t-35 -87t35 -87t86 -36q50 0 84 35t34 88zM938 1786q0 51 -33 87t-83 36q-53 0 -88 -36t-35 -87t34 -87t84 -36q53 0 87 35t34 88zM1074 0v633q0 115 -29 203.5t-80 142.5t-115.5 81t-139.5 27q-208 0 -319 -173h-6v640h-236 v-1554h236v642q1 45 12 86q20 54 61 94t89.5 58.5t100 12.5t93.5 -35.5t69 -94.5t27 -156v-607h237z"/>
            <glyph unicode="&#x1e28;" horiz-adv-x="1428"
                   d="M1271 1477v-1477h-236v667h-640v-667l-67 -111q66 -9 110.5 -52t44.5 -102q0 -182 -240 -182q-95 0 -157 39l35 103q37 -23 85 -31t85 7.5t37 56.5q0 71 -171 88l102 184h-102v1477h238v-603h640v603h236z"/>
            <glyph unicode="&#x1e29;" horiz-adv-x="1217"
                   d="M710 1087q75 0 139.5 -27t115.5 -81t80 -142.5t29 -203.5v-633h-237v607q0 91 -27 156t-69 94.5t-93.5 35.5t-100 -12.5t-89.5 -58.5t-61 -94q-11 -41 -12 -86v-642l-65 -111q65 -9 109 -52t44 -102q0 -182 -239 -182q-96 0 -157 39l34 103q38 -23 86 -31t85.5 7.5 t37.5 56.5q0 71 -171 88l100 184h-100v1554h236v-640h6q111 173 319 173z"/>
            <glyph unicode="&#x1e2a;" horiz-adv-x="1428"
                   d="M1035 1477v-603h-640v603h-238v-1477h238v667h640v-667h236v1477h-236zM982 -109h-123q-11 -144 -146 -144q-121 1 -141 144h-125q0 -126 70 -197t198 -71q123 0 195 73t72 195z"/>
            <glyph unicode="&#x1e2b;" horiz-adv-x="1217"
                   d="M1074 0v633q0 115 -29 203.5t-80 142.5t-115.5 81t-139.5 27q-208 0 -319 -173h-6v640h-236v-1554h236v642q1 45 12 86q20 54 61 94t89.5 58.5t100 12.5t93.5 -35.5t69 -94.5t27 -156v-607h237zM878 -109h-122q-10 -144 -147 -144q-120 1 -140 144h-124q0 -126 70 -197 t196 -71q124 0 195.5 73t71.5 195z"/>
            <glyph unicode="&#x1e2c;" horiz-adv-x="552"
                   d="M157 1477v-1477h238v1477h-238zM554 -109h-111q-8 -92 -58 -92q-13 0 -111 43q-93 41 -125 41q-72 0 -110.5 -63t-38.5 -171h113q8 98 56 98q11 0 105 -40q94 -42 127 -42q153 0 153 226z"/>
            <glyph unicode="&#x1e2d;" horiz-adv-x="533"
                   d="M412 1382q0 60 -42 100.5t-102 40.5q-61 0 -103 -40.5t-42 -100.5q0 -61 40.5 -101.5t99.5 -40.5q65 0 107 39.5t42 102.5zM149 1065v-1065h236v1065h-236zM546 -109h-112q-8 -92 -57 -92q-13 0 -111 43q-93 41 -126 41q-73 0 -111 -63t-38 -171h114q8 98 55 98 q10 0 106 -40q94 -42 127 -42q153 0 153 226z"/>
            <glyph unicode="&#x1e2e;" horiz-adv-x="552"
                   d="M149 1942h165l265 317h-242zM190 1709q0 51 -32.5 87t-82.5 36q-53 0 -88 -36t-35 -87t35 -86.5t86 -35.5q50 0 83.5 34.5t33.5 87.5zM602 1709q0 51 -32.5 87t-82.5 36q-53 0 -88 -36t-35 -87t34 -86.5t85 -35.5q52 0 85.5 34.5t33.5 87.5zM157 1477v-1477h238v1477 h-238z"/>
            <glyph unicode="&#x1e2f;" horiz-adv-x="533"
                   d="M155 1530h165l265 317h-240zM182 1297q0 51 -33.5 87t-83.5 36q-51 0 -86.5 -36t-35.5 -87q0 -50 35 -86t85 -36q51 0 85 34.5t34 87.5zM594 1297q0 51 -33.5 87t-83.5 36q-51 0 -86.5 -36t-35.5 -87t34 -86.5t84 -35.5q53 0 87 34.5t34 87.5zM149 1065v-1065h236v1065 h-236z"/>
            <glyph unicode="&#x1e30;" horiz-adv-x="1219" d="M483 1587h163l266 318h-241zM1201 1477h-291l-402 -532q-56 -78 -109 -161h-6v693h-236v-1477h236v537l133 157l432 -694h278l-544 849z"/>
            <glyph unicode="&#x1e31;" horiz-adv-x="1062" d="M403 1663h164l265 318h-240zM1033 1065h-284l-274 -352q-46 -59 -84 -123h-6v964h-236v-1554h236v377l90 110l322 -487h290l-447 627z"/>
            <glyph unicode="&#x1e32;" horiz-adv-x="1219"
                   d="M1201 1477h-291l-402 -532q-56 -78 -109 -161h-6v693h-236v-1477h236v537l133 157l432 -694h278l-544 849zM730 -232q0 51 -34 87t-85 36q-50 0 -85 -36t-35 -87t34 -87t84 -36q52 0 86.5 35t34.5 88z"/>
            <glyph unicode="&#x1e33;" horiz-adv-x="1062"
                   d="M1033 1065h-284l-274 -352q-46 -59 -84 -123h-6v964h-236v-1554h236v377l90 110l322 -487h290l-447 627zM667 -232q0 51 -34 87t-85 36q-50 0 -85.5 -36.5t-35.5 -86.5q0 -51 34.5 -87t84.5 -36q52 0 86.5 35t34.5 88z"/>
            <glyph unicode="&#x1e34;" horiz-adv-x="1219"
                   d="M1201 1477h-291l-402 -532q-56 -78 -109 -161h-6v693h-236v-1477h236v537l133 157l432 -694h278l-544 849zM364 -109v-136h506v136h-506z"/>
            <glyph unicode="&#x1e35;" horiz-adv-x="1062" d="M1033 1065h-284l-274 -352q-46 -59 -84 -123h-6v964h-236v-1554h236v377l90 110l322 -487h290l-447 627zM303 -109v-136h506v136h-506z"/>
            </font>
</defs>
</svg>
